<?xml version="1.0" standalone="no"?>
<!DOCTYPE svg PUBLIC "-//W3C//DTD SVG 1.1//EN" "http://www.w3.org/Graphics/SVG/1.1/DTD/svg11.dtd" >
<svg xmlns="http://www.w3.org/2000/svg" xmlns:xlink="http://www.w3.org/1999/xlink" version="1.1">
<metadata>
Created by FontForge 20201107 at Mon Jan 29 11:06:09 2018
 By Jimmy Wärting
Modern and elegant sans serif font family.
</metadata>
<defs>
<font id="Mont-Thin" horiz-adv-x="0" >
  <font-face 
    font-family="Mont Thin"
    font-weight="200"
    font-stretch="normal"
    units-per-em="1000"
    panose-1="0 0 3 0 0 0 0 0 0 0"
    ascent="800"
    descent="-200"
    x-height="539.999"
    cap-height="700"
    bbox="-800 -293 1124.6 963.861"
    underline-thickness="50"
    underline-position="-100"
    stemh="19"
    stemv="20"
    unicode-range="U+0020-25CA"
  />
<missing-glyph horiz-adv-x="460" 
d="M377.44 730.3v-920.6h-291.83v920.6h291.83zM306.561 668.62h-151.9v-30.3799h59.8398v-34.0596h-60.7598v-30.3799h152.82v30.3799h-60.7598v34.0596h60.7598v30.3799zM245.8 549.86h-92.0605v-95.7402h152.82v31.2998h-60.7598v64.4404zM214.499 518.561v-33.1396
h-30.3799v33.1396h30.3799zM306.559 429.261l-152.819 -0.000976562v-30.3799h60.7598v-34.0596h-60.7598v-30.3799h92.0596v64.4404h60.7598v30.3799zM306.56 374.029h-30.3799v-60.7598h-122.44v-31.2998h152.82v92.0596zM306.56 261.709l-92.0605 -0.000976562v-51.5498
h31.2998v21.1699h30.3799v-43.2695h-92.0596v73.6504h-30.3799v-104.03h152.82v104.03zM306.559 102.448h-152.82v-104.03h152.82v104.03zM276.179 72.0684v-43.2695h-92.0596v43.2695h92.0596zM306.559 -22.751h-152.82v-30.3799h64.4404l-64.4404 -43.2695v-30.3799
h152.82v30.3799h-93.9004l64.4404 43.2695h29.46v30.3799z" />
    <glyph glyph-name="f_f.liga" unicode="ff" horiz-adv-x="686" 
d="M673.2 539.6l0.00390625 -18.5h-198v-521.1h-20v521.1h-302.3v-521.1h-20v521.1h-119.4v18.5h119.4v42.2002c0 127.5 46.7002 173.8 174.8 173.8h43.0996v-18.2002h-41.4004c-117.9 0 -156.801 -38.7998 -156.801 -155.8v-42h302.6v42.2002
c0 127.5 46.7002 173.8 174.8 173.8h43.0996v-18.2002h-41.4004c-117.9 0 -156.801 -38.7998 -156.801 -155.8v-42h198.3z" />
    <glyph glyph-name="f_f_t.liga" unicode="fft" horiz-adv-x="984" 
d="M903.1 19.2998h68.6025v-19.2998h-69.7002c-97.2998 -0 -155.899 59.5996 -155.899 158.699v362.4h-270.9v-521.1h-20v521.1h-302.3v-521.1h-20v521.1h-119.4v18.5h119.4v42.2002c0 127.5 46.7002 173.8 174.8 173.8h43.0996v-18.2002h-41.4004
c-117.9 0 -156.801 -38.7998 -156.801 -155.8v-42h302.6v42.2002c0 127.5 46.7002 173.8 174.8 173.8h30.4004v-18.2002h-28.7002c-117.9 0 -156.801 -38.7998 -156.801 -155.8v-42h271.2v159.9h20v-159.9h200.9v-18.5h-200.9v-361.9
c0 -88.0996 49.7998 -139.899 137 -139.899z" />
    <glyph glyph-name="f_t.liga" unicode="ft" horiz-adv-x="684" 
d="M603.5 19.2998h68.6006v-19.2998h-69.7002c-97.2998 -0 -155.899 58.5996 -155.899 156.8v364.3h-293.6v-521.1h-20v521.1h-119.4v18.5h119.4v42.2002c0 127.5 46.7002 173.8 174.8 173.8h43.0996v-18.2002h-41.4004c-117.9 0 -156.801 -38.7998 -156.801 -155.8v-42
h293.9v159.9h20v-159.9h201.8v-18.5h-201.8v-363.8c0 -87.2002 49.7998 -138 137 -138z" />
    <glyph glyph-name="f_t_t.liga" unicode="ftt" horiz-adv-x="1034" 
d="M951.7 19.2998h68.6016v-19.2998h-69.7998c-97.2002 -0 -155.8 58.5996 -155.8 156.8v364.3h-323.6v-363.8c0 -87.2002 49.7998 -138 137 -138h68.5996v-19.2998h-69.7002c-97.2998 -0 -155.899 58.5996 -155.899 156.8v364.3h-298.2v-521.1h-20v521.1h-119.4v18.5h119.4
v43.2002c0 127.5 46.7002 173.8 174.8 173.8h43.0996v-18.2002h-41.4004c-117.9 0 -156.801 -38.7998 -156.801 -155.8v-43h298.5v159.9h20v-159.9h323.6v159.9h20v-159.9h204.6v-18.5h-204.6v-363.8c0 -87.2002 49.7998 -138 137 -138z" />
    <glyph glyph-name="r_f.liga" unicode="rf" horiz-adv-x="754" 
d="M741.3 540l0.00195312 -18.7002h-198v-521.3h-20v521.3h-119.4v18.7002h119.4v41.7998c0 127.5 46.7002 173.8 174.8 173.8h43.0996v-18.2002h-41.4004c-117.9 0 -156.801 -38.7998 -156.801 -155.8v-41.5996h198.3zM120.691 402.859
c30.6396 83.0596 101.011 138.039 197.11 138.039h46.2002v-19.2998h-47c-115.9 -0.200195 -195.9 -92.7002 -195.9 -215.3v-306.3h-20v540h17.2998z" />
    <glyph glyph-name="t_f.liga" unicode="tf" horiz-adv-x="754" 
d="M741.2 539.6l0.00292969 -18.5h-198v-521.1h-20v521.1h-339.4v-363.8c0 -87.2002 49.9004 -138 137 -138h59.5996v-19.4004h-60.7002c-97.2002 0 -155.9 58.7002 -155.9 156.9v364.3h-151.8v18.5h151.8v159.9h20v-159.9h339.4v52.2002c0 127.5 46.7002 173.8 174.8 173.8
h43.0996v-18.2002h-41.4004c-117.9 0 -156.801 -38.7998 -156.801 -155.8v-52h198.3z" />
    <glyph glyph-name=".notdef" horiz-adv-x="460" 
d="M377.44 730.3v-920.6h-291.83v920.6h291.83zM306.561 668.62h-151.9v-30.3799h59.8398v-34.0596h-60.7598v-30.3799h152.82v30.3799h-60.7598v34.0596h60.7598v30.3799zM245.8 549.86h-92.0605v-95.7402h152.82v31.2998h-60.7598v64.4404zM214.499 518.561v-33.1396
h-30.3799v33.1396h30.3799zM306.559 429.261l-152.819 -0.000976562v-30.3799h60.7598v-34.0596h-60.7598v-30.3799h92.0596v64.4404h60.7598v30.3799zM306.56 374.029h-30.3799v-60.7598h-122.44v-31.2998h152.82v92.0596zM306.56 261.709l-92.0605 -0.000976562v-51.5498
h31.2998v21.1699h30.3799v-43.2695h-92.0596v73.6504h-30.3799v-104.03h152.82v104.03zM306.559 102.448h-152.82v-104.03h152.82v104.03zM276.179 72.0684v-43.2695h-92.0596v43.2695h92.0596zM306.559 -22.751h-152.82v-30.3799h64.4404l-64.4404 -43.2695v-30.3799
h152.82v30.3799h-93.9004l64.4404 43.2695h29.46v30.3799z" />
    <glyph glyph-name="A" unicode="A" horiz-adv-x="677" 
d="M627.7 0l-92.2402 210.7h-396.23l-90.6299 -210.7h-21.7998l299.4 700h16.0996l307.4 -700h-22zM334.62 668.79l-187.319 -438.59h379.85z" />
    <glyph glyph-name="Aacute" unicode="&#xc1;" horiz-adv-x="677" 
d="M425.2 925.4l-92.501 -142h-19.7998l89.9004 142h22.4004zM627.699 0l-92.2402 210.7h-396.23l-90.6299 -210.7h-21.7998l299.4 700h16.0996l307.4 -700h-22zM334.619 668.79l-187.319 -438.59h379.85z" />
    <glyph glyph-name="Abreve" unicode="&#x102;" horiz-adv-x="677" 
d="M334.5 775.7c-84.0996 0 -139.9 53.2998 -139.9 149.7h18v-1.2002c0 -85.4004 49.2998 -131.5 121.899 -131.5c73.5 0 121.7 46.0996 121.7 131.5v1.2002h18.2002c0 -96.4004 -55.7998 -149.7 -139.899 -149.7zM627.699 0l-92.2402 210.7h-396.23l-90.6299 -210.7
h-21.7998l299.4 700h16.0996l307.4 -700h-22zM334.619 668.79l-187.319 -438.59h379.85z" />
    <glyph glyph-name="Acircumflex" unicode="&#xc2;" horiz-adv-x="677" 
d="M333.95 911.91l-111.95 -128.51h-21.5996l121.6 142h24l122.5 -142h-21.5996zM627.7 0l-92.2402 210.7h-396.23l-90.6299 -210.7h-21.7998l299.4 700h16.0996l307.4 -700h-22zM334.62 668.79l-187.319 -438.59h379.85z" />
    <glyph glyph-name="Adieresis" unicode="&#xc4;" horiz-adv-x="677" 
d="M215.7 825.4v46.2998h37.4004v-46.2998h-37.4004zM415.8 825.4v46.2998h37.4004v-46.2998h-37.4004zM627.7 0l-92.2402 210.7h-396.23l-90.6299 -210.7h-21.7998l299.4 700h16.0996l307.4 -700h-22zM334.63 668.79l-187.319 -438.59h379.85z" />
    <glyph glyph-name="Agrave" unicode="&#xc0;" horiz-adv-x="677" 
d="M331.2 783.4l-92.501 142h22.4004l89.9004 -142h-19.7998zM627.699 0l-92.2402 210.7h-396.23l-90.6299 -210.7h-21.7998l299.4 700h16.0996l307.4 -700h-22zM334.619 668.79l-187.319 -438.59h379.85z" />
    <glyph glyph-name="Amacron" unicode="&#x100;" horiz-adv-x="677" 
d="M179.4 838.25v19.4805h313v-19.4805h-313zM627.7 0l-92.2402 210.7h-396.23l-90.6299 -210.7h-21.7998l299.4 700h16.0996l307.4 -700h-22zM334.62 668.79l-187.319 -438.59h379.85z" />
    <glyph glyph-name="Aogonek" unicode="&#x104;" horiz-adv-x="677" 
d="M632.3 -206.4c15.2998 0 29.7021 2.09863 43.8018 7.29883v-17.2002c-14.9004 -4.7998 -31.1006 -7.2002 -46.3008 -7.2002c-62.9004 0 -104.7 37.4004 -104.7 91.1006c0 53.6699 41.54 108.99 100.22 137.83l-89.8604 205.27h-396.23l-90.6299 -210.7h-21.7998
l299.4 700h16.0996l301.51 -686.59l0.490234 0.19043l7.40039 -13.5996c-63.7002 -24.5996 -108.7 -78.6992 -108.7 -130.299c0 -45.9004 35.2002 -76.1006 89.2998 -76.1006zM334.622 668.789l-187.319 -438.59h379.85z" />
    <glyph glyph-name="Aring" unicode="&#xc5;" horiz-adv-x="677" 
d="M334.09 765.03c-60.79 0 -102.18 40.2305 -102.18 99.4609c0 59.3301 41.3896 99.3701 102.18 99.3701c60.6797 0 102.08 -40.04 102.08 -99.3701c0 -59.2305 -41.4004 -99.4609 -102.08 -99.4609zM334.09 781.99c50.5 0 84.6201 33.0596 84.6201 82.5
c0 49.5498 -34.1201 82.5098 -84.6201 82.5098c-50.5996 0 -84.7197 -32.96 -84.7197 -82.5098c0 -49.4404 34.1201 -82.5 84.7197 -82.5zM627.7 0l-92.2402 210.7h-396.23l-90.6299 -210.7h-21.7998l299.4 700h16.0996l307.4 -700h-22zM334.62 668.79l-187.319 -438.59
h379.85z" />
    <glyph glyph-name="Atilde" unicode="&#xc3;" horiz-adv-x="677" 
d="M407.5 797.8c-30.2002 0 -51.8994 13.3994 -86.5996 54.2998c-32.2002 38.4004 -49.9004 50.6006 -75.2002 50.6006c-36.7998 0 -62.0996 -34.7002 -62.0996 -87.2002v-11h-16.5v11.2998c0 62.4004 30.7002 104.2 78.5 104.2c31.5 0 53.5996 -14 88.1992 -56.5
c29.7002 -36 47.6006 -48.4004 73.6006 -48.4004c37.7998 0 62 33.7002 62 87.2002v9h16.5996v-9.2002c0 -62.5 -30.9004 -104.3 -78.5 -104.3zM627.701 -0.000976562l-92.2402 210.7h-396.23l-90.6299 -210.7h-21.7998l299.4 700h16.0996l307.4 -700h-22zM334.621 668.789
l-187.319 -438.59h379.85z" />
    <glyph glyph-name="AE" unicode="&#xc6;" horiz-adv-x="856" 
d="M445.9 19.9004h364.5v-19.9004h-384.8v187.1h-296.02l-115.28 -187.1h-23.9004l431.6 700h377.4v-19.7998h-353.5v-308.7h325.7v-19.5996h-325.7v-332zM141.591 206.601h284.01v460.94z" />
    <glyph glyph-name="AEacute" unicode="&#x1fc;" horiz-adv-x="856" 
d="M560.9 925.4l-92.501 -142h-19.7998l89.9004 142h22.4004zM445.899 19.9004h364.5v-19.9004h-384.8v187.1h-296.02l-115.28 -187.1h-23.9004l431.6 700h377.4v-19.7998h-353.5v-308.7h325.7v-19.5996h-325.7v-332zM141.59 206.601h284.01v460.94z" />
    <glyph glyph-name="B" unicode="B" horiz-adv-x="644" 
d="M439.04 370.25c78.7197 -20.9697 137.359 -94 137.359 -180.86c0 -104.5 -79.5 -189.4 -203.1 -189.4h-263.1v700h262.7c109.6 0 181.899 -74.2998 181.899 -167.399c0 -75.4404 -48.6396 -140.2 -115.76 -162.34zM381.589 679.9h-251.201v-299.9h257.5
c82.5 0 146.4 71.9004 146.4 151.301c0 83.0996 -67.5996 148.6 -152.699 148.6zM382.088 20.2002c97.5996 0 173.7 74.8008 173.7 170.301c0 93.5996 -75.2002 169.399 -169.2 169.399h-256.2v-339.7h251.7z" />
    <glyph glyph-name="C" unicode="C" horiz-adv-x="779" 
d="M413.2 -10.0996c-208.9 0 -356.302 150.101 -356.302 359.2s148.3 361 356.3 361c152.2 0 270.601 -81.7998 320.4 -215h-21.4004c-48.5996 121.5 -158.199 194.9 -298.999 194.9c-195.2 0 -335.8 -142.5 -335.8 -340.9s139.7 -339.101 335.8 -339.101
c144.7 0 257.101 77.4004 305.601 207.601h20.5c-48.9004 -142 -170 -227.7 -326.1 -227.7z" />
    <glyph glyph-name="Cacute" unicode="&#x106;" horiz-adv-x="779" 
d="M384.8 783.4l89.8994 142h22.4004l-92.5 -142h-19.7998zM413.199 -10.0996c-208.9 0 -356.302 150.101 -356.302 359.2s148.3 361 356.3 361c152.2 0 270.601 -81.7998 320.4 -215h-21.4004c-48.5996 121.5 -158.199 194.9 -298.999 194.9
c-195.2 0 -335.8 -142.5 -335.8 -340.9s139.7 -339.101 335.8 -339.101c144.7 0 257.101 77.4004 305.601 207.601h20.5c-48.9004 -142 -170 -227.7 -326.1 -227.7z" />
    <glyph glyph-name="Ccaron" unicode="&#x10c;" horiz-adv-x="779" 
d="M518.8 925.4h21.5996l-122.5 -142h-24l-121.6 142h21.5996l111.95 -128.51zM413.199 -10.0996c-208.9 0 -356.302 150.101 -356.302 359.2s148.3 361 356.3 361c152.2 0 270.601 -81.7998 320.4 -215h-21.4004c-48.5996 121.5 -158.199 194.9 -298.999 194.9
c-195.2 0 -335.8 -142.5 -335.8 -340.9s139.7 -339.101 335.8 -339.101c144.7 0 257.101 77.4004 305.601 207.601h20.5c-48.9004 -142 -170 -227.7 -326.1 -227.7z" />
    <glyph glyph-name="Ccedilla" unicode="&#xc7;" horiz-adv-x="779" 
d="M413.2 -10.0996l-0.0507812 0.0107422l-14.9102 -52.3799c58.2998 -1.83008 101.97 -36.7705 101.97 -85.9209c0 -49.7998 -44.7998 -86.2002 -105.899 -86.2002h-61.7002v16.4004h61.5996c51.5996 0 87.8994 28.7002 87.8994 69.9004
c0 40.2002 -37.2002 69.9004 -89.7998 69.9004h-11.7998l-2.7998 4.09961l18.0195 64.5498c-199.6 8.12988 -338.83 155.62 -338.83 358.84c0 209.1 148.3 361 356.3 361c152.2 0 270.601 -81.7998 320.4 -215h-21.4004c-48.5996 121.5 -158.199 194.9 -298.999 194.9
c-195.2 0 -335.8 -142.5 -335.8 -340.9s139.7 -339.101 335.8 -339.101c144.7 0 257.101 77.4004 305.601 207.601h20.5c-48.9004 -142 -170 -227.7 -326.1 -227.7z" />
    <glyph glyph-name="Ccircumflex" unicode="&#x108;" horiz-adv-x="779" 
d="M540.4 783.4h-21.5996l-112.95 128.51l-111.95 -128.51h-21.5996l121.6 142h24zM413.201 -10.0996c-208.9 0 -356.302 150.101 -356.302 359.2s148.3 361 356.3 361c152.2 0 270.601 -81.7998 320.4 -215h-21.4004c-48.5996 121.5 -158.199 194.9 -298.999 194.9
c-195.2 0 -335.8 -142.5 -335.8 -340.9s139.7 -339.101 335.8 -339.101c144.7 0 257.101 77.4004 305.601 207.601h20.5c-48.9004 -142 -170 -227.7 -326.1 -227.7z" />
    <glyph glyph-name="Cdotaccent" unicode="&#x10a;" horiz-adv-x="779" 
d="M387.7 825.4v46.2998h37.4004v-46.2998h-37.4004zM413.2 -10.0996c-208.9 0 -356.302 150.101 -356.302 359.2s148.3 361 356.3 361c152.2 0 270.601 -81.7998 320.4 -215h-21.4004c-48.5996 121.5 -158.199 194.9 -298.999 194.9c-195.2 0 -335.8 -142.5 -335.8 -340.9
s139.7 -339.101 335.8 -339.101c144.7 0 257.101 77.4004 305.601 207.601h20.5c-48.9004 -142 -170 -227.7 -326.1 -227.7z" />
    <glyph glyph-name="D" unicode="D" horiz-adv-x="722" 
d="M310.3 700c206 0 355 -147 355 -349.1c0 -203 -149.9 -350.9 -355 -350.9h-200.1v700h200.1zM310 19.7002c193.5 0 334.801 139.7 334.801 331.2c0 190.6 -140.4 329.399 -334.801 329.399h-179.5v-660.6h179.5z" />
    <glyph glyph-name="Eth" unicode="&#xd0;" horiz-adv-x="731" 
d="M319 700c206 0 355 -147 355 -349.1c0 -203 -149.9 -350.9 -355 -350.9h-200.1v340.7h-105.4v18.7002h105.4v340.6h200.1zM318.7 19.7002c193.5 0 334.801 139.701 334.801 331.201c0 190.6 -140.4 329.399 -334.801 329.399h-179.5v-320.9h264.3v-18.7002h-264.3v-321
h179.5z" />
    <glyph glyph-name="Dcaron" unicode="&#x10e;" horiz-adv-x="722" 
d="M309.3 783.4h-24l-121.6 142h21.5996l111.95 -128.52l112.95 128.52h21.5996zM310.3 700c206 0 355 -147 355 -349.1c0 -203 -149.9 -350.9 -355 -350.9h-200.1v700h200.1zM310 19.7002c193.5 0 334.801 139.7 334.801 331.2c0 190.6 -140.4 329.399 -334.801 329.399
h-179.5v-660.6h179.5z" />
    <glyph glyph-name="Dcroat" unicode="&#x110;" horiz-adv-x="731" 
d="M319 700c206 0 355 -147 355 -349.1c0 -203 -149.9 -350.9 -355 -350.9h-200.1v340.7h-105.4v18.7002h105.4v340.6h200.1zM318.7 19.7002c193.5 0 334.801 139.701 334.801 331.201c0 190.6 -140.4 329.399 -334.801 329.399h-179.5v-320.9h264.3v-18.7002h-264.3v-321
h179.5z" />
    <glyph glyph-name="E" unicode="E" horiz-adv-x="540" 
d="M130.5 19.9004h362.7v-19.9004h-383v700h372v-19.7998h-351.7v-303.3h325.7v-19.5996h-325.7v-337.4z" />
    <glyph glyph-name="Eacute" unicode="&#xc9;" horiz-adv-x="540" 
d="M383.6 925.4l-92.501 -142h-19.7998l89.9004 142h22.4004zM130.499 19.9004h362.7v-19.9004h-383v700h372v-19.7998h-351.7v-303.3h325.7v-19.5996h-325.7v-337.4z" />
    <glyph glyph-name="Ebreve" unicode="&#x114;" horiz-adv-x="540" 
d="M292.9 775.7c-84.0996 0 -139.9 53.2998 -139.9 149.7h18v-1.2002c0 -85.4004 49.2998 -131.5 121.899 -131.5c73.5 0 121.7 46.0996 121.7 131.5v1.2002h18.2002c0 -96.4004 -55.7998 -149.7 -139.899 -149.7zM130.499 19.9004h362.7v-19.9004h-383v700h372v-19.7998
h-351.7v-303.3h325.7v-19.5996h-325.7v-337.4z" />
    <glyph glyph-name="Ecaron" unicode="&#x11a;" horiz-adv-x="540" 
d="M304.4 783.4h-24l-121.6 142h21.5996l111.95 -128.52l112.95 128.52h21.5996zM130.5 19.9004h362.7v-19.9004h-383v700h372v-19.7998h-351.7v-303.3h325.7v-19.5996h-325.7v-337.4z" />
    <glyph glyph-name="Ecircumflex" unicode="&#xca;" horiz-adv-x="540" 
d="M292.35 911.91l-111.95 -128.51h-21.5996l121.6 142h24l122.5 -142h-21.5996zM130.499 19.9004h362.7v-19.9004h-383v700h372v-19.7998h-351.7v-303.3h325.7v-19.5996h-325.7v-337.4z" />
    <glyph glyph-name="Edieresis" unicode="&#xcb;" horiz-adv-x="540" 
d="M174.1 825.4v46.2998h37.4004v-46.2998h-37.4004zM374.199 825.4v46.2998h37.4004v-46.2998h-37.4004zM130.499 19.9004h362.7v-19.9004h-383v700h372v-19.7998h-351.7v-303.3h325.7v-19.5996h-325.7v-337.4z" />
    <glyph glyph-name="Edotaccent" unicode="&#x116;" horiz-adv-x="540" 
d="M274.2 825.4v46.2998h37.4004v-46.2998h-37.4004zM130.5 19.9004h362.7v-19.9004h-383v700h372v-19.7998h-351.7v-303.3h325.7v-19.5996h-325.7v-337.4z" />
    <glyph glyph-name="Egrave" unicode="&#xc8;" horiz-adv-x="540" 
d="M289.6 783.4l-92.501 142h22.4004l89.9004 -142h-19.7998zM130.499 19.9004h362.7v-19.9004h-383v700h372v-19.7998h-351.7v-303.3h325.7v-19.5996h-325.7v-337.4z" />
    <glyph glyph-name="Emacron" unicode="&#x112;" horiz-adv-x="540" 
d="M137.8 838.25v19.4805h313v-19.4805h-313zM130.5 19.9004h362.7v-19.9004h-383v700h372v-19.7998h-351.7v-303.3h325.7v-19.5996h-325.7v-337.4z" />
    <glyph glyph-name="Eogonek" unicode="&#x118;" horiz-adv-x="540" 
d="M475.5 -206.4c15.2998 0 29.6992 2.09961 43.999 7.2998v-17c-14.9004 -4.90039 -31.2002 -7.40039 -46.5 -7.40039c-62.7998 0 -104.5 37.4004 -104.5 91.1006c0 50.9102 37.0996 103.15 90.96 132.4h-349.26v700h372v-19.7998h-351.7v-303.3h325.7v-19.5996h-325.7
v-337.4h362.7v-19.9004c-61.7002 -24 -106.8 -78.7998 -106.8 -130.2c0 -46 35.2002 -76.2002 89.1006 -76.2002z" />
    <glyph glyph-name="F" unicode="F" horiz-adv-x="509" 
d="M478.3 680.2l-347.8 -0.000976562v-316.5h321.8v-19.5996h-321.8v-344.1h-20.2998v700h368.1v-19.7998z" />
    <glyph glyph-name="G" unicode="G" horiz-adv-x="800" 
d="M370 323.9l377.699 0.00195312c-7.59961 -196.7 -148 -332.3 -342 -332.3c-205.1 0 -347.899 151.2 -347.899 357.5c0 207.1 148.2 359.199 347.7 359.199c162.7 0 300.2 -102.4 330.3 -244.301h-20.5996c-30 130.4 -158.5 224.2 -309.5 224.2
c-188.8 0 -327.399 -143.4 -327.399 -339.101c0 -197.7 135.6 -337.4 327.399 -337.4c177.38 0 305.899 119 320.59 292.4h-356.29v19.7998z" />
    <glyph glyph-name="Gbreve" unicode="&#x11e;" horiz-adv-x="800" 
d="M408.4 775.7c-84.0996 0 -139.9 53.2998 -139.9 149.7h18v-1.2002c0 -85.4004 49.2998 -131.5 121.899 -131.5c73.5 0 121.7 46.0996 121.7 131.5v1.2002h18.2002c0 -96.4004 -55.7998 -149.7 -139.899 -149.7zM369.999 323.9l377.699 0.00195312
c-7.59961 -196.7 -148 -332.3 -342 -332.3c-205.1 0 -347.899 151.2 -347.899 357.5c0 207.1 148.2 359.199 347.7 359.199c162.7 0 300.2 -102.4 330.3 -244.301h-20.5996c-30 130.4 -158.5 224.2 -309.5 224.2c-188.8 0 -327.399 -143.4 -327.399 -339.101
c0 -197.7 135.6 -337.4 327.399 -337.4c177.38 0 305.899 119 320.59 292.4h-356.29v19.7998z" />
    <glyph glyph-name="Gcircumflex" unicode="&#x11c;" horiz-adv-x="800" 
d="M407.85 911.91l-111.95 -128.51h-21.5996l121.6 142h24l122.5 -142h-21.5996zM369.999 323.9l377.699 0.00195312c-7.59961 -196.7 -148 -332.3 -342 -332.3c-205.1 0 -347.899 151.2 -347.899 357.5c0 207.1 148.2 359.199 347.7 359.199
c162.7 0 300.2 -102.4 330.3 -244.301h-20.5996c-30 130.4 -158.5 224.2 -309.5 224.2c-188.8 0 -327.399 -143.4 -327.399 -339.101c0 -197.7 135.6 -337.4 327.399 -337.4c177.38 0 305.899 119 320.59 292.4h-356.29v19.7998z" />
    <glyph glyph-name="Gdotaccent" unicode="&#x120;" horiz-adv-x="800" 
d="M427.1 871.7v-46.2998h-37.4004v46.2998h37.4004zM370 323.9l377.699 0.00195312c-7.59961 -196.7 -148 -332.3 -342 -332.3c-205.1 0 -347.899 151.2 -347.899 357.5c0 207.1 148.2 359.199 347.7 359.199c162.7 0 300.2 -102.4 330.3 -244.301h-20.5996
c-30 130.4 -158.5 224.2 -309.5 224.2c-188.8 0 -327.399 -143.4 -327.399 -339.101c0 -197.7 135.6 -337.4 327.399 -337.4c177.38 0 305.899 119 320.59 292.4h-356.29v19.7998z" />
    <glyph glyph-name="H" unicode="H" horiz-adv-x="728" 
d="M597.6 700h20.2998v-700h-20.2998v356.3h-467.1v-356.3h-20.2998v700h20.2998v-323.8h467.1v323.8z" />
    <glyph glyph-name="Hbar" unicode="&#x126;" horiz-adv-x="737" 
d="M720.6 573.9v-18.0996h-99v-555.8h-20.2998v356.4h-467.1v-356.4h-20.2998v555.8h-93.2998v18.0996h93.2998v126.1h20.2998v-126.1h467.1v126.1h20.2998v-126.1h99zM601.3 376.101v179.7h-467.1v-179.7h467.1z" />
    <glyph glyph-name="Hcircumflex" unicode="&#x124;" horiz-adv-x="728" 
d="M371.05 911.91l-111.95 -128.51h-21.5996l121.6 142h24l122.5 -142h-21.5996zM597.6 700h20.2998v-700h-20.2998v356.3h-467.1v-356.3h-20.2998v700h20.2998v-323.8h467.1v323.8z" />
    <glyph glyph-name="I" unicode="I" horiz-adv-x="241" 
d="M110.2 0v700h20.2998v-700h-20.2998z" />
    <glyph glyph-name="IJ" unicode="&#x132;" horiz-adv-x="763" 
d="M110.2 0v700h20.2998v-700h-20.2998zM436.9 -10.2002c-125.6 0 -226 100.302 -226 233.302v5.09961h20.2002v-4.7002c0 -120.7 90 -213.601 205.8 -213.601c114.6 0 204.6 93.7998 204.6 213.6v476.5h20.2002v-476.9c0 -133 -100.1 -233.3 -224.8 -233.3z" />
    <glyph glyph-name="Iacute" unicode="&#xcd;" horiz-adv-x="241" 
d="M96.2002 784.3l60.5996 142h22l-63 -142h-19.5996zM110.2 -0v700h20.2998v-700h-20.2998z" />
    <glyph glyph-name="Ibreve" unicode="&#x12c;" horiz-adv-x="241" 
d="M120.4 775.7c-76.2998 0 -127.2 54.2002 -127.2 149.7h18v-1.2002c0 -85.4004 44.4004 -131.5 109.2 -131.5c65.7002 0 109 46.0996 109 131.5v1.2002h18.2002c0 -95.5 -50.9004 -149.7 -127.2 -149.7zM110.2 0v700h20.2998v-700h-20.2998z" />
    <glyph glyph-name="Icircumflex" unicode="&#xce;" horiz-adv-x="241" 
d="M132.2 925.4l104.799 -142h-21.2002l-95.0996 127.28l-95.0996 -127.28h-21.0996l104.8 142h22.9004zM110.199 0v700h20.2998v-700h-20.2998z" />
    <glyph glyph-name="Idieresis" unicode="&#xcf;" horiz-adv-x="241" 
d="M30.4004 825.4v46.2998h36.4004v-46.2998h-36.4004zM173.101 825.4v46.2998h36.4004v-46.2998h-36.4004zM110.2 0v700h20.2998v-700h-20.2998z" />
    <glyph glyph-name="Idotaccent" unicode="&#x130;" horiz-adv-x="241" 
d="M101.6 825.4v46.2998h37.4004v-46.2998h-37.4004zM110.199 0v700h20.2998v-700h-20.2998z" />
    <glyph glyph-name="Igrave" unicode="&#xcc;" horiz-adv-x="241" 
d="M124.4 783.4h-19.9004l-62 142h22.2002zM110.2 0v700h20.2998v-700h-20.2998z" />
    <glyph glyph-name="Imacron" unicode="&#x12a;" horiz-adv-x="241" 
d="M-2.24023 838.77v20.5098h248.52v-20.5098h-248.52zM110.2 -0.000976562v700h20.2998v-700h-20.2998z" />
    <glyph glyph-name="Iogonek" unicode="&#x12e;" horiz-adv-x="242" 
d="M116.3 -206.4c15.2002 0 29.6006 2.09961 43.9004 7.2998v-17c-14.9004 -4.90039 -31.1006 -7.40039 -46.501 -7.40039c-62.7998 0 -104.399 37.4004 -104.399 91.1006c0 54.3799 42.0498 110.79 101.8 139.19v693.21h20.2998v-700
c-60.5 -25 -104.3 -79.2002 -104.3 -130.2c0 -46 35.2002 -76.2002 89.2002 -76.2002z" />
    <glyph glyph-name="Itilde" unicode="&#x128;" horiz-adv-x="241" 
d="M199.2 797.8c-36.2002 0 -59.6016 27.6992 -81.7012 54.999c-20.5996 25 -41.0996 49.9004 -71.0996 49.9004c-33.7002 0 -57 -34.9004 -57 -87.2002v-11h-16.0996v11.2998c0 62.4004 28.5 104.2 73 104.2c38 0 61 -28.2998 83 -55.7002
c20.5996 -25.0996 40.0996 -49.1992 69.7998 -49.1992c34.7002 0 56.9004 33.9004 56.9004 87.2002v9h16.2002v-9.2002c0 -62.5 -28.7002 -104.3 -73 -104.3zM110.199 -0.000976562v700h20.2998v-700h-20.2998z" />
    <glyph glyph-name="J" unicode="J" horiz-adv-x="585" 
d="M259.3 -10.2002c-125.6 0 -226 100.302 -226 233.302v5.09961h20.2002v-4.7002c0 -120.7 90 -213.601 205.8 -213.601c114.6 0 204.6 93.7998 204.6 213.6v476.5h20.2002v-476.9c0 -133 -100.1 -233.3 -224.8 -233.3z" />
    <glyph glyph-name="Jcircumflex" unicode="&#x134;" horiz-adv-x="585" 
d="M485.6 925.4l104.799 -142h-21.2002l-95.0996 127.28l-95.0996 -127.28h-21.0996l104.8 142h22.9004zM463.898 223.5v476.502h20.2002v-476.9c0 -133 -100.1 -233.3 -224.8 -233.3c-125.6 0 -226 100.3 -226 233.3v5.09961h20.2002v-4.7002
c0 -120.7 90 -213.601 205.8 -213.601c114.6 0 204.6 93.7998 204.6 213.6z" />
    <glyph glyph-name="K" unicode="K" horiz-adv-x="597" 
d="M566.6 0l-311.801 354.8h-124.3v-354.8h-20.2998v700h20.2998v-325.5h124.28l285.32 325.5h26.5l-293.69 -335.17l320.29 -364.83h-26.5996z" />
    <glyph glyph-name="L" unicode="L" horiz-adv-x="502" 
d="M130.5 19.7002h349.8v-19.7002h-370.1v700h20.2998v-680.3z" />
    <glyph glyph-name="Lacute" unicode="&#x139;" horiz-adv-x="502" 
d="M226.5 925.4l-92.501 -142h-19.7998l89.9004 142h22.4004zM130.499 19.7002h349.8v-19.7002h-370.1v700h20.2998v-680.3z" />
    <glyph glyph-name="Lcaron" unicode="&#x13d;" horiz-adv-x="502" 
d="M383.9 629.5c16.2998 13.2002 25.0996 31.6992 25.0996 59.0996h-25.5v41.7002h40.7998v-38.2998c0 -36.9004 -12.7998 -62.4004 -34.0996 -76.7002zM130.5 19.6992h349.8v-19.7002h-370.1v700h20.2998v-680.3z" />
    <glyph glyph-name="Ldot" unicode="&#x13f;" horiz-adv-x="504" 
d="M130.5 19.7002h349.8v-19.7002h-370.1v700h20.2998v-680.3zM372.7 389.2v-52.5996h-37.4004v52.5996h37.4004z" />
    <glyph glyph-name="Lslash" unicode="&#x141;" horiz-adv-x="502" 
d="M130.5 19.7002h349.8v-19.7002h-370.1v277.12l-94.7998 -51.5195v20.7998l94.7998 51.5996v402h20.2998v-390.95l270.9 147.45v-21.0996l-270.9 -147.24v-268.46z" />
    <glyph glyph-name="M" unicode="M" horiz-adv-x="939" 
d="M885.3 0h-20.499l-116.87 657.69l-273.93 -622.79h-9.7002l-273.03 622.02l-117.87 -656.92h-20.5l125.1 700h16.4004l274.21 -629.59l276.09 629.59h16.5996z" />
    <glyph glyph-name="N" unicode="N" horiz-adv-x="744" 
d="M613.4 700h20.0996v-700h-17.9004l-485.3 663.39v-663.39h-20.0996v700h18.5l484.7 -663.26v663.26z" />
    <glyph glyph-name="Nacute" unicode="&#x143;" horiz-adv-x="744" 
d="M478.8 925.4l-92.501 -142h-19.7998l89.9004 142h22.4004zM613.398 700h20.0996v-700h-17.9004l-485.3 663.39v-663.39h-20.0996v700h18.5l484.7 -663.26v663.26z" />
    <glyph glyph-name="Ncaron" unicode="&#x147;" horiz-adv-x="744" 
d="M399.6 783.4h-24l-121.6 142h21.5996l111.95 -128.52l112.95 128.52h21.5996zM613.399 700h20.0996v-700h-17.9004l-485.3 663.39v-663.39h-20.0996v700h18.5l484.7 -663.26v663.26z" />
    <glyph glyph-name="Eng" unicode="&#x14a;" horiz-adv-x="744" 
d="M432.2 -190l-0.000976562 19.5996h12.9004c103 0 168.9 65.7998 168.9 168.7l-483.7 666.2v-664.5h-20.0996v700h18.5l484.7 -667.4v667.4h20.0996v-700.6c0 -115.9 -73.4004 -189.4 -189.2 -189.4h-12.0996z" />
    <glyph glyph-name="Ntilde" unicode="&#xd1;" horiz-adv-x="744" 
d="M237.2 815.5l0.000976562 -11.001h-16.5v11.2998c0 62.4004 30.7002 104.2 78.5 104.2c31.5 0 53.5996 -14 88.1992 -56.5c29.7002 -36 47.6006 -48.4004 73.6006 -48.4004c37.7998 0 62 33.7002 62 87.2002v9h16.5996v-9.2002c0 -62.5 -30.9004 -104.3 -78.5 -104.3
c-30.2002 0 -51.9004 13.4004 -86.6006 54.3008c-32.2002 38.4004 -49.9004 50.6006 -75.2002 50.6006c-36.7998 0 -62.0996 -34.7002 -62.0996 -87.2002zM613.401 699.999h20.0996v-700h-17.9004l-485.3 663.39v-663.39h-20.0996v700h18.5l484.7 -663.26v663.26z" />
    <glyph glyph-name="O" unicode="O" horiz-adv-x="833" 
d="M416.7 -10.2002c-210.2 0 -359.8 154.999 -359.8 359.299c0 205.2 149.6 361.101 359.8 361.101s359.8 -155 359.8 -361.1c0 -205.2 -149.6 -359.3 -359.8 -359.3zM416.7 9.89844c198.2 0 339.3 145.6 339.3 339.199c0 194.5 -141.1 341 -339.3 341
s-339.3 -147.5 -339.3 -341c0 -192.6 141.1 -339.199 339.3 -339.199z" />
    <glyph glyph-name="Oacute" unicode="&#xd3;" horiz-adv-x="833" 
d="M395.1 783.4l89.8994 142h22.4004l-92.5 -142h-19.7998zM416.699 -10.1992c-210.2 0 -359.8 154.999 -359.8 359.299c0 205.2 149.6 361.101 359.8 361.101s359.8 -155 359.8 -361.1c0 -205.2 -149.6 -359.3 -359.8 -359.3zM416.699 9.89941
c198.2 0 339.3 145.6 339.3 339.199c0 194.5 -141.1 341 -339.3 341s-339.3 -147.5 -339.3 -341c0 -192.6 141.1 -339.199 339.3 -339.199z" />
    <glyph glyph-name="Obreve" unicode="&#x14e;" horiz-adv-x="833" 
d="M416.7 775.7c-84.0996 0 -139.9 53.2998 -139.9 149.7h18v-1.2002c0 -85.4004 49.2998 -131.5 121.899 -131.5c73.5 0 121.7 46.0996 121.7 131.5v1.2002h18.2002c0 -96.4004 -55.7998 -149.7 -139.899 -149.7zM416.699 -10.2002c-210.2 0 -359.8 154.999 -359.8 359.299
c0 205.2 149.6 361.101 359.8 361.101s359.8 -155 359.8 -361.1c0 -205.2 -149.6 -359.3 -359.8 -359.3zM416.699 9.89844c198.2 0 339.3 145.6 339.3 339.199c0 194.5 -141.1 341 -339.3 341s-339.3 -147.5 -339.3 -341c0 -192.6 141.1 -339.199 339.3 -339.199z" />
    <glyph glyph-name="Ocircumflex" unicode="&#xd4;" horiz-adv-x="833" 
d="M550.7 783.4h-21.5996l-112.95 128.51l-111.95 -128.51h-21.5996l121.6 142h24zM416.7 -10.1992c-210.2 0 -359.8 154.999 -359.8 359.299c0 205.2 149.6 361.101 359.8 361.101s359.8 -155 359.8 -361.1c0 -205.2 -149.6 -359.3 -359.8 -359.3zM416.7 9.89941
c198.2 0 339.3 145.6 339.3 339.199c0 194.5 -141.1 341 -339.3 341s-339.3 -147.5 -339.3 -341c0 -192.6 141.1 -339.199 339.3 -339.199z" />
    <glyph glyph-name="Odieresis" unicode="&#xd6;" horiz-adv-x="833" 
d="M297.9 825.4v46.2998h37.4004v-46.2998h-37.4004zM498 825.4v46.2998h37.4004v-46.2998h-37.4004zM416.7 -10.2002c-210.2 0 -359.8 154.999 -359.8 359.299c0 205.2 149.6 361.101 359.8 361.101s359.8 -155 359.8 -361.1c0 -205.2 -149.6 -359.3 -359.8 -359.3z
M416.7 9.89844c198.2 0 339.3 145.6 339.3 339.199c0 194.5 -141.1 341 -339.3 341s-339.3 -147.5 -339.3 -341c0 -192.6 141.1 -339.199 339.3 -339.199z" />
    <glyph glyph-name="Ograve" unicode="&#xd2;" horiz-adv-x="833" 
d="M413.4 783.4l-92.501 142h22.4004l89.9004 -142h-19.7998zM416.699 -10.1992c-210.2 0 -359.8 154.999 -359.8 359.299c0 205.2 149.6 361.101 359.8 361.101s359.8 -155 359.8 -361.1c0 -205.2 -149.6 -359.3 -359.8 -359.3zM416.699 9.89941
c198.2 0 339.3 145.6 339.3 339.199c0 194.5 -141.1 341 -339.3 341s-339.3 -147.5 -339.3 -341c0 -192.6 141.1 -339.199 339.3 -339.199z" />
    <glyph glyph-name="Ohungarumlaut" unicode="&#x150;" horiz-adv-x="833" 
d="M322.8 783.4l79.9004 142h21.2998l-81.7998 -142h-19.4004zM471 783.4l81.8994 142h21.7002l-84.0996 -142h-19.5zM416.699 -10.1992c-210.2 0 -359.8 154.999 -359.8 359.299c0 205.2 149.6 361.101 359.8 361.101s359.8 -155 359.8 -361.1
c0 -205.2 -149.6 -359.3 -359.8 -359.3zM416.699 9.89941c198.2 0 339.3 145.6 339.3 339.199c0 194.5 -141.1 341 -339.3 341s-339.3 -147.5 -339.3 -341c0 -192.6 141.1 -339.199 339.3 -339.199z" />
    <glyph glyph-name="Omacron" unicode="&#x14c;" horiz-adv-x="833" 
d="M261.6 838.25v19.4805h313v-19.4805h-313zM416.699 -10.1992c-210.2 0 -359.8 154.999 -359.8 359.299c0 205.2 149.6 361.101 359.8 361.101s359.8 -155 359.8 -361.1c0 -205.2 -149.6 -359.3 -359.8 -359.3zM416.699 9.89941c198.2 0 339.3 145.6 339.3 339.199
c0 194.5 -141.1 341 -339.3 341s-339.3 -147.5 -339.3 -341c0 -192.6 141.1 -339.199 339.3 -339.199z" />
    <glyph glyph-name="Oslash" unicode="&#xd8;" horiz-adv-x="833" 
d="M618.27 648.79c97.0703 -61.7402 158.932 -171.13 158.932 -300.689c0 -203.2 -152.4 -355.3 -357 -355.3c-63.5195 0 -121.449 14.7305 -172.14 40.7803l-57.3604 -95.5801h-22.9004l62.5898 104.66c-105.42 60.8799 -173.59 173.1 -173.59 307.239
c0 203.3 154.3 357.399 358.899 357.399c68.9697 0 132.439 -17.4404 185.209 -48.71l62.8896 103.41h22.9004zM77.3008 350c0 -126.69 64.1309 -232.7 163.551 -290.13l350.1 581.63c-49.6797 28.8301 -109.85 45.7002 -175.25 45.7002
c-192.7 0 -338.4 -145.7 -338.4 -337.2zM420.002 12.9004c192.7 0 336.601 143.6 336.601 335.199c0 122.61 -57.3604 224.61 -148.78 283.811l-349.03 -581.27c47.1797 -23.7305 101.87 -37.7402 161.21 -37.7402z" />
    <glyph glyph-name="Oslashacute" unicode="&#x1fe;" horiz-adv-x="833" 
d="M506.7 925.4l-92.501 -142h-19.7998l89.9004 142h22.4004zM618.27 648.79c97.0703 -61.7402 158.932 -171.13 158.932 -300.689c0 -203.2 -152.4 -355.3 -357 -355.3c-63.5195 0 -121.449 14.7305 -172.14 40.7803l-57.3604 -95.5801h-22.9004l62.5898 104.66
c-105.42 60.8799 -173.59 173.1 -173.59 307.239c0 203.3 154.3 357.399 358.899 357.399c68.9697 0 132.439 -17.4404 185.209 -48.71l62.8896 103.41h22.9004zM77.3008 350c0 -126.69 64.1309 -232.7 163.551 -290.13l350.1 581.63
c-49.6797 28.8301 -109.85 45.7002 -175.25 45.7002c-192.7 0 -338.4 -145.7 -338.4 -337.2zM420.002 12.9004c192.7 0 336.601 143.6 336.601 335.199c0 122.61 -57.3604 224.61 -148.78 283.811l-349.03 -581.27c47.1797 -23.7305 101.87 -37.7402 161.21 -37.7402z" />
    <glyph glyph-name="Otilde" unicode="&#xd5;" horiz-adv-x="833" 
d="M489.7 797.8c-30.2002 0 -51.8994 13.3994 -86.5996 54.2998c-32.2002 38.4004 -49.9004 50.6006 -75.2002 50.6006c-36.7998 0 -62.0996 -34.7002 -62.0996 -87.2002v-11h-16.5v11.2998c0 62.4004 30.7002 104.2 78.5 104.2c31.5 0 53.5996 -14 88.1992 -56.5
c29.7002 -36 47.6006 -48.4004 73.6006 -48.4004c37.7998 0 62 33.7002 62 87.2002v9h16.5996v-9.2002c0 -62.5 -30.9004 -104.3 -78.5 -104.3zM416.701 -10.2012c-210.2 0 -359.8 154.999 -359.8 359.299c0 205.2 149.6 361.101 359.8 361.101s359.8 -155 359.8 -361.1
c0 -205.2 -149.6 -359.3 -359.8 -359.3zM416.701 9.89746c198.2 0 339.3 145.6 339.3 339.199c0 194.5 -141.1 341 -339.3 341s-339.3 -147.5 -339.3 -341c0 -192.6 141.1 -339.199 339.3 -339.199z" />
    <glyph glyph-name="OE" unicode="&#x152;" horiz-adv-x="982" 
d="M527 19.7002h408.801v-19.7002h-429.2v0.0800781c-39.9004 -6.61035 -82.0703 -10.2803 -124.801 -10.2803c-183.6 0 -324 154.9 -324 359.301c0 205 140 361.1 324 361.1c42.9004 0 85 -3.58984 124.8 -10.2598v0.0595703h418.2v-19.5996h-397.8v-318h371.8v-19.4004
h-371.8v-323.3zM383.001 10c42.5596 0 84.291 3.68945 123.601 9.47949v660.84c-40.1104 5.99023 -81.5908 9.78027 -123.9 9.78027c-172.7 0 -304.4 -147.5 -304.4 -341s131.5 -339.1 304.7 -339.1z" />
    <glyph glyph-name="P" unicode="P" horiz-adv-x="597" 
d="M342.5 700c123.1 0 216.899 -88.7998 216.899 -207.1c0 -119.1 -92.7998 -208 -216.899 -208h-212v-284.9h-20.2998v700h232.3zM342 304.9c112.7 0 196.9 80.3994 196.9 187.999c0 106.7 -84.2002 187.101 -196.9 187.101h-211.5v-375.1h211.5z" />
    <glyph glyph-name="Thorn" unicode="&#xde;" horiz-adv-x="610" 
d="M342.5 558.1c123.6 0 216.9 -88.5996 216.9 -208.1c0 -119.6 -92.4004 -208.1 -216.9 -208.1h-212v-141.9h-20.2998v700h20.2998v-141.9h212zM342.001 161.699c112.7 0 196.9 80.2998 196.9 188.3s-84.2002 188.3 -196.9 188.3h-211.5v-376.6h211.5z" />
    <glyph glyph-name="Q" unicode="Q" horiz-adv-x="833" 
d="M785 -106.2l-26 -0.00292969l-140.06 152.98c-56.3604 -36.2998 -125.24 -56.9795 -202.24 -56.9795c-210.2 0 -359.8 155 -359.8 359.3c0 205.2 149.6 361.101 359.8 361.101s359.8 -155 359.8 -361.1c0 -122.77 -53.5498 -227.239 -141.58 -291.369zM416.7 9.89648
c71.4697 0 135.51 18.9297 188.2 52.2197l-197 215.18h26l187.06 -204.33c83.9199 60.46 135.04 159.6 135.04 276.13c0 194.5 -141.1 341 -339.3 341s-339.3 -147.5 -339.3 -341c0 -192.6 141.1 -339.199 339.3 -339.199z" />
    <glyph glyph-name="R" unicode="R" horiz-adv-x="630" 
d="M571.2 504.7c0 -106.45 -79.1504 -185.579 -190.62 -193.539l186.72 -311.16h-23.2998l-186.23 310.5h-227.27v-310.5h-20.2998v700h251.7c121.2 0 209.3 -81.9004 209.3 -195.301zM130.5 680.201l-0.000976562 -349.9h230.9c110.9 0 189.301 73.5996 189.301 174.5
c0 101.7 -79.2998 175.4 -189.3 175.4h-230.9z" />
    <glyph glyph-name="Racute" unicode="&#x154;" horiz-adv-x="630" 
d="M385.3 925.4l-92.501 -142h-19.7998l89.9004 142h22.4004zM571.199 504.7c0 -106.45 -79.1504 -185.579 -190.62 -193.539l186.72 -311.16h-23.2998l-186.23 310.5h-227.27v-310.5h-20.2998v700h251.7c121.2 0 209.3 -81.9004 209.3 -195.301zM130.499 680.201
l-0.000976562 -349.9h230.9c110.9 0 189.301 73.5996 189.301 174.5c0 101.7 -79.2998 175.4 -189.3 175.4h-230.9z" />
    <glyph glyph-name="Rcaron" unicode="&#x158;" horiz-adv-x="630" 
d="M306.1 783.4h-24l-121.6 142h21.5996l111.95 -128.52l112.95 128.52h21.5996zM571.199 504.7c0 -106.45 -79.1504 -185.579 -190.62 -193.539l186.72 -311.16h-23.2998l-186.23 310.5h-227.27v-310.5h-20.2998v700h251.7c121.2 0 209.3 -81.9004 209.3 -195.301z
M130.499 680.201l-0.000976562 -349.9h230.9c110.9 0 189.301 73.5996 189.301 174.5c0 101.7 -79.2998 175.4 -189.3 175.4h-230.9z" />
    <glyph glyph-name="S" unicode="S" horiz-adv-x="579" 
d="M296.9 -8.09961c-146 0 -242.901 84.2979 -242.901 211.598h20.5c0 -115.5 87.9004 -191.5 222.301 -191.5c122.7 0 206.9 71 206.9 174.4c0 117.6 -101.7 139.3 -209.601 163c-108.9 23.2998 -224.4 48.7002 -224.4 176.2c0 110.3 87.7002 182.5 222 182.5
c129 0 214.4 -76.5 214.4 -191.9h-20.2002c0 103.8 -77.2998 172 -194.399 172c-122.4 0 -201.5 -64.0996 -201.5 -162.199c0 -112.6 103.2 -134.3 209.2 -157.1c110.9 -24.2998 225.101 -49.7998 225.101 -182.399c0 -116 -93.7002 -194.6 -227.4 -194.6z" />
    <glyph glyph-name="Sacute" unicode="&#x15a;" horiz-adv-x="579" 
d="M264.9 783.4l89.8994 142h22.4004l-92.5 -142h-19.7998zM296.899 -8.09961c-146 0 -242.901 84.2979 -242.901 211.598h20.5c0 -115.5 87.9004 -191.5 222.301 -191.5c122.7 0 206.9 71 206.9 174.4c0 117.6 -101.7 139.3 -209.601 163
c-108.9 23.2998 -224.4 48.7002 -224.4 176.2c0 110.3 87.7002 182.5 222 182.5c129 0 214.4 -76.5 214.4 -191.9h-20.2002c0 103.8 -77.2998 172 -194.399 172c-122.4 0 -201.5 -64.0996 -201.5 -162.199c0 -112.6 103.2 -134.3 209.2 -157.1
c110.9 -24.2998 225.101 -49.7998 225.101 -182.399c0 -116 -93.7002 -194.6 -227.4 -194.6z" />
    <glyph glyph-name="Scaron" unicode="&#x160;" horiz-adv-x="579" 
d="M398.9 925.4h21.5996l-122.5 -142h-24l-121.6 142h21.5996l111.95 -128.52zM296.9 -8.09961c-146 0 -242.901 84.2979 -242.901 211.598h20.5c0 -115.5 87.9004 -191.5 222.301 -191.5c122.7 0 206.9 71 206.9 174.4c0 117.6 -101.7 139.3 -209.601 163
c-108.9 23.2998 -224.4 48.7002 -224.4 176.2c0 110.3 87.7002 182.5 222 182.5c129 0 214.4 -76.5 214.4 -191.9h-20.2002c0 103.8 -77.2998 172 -194.399 172c-122.4 0 -201.5 -64.0996 -201.5 -162.199c0 -112.6 103.2 -134.3 209.2 -157.1
c110.9 -24.2998 225.101 -49.7998 225.101 -182.399c0 -116 -93.7002 -194.6 -227.4 -194.6z" />
    <glyph glyph-name="Scedilla" unicode="&#x15e;" horiz-adv-x="579" 
d="M524.3 186.5c0 -113.56 -89.8018 -191.281 -219.021 -194.501l-15.6602 -54.9805c58.2998 -1.83008 101.979 -36.7705 101.979 -85.9209c0 -49.7998 -44.7998 -86.2002 -105.899 -86.2002h-61.7002v16.4004h61.5996c51.5996 0 87.8994 28.7002 87.8994 69.9004
c0 40.2002 -37.2002 69.9004 -89.7998 69.9004h-11.7998l-2.7998 4.09961l18.6504 66.8096c-140.88 3.4502 -233.75 86.8604 -233.75 211.49h20.5c0 -115.5 87.9004 -191.5 222.301 -191.5c122.7 0 206.9 71 206.9 174.4c0 117.6 -101.7 139.3 -209.601 163
c-108.9 23.2998 -224.4 48.7002 -224.4 176.2c0 110.3 87.7002 182.5 222 182.5c129 0 214.4 -76.5 214.4 -191.9h-20.2002c0 103.8 -77.2998 172 -194.399 172c-122.4 0 -201.5 -64.0996 -201.5 -162.199c0 -112.6 103.2 -134.3 209.2 -157.1
c110.9 -24.2998 225.101 -49.7998 225.101 -182.399z" />
    <glyph glyph-name="Scircumflex" unicode="&#x15c;" horiz-adv-x="579" 
d="M420.5 783.4h-21.5996l-112.95 128.51l-111.95 -128.51h-21.5996l121.6 142h24zM296.9 -8.09961c-146 0 -242.901 84.2979 -242.901 211.598h20.5c0 -115.5 87.9004 -191.5 222.301 -191.5c122.7 0 206.9 71 206.9 174.4c0 117.6 -101.7 139.3 -209.601 163
c-108.9 23.2998 -224.4 48.7002 -224.4 176.2c0 110.3 87.7002 182.5 222 182.5c129 0 214.4 -76.5 214.4 -191.9h-20.2002c0 103.8 -77.2998 172 -194.399 172c-122.4 0 -201.5 -64.0996 -201.5 -162.199c0 -112.6 103.2 -134.3 209.2 -157.1
c110.9 -24.2998 225.101 -49.7998 225.101 -182.399c0 -116 -93.7002 -194.6 -227.4 -194.6z" />
    <glyph glyph-name="uni1E9E" unicode="&#x1e9e;" horiz-adv-x="643" 
d="M358.47 436.49c141.25 -3.45996 232.829 -88.3477 232.829 -214.388c0 -128.7 -94.4004 -222.101 -247 -222.101h-87.5996v20h87.5996c136.4 0 226.5 80.5 226.5 202.1c0 118.1 -89.2002 195.899 -223.8 195.899h-18.0996v9.09961l172.4 253h-164
c-139.3 0 -215.6 -75.2998 -215.6 -214.6v-465.5h-20.2998v466.5c0 149.2 84.2998 233.5 234.399 233.5h196.8v-8.90039z" />
    <glyph glyph-name="T" unicode="T" horiz-adv-x="528" 
d="M505.6 700v-19.7002h-231.7v-680.3h-20.2998v680.3h-231.7v19.7002h483.7z" />
    <glyph glyph-name="Tbar" unicode="&#x166;" horiz-adv-x="528" 
d="M505.6 680.3h-231.7v-311.2h184.9v-19.0996h-184.9v-350h-20.2998v350h-184.8v19.0996h184.8v311.2h-231.7v19.7002h483.7v-19.7002z" />
    <glyph glyph-name="Tcaron" unicode="&#x164;" horiz-adv-x="528" 
d="M275.3 783.4h-24l-121.6 142h21.5996l111.95 -128.52l112.95 128.52h21.5996zM505.6 700v-19.7002h-231.7v-680.3h-20.2998v680.3h-231.7v19.7002h483.7z" />
    <glyph glyph-name="U" unicode="U" horiz-adv-x="719" 
d="M359.4 -8.40039c-150 0 -259 111.2 -259 265.8v442.6h20.4004v-441.9c0 -143.5 99.2998 -246.4 238.6 -246.4c139.2 0 238.5 102.9 238.5 246.4v441.9h20.4004v-442.6c0 -154.6 -109 -265.8 -258.9 -265.8z" />
    <glyph glyph-name="Uacute" unicode="&#xda;" horiz-adv-x="719" 
d="M337.8 783.4l89.8994 142h22.4004l-92.5 -142h-19.7998zM359.399 -8.39941c-150 0 -259 111.2 -259 265.8v442.6h20.4004v-441.9c0 -143.5 99.2998 -246.4 238.6 -246.4c139.2 0 238.5 102.9 238.5 246.4v441.9h20.4004v-442.6c0 -154.6 -109 -265.8 -258.9 -265.8z" />
    <glyph glyph-name="Ubreve" unicode="&#x16c;" horiz-adv-x="719" 
d="M359.4 775.7c-84.0996 0 -139.9 53.2998 -139.9 149.7h18v-1.2002c0 -85.4004 49.2998 -131.5 121.899 -131.5c73.5 0 121.7 46.0996 121.7 131.5v1.2002h18.2002c0 -96.4004 -55.7998 -149.7 -139.899 -149.7zM359.399 -8.39941c-150 0 -259 111.2 -259 265.8v442.6
h20.4004v-441.9c0 -143.5 99.2998 -246.4 238.6 -246.4c139.2 0 238.5 102.9 238.5 246.4v441.9h20.4004v-442.6c0 -154.6 -109 -265.8 -258.9 -265.8z" />
    <glyph glyph-name="Ucircumflex" unicode="&#xdb;" horiz-adv-x="719" 
d="M493.4 783.4h-21.5996l-112.95 128.51l-111.95 -128.51h-21.5996l121.6 142h24zM359.4 -8.39941c-150 0 -259 111.2 -259 265.8v442.6h20.4004v-441.9c0 -143.5 99.2998 -246.4 238.6 -246.4c139.2 0 238.5 102.9 238.5 246.4v441.9h20.4004v-442.6
c0 -154.6 -109 -265.8 -258.9 -265.8z" />
    <glyph glyph-name="Udieresis" unicode="&#xdc;" horiz-adv-x="719" 
d="M240.6 825.4v46.2998h37.4004v-46.2998h-37.4004zM440.699 825.4v46.2998h37.4004v-46.2998h-37.4004zM359.399 -8.39941c-150 0 -259 111.2 -259 265.8v442.6h20.4004v-441.9c0 -143.5 99.2998 -246.4 238.6 -246.4c139.2 0 238.5 102.9 238.5 246.4v441.9h20.4004
v-442.6c0 -154.6 -109 -265.8 -258.9 -265.8z" />
    <glyph glyph-name="Ugrave" unicode="&#xd9;" horiz-adv-x="719" 
d="M356.1 783.4l-92.501 142h22.4004l89.9004 -142h-19.7998zM359.398 -8.39941c-150 0 -259 111.2 -259 265.8v442.6h20.4004v-441.9c0 -143.5 99.2998 -246.4 238.6 -246.4c139.2 0 238.5 102.9 238.5 246.4v441.9h20.4004v-442.6c0 -154.6 -109 -265.8 -258.9 -265.8z
" />
    <glyph glyph-name="Uhungarumlaut" unicode="&#x170;" horiz-adv-x="719" 
d="M265.5 783.4l79.9004 142h21.2998l-81.7998 -142h-19.4004zM413.7 783.4l81.8994 142h21.7002l-84.0996 -142h-19.5zM359.399 -8.39941c-150 0 -259 111.2 -259 265.8v442.6h20.4004v-441.9c0 -143.5 99.2998 -246.4 238.6 -246.4c139.2 0 238.5 102.9 238.5 246.4v441.9
h20.4004v-442.6c0 -154.6 -109 -265.8 -258.9 -265.8z" />
    <glyph glyph-name="Umacron" unicode="&#x16a;" horiz-adv-x="719" 
d="M204.3 838.25v19.4805h313v-19.4805h-313zM359.399 -8.39941c-150 0 -259 111.2 -259 265.8v442.6h20.4004v-441.9c0 -143.5 99.2998 -246.4 238.6 -246.4c139.2 0 238.5 102.9 238.5 246.4v441.9h20.4004v-442.6c0 -154.6 -109 -265.8 -258.9 -265.8z" />
    <glyph glyph-name="Uogonek" unicode="&#x172;" horiz-adv-x="719" 
d="M597.9 700h20.3018v-442.4c0 -131.2 -77.7998 -225.8 -188.7 -256.8c-60.2002 -16.7002 -104.9 -79.5 -104.9 -130.9c0 -46.2998 35.5996 -76.3994 89.3994 -76.3994c15.2002 0 29.5 2.2002 43.7002 7.40039v-17.0996
c-15.0996 -4.90039 -31.5 -7.30078 -46.7998 -7.30078c-62.5996 0 -105 37.0996 -105 91.2998c0 45.0195 28.3604 93.3896 70.96 125.01c-6.25977 -0.55957 -12.4199 -1.00977 -18.5596 -1.00977c-149.5 0.400391 -257.9 111.5 -257.9 265.8v442.4h20.2998v-442
c0 -143.3 99.2998 -246 238.6 -246s238.6 102.7 238.6 246v442z" />
    <glyph glyph-name="Uring" unicode="&#x16e;" horiz-adv-x="719" 
d="M358.99 765.03c-60.79 0 -102.18 40.2305 -102.18 99.4609c0 59.3301 41.3896 99.3701 102.18 99.3701c60.6797 0 102.08 -40.04 102.08 -99.3701c0 -59.2305 -41.4004 -99.4609 -102.08 -99.4609zM358.99 781.99c50.5 0 84.6201 33.0596 84.6201 82.5
c0 49.5498 -34.1201 82.5098 -84.6201 82.5098c-50.5996 0 -84.7197 -32.96 -84.7197 -82.5098c0 -49.4404 34.1201 -82.5 84.7197 -82.5zM359.4 -8.39941c-150 0 -259 111.2 -259 265.8v442.6h20.4004v-441.9c0 -143.5 99.2998 -246.4 238.6 -246.4
c139.2 0 238.5 102.9 238.5 246.4v441.9h20.4004v-442.6c0 -154.6 -109 -265.8 -258.9 -265.8z" />
    <glyph glyph-name="Utilde" unicode="&#x168;" horiz-adv-x="719" 
d="M432.4 797.8c-30.2002 0 -51.8994 13.3994 -86.5996 54.2998c-32.2002 38.4004 -49.9004 50.6006 -75.2002 50.6006c-36.7998 0 -62.0996 -34.7002 -62.0996 -87.2002v-11h-16.5v11.2998c0 62.4004 30.7002 104.2 78.5 104.2c31.5 0 53.5996 -14 88.1992 -56.5
c29.7002 -36 47.6006 -48.4004 73.6006 -48.4004c37.7998 0 62 33.7002 62 87.2002v9h16.5996v-9.2002c0 -62.5 -30.9004 -104.3 -78.5 -104.3zM359.401 -8.40137c-150 0 -259 111.2 -259 265.8v442.6h20.4004v-441.9c0 -143.5 99.2998 -246.4 238.6 -246.4
c139.2 0 238.5 102.9 238.5 246.4v441.9h20.4004v-442.6c0 -154.6 -109 -265.8 -258.9 -265.8z" />
    <glyph glyph-name="V" unicode="V" horiz-adv-x="661" 
d="M606.8 700h22.1006l-288.7 -700h-16l-296.4 700h22.2002l282.84 -667.33z" />
    <glyph glyph-name="W" unicode="W" horiz-adv-x="1011" 
d="M955.5 700h21.6992l-225.4 -700h-15.5996l-230.93 630.32l-227.47 -630.32h-15.5996l-230.4 700h21.7998l216.83 -662.21l228.07 633.11h12.7998l231.88 -633.15z" />
    <glyph glyph-name="Wacute" unicode="&#x1e82;" horiz-adv-x="1011" 
d="M595.6 925.4l-92.501 -142h-19.7998l89.9004 142h22.4004zM955.499 700h21.6992l-225.4 -700h-15.5996l-230.93 630.32l-227.47 -630.32h-15.5996l-230.4 700h21.7998l216.83 -662.21l228.07 633.11h12.7998l231.88 -633.15z" />
    <glyph glyph-name="Wcircumflex" unicode="&#x174;" horiz-adv-x="1011" 
d="M504.35 911.91l-111.95 -128.51h-21.5996l121.6 142h24l122.5 -142h-21.5996zM955.499 700h21.6992l-225.4 -700h-15.5996l-230.93 630.32l-227.47 -630.32h-15.5996l-230.4 700h21.7998l216.83 -662.21l228.07 633.11h12.7998l231.88 -633.15z" />
    <glyph glyph-name="Wdieresis" unicode="&#x1e84;" horiz-adv-x="1011" 
d="M386.1 825.4v46.2998h37.4004v-46.2998h-37.4004zM586.199 825.4v46.2998h37.4004v-46.2998h-37.4004zM955.499 700l21.6992 0.000976562l-225.4 -700h-15.5996l-230.93 630.32l-227.47 -630.32h-15.5996l-230.4 700h21.7998l216.83 -662.2l228.07 633.1h12.7998
l231.88 -633.15z" />
    <glyph glyph-name="Wgrave" unicode="&#x1e80;" horiz-adv-x="1011" 
d="M501.6 783.4l-92.501 142h22.4004l89.9004 -142h-19.7998zM955.499 700h21.6992l-225.4 -700h-15.5996l-230.93 630.32l-227.47 -630.32h-15.5996l-230.4 700h21.7998l216.83 -662.21l228.07 633.11h12.7998l231.88 -633.15z" />
    <glyph glyph-name="X" unicode="X" horiz-adv-x="574" 
d="M560.9 0h-24.2002l-249.33 349.57l-249.67 -349.57h-24.2998l261.4 365.65l-238.9 334.35h24.2002l227.1 -318.46l227.8 318.46h24.2002l-239.54 -334.88z" />
    <glyph glyph-name="Y" unicode="Y" horiz-adv-x="636" 
d="M600 700l-272.3 -423.96v-276.04h-20.5996v275.26l-269.4 424.74h23l256.93 -404.04l259.37 404.04h23z" />
    <glyph glyph-name="Yacute" unicode="&#xdd;" horiz-adv-x="636" 
d="M410 925.4l-92.501 -142h-19.7998l89.9004 142h22.4004zM599.999 700l-272.3 -423.96v-276.04h-20.5996v275.26l-269.4 424.74h23l256.93 -404.04l259.37 404.04h23z" />
    <glyph glyph-name="Ycircumflex" unicode="&#x176;" horiz-adv-x="636" 
d="M318.75 911.91l-111.95 -128.51h-21.5996l121.6 142h24l122.5 -142h-21.5996zM600 700l-272.3 -423.96v-276.04h-20.5996v275.26l-269.4 424.74h23l256.93 -404.04l259.37 404.04h23z" />
    <glyph glyph-name="Ydieresis" unicode="&#x178;" horiz-adv-x="636" 
d="M200.5 825.4v46.2998h37.4004v-46.2998h-37.4004zM400.6 825.4v46.2998h37.4004v-46.2998h-37.4004zM600 700l-272.311 -423.96v-276.04h-20.5996v275.26l-269.4 424.74h23l256.94 -404.04l259.37 404.04h23z" />
    <glyph glyph-name="Ygrave" unicode="&#x1ef2;" horiz-adv-x="636" 
d="M316 783.4l-92.501 142h22.4004l89.9004 -142h-19.7998zM599.999 700l-272.3 -423.96v-276.04h-20.5996v275.26l-269.4 424.74h23l256.93 -404.04l259.37 404.04h23z" />
    <glyph glyph-name="Z" unicode="Z" horiz-adv-x="532" 
d="M55.0195 19.7002l460.581 0.000976562v-19.7002h-491.4v7l440.54 673.3h-426.34v19.7002h459.1v-5.40039z" />
    <glyph glyph-name="Zacute" unicode="&#x179;" horiz-adv-x="532" 
d="M371.5 925.4l-92.501 -142h-19.7998l89.9004 142h22.4004zM55.0186 19.7002l460.581 0.000976562v-19.7002h-491.4v7l440.54 673.3h-426.34v19.7002h459.1v-5.40039z" />
    <glyph glyph-name="Zcaron" unicode="&#x17d;" horiz-adv-x="532" 
d="M292.3 783.4h-24l-121.6 142h21.5996l111.95 -128.52l112.95 128.52h21.5996zM55.0195 19.7002l460.581 0.000976562v-19.7002h-491.4v7l440.54 673.3h-426.34v19.7002h459.1v-5.40039z" />
    <glyph glyph-name="Zdotaccent" unicode="&#x17b;" horiz-adv-x="532" 
d="M299.5 871.7v-46.2998h-37.4004v46.2998h37.4004zM55.0195 19.7002l460.581 0.000976562v-19.7002h-491.4v7l440.54 673.3h-426.34v19.7002h459.1v-5.40039z" />
    <glyph glyph-name="uni0122" unicode="&#x122;" horiz-adv-x="800" 
d="M370 323.9l377.699 0.00195312c-7.59961 -196.7 -148 -332.3 -342 -332.3c-205.1 0 -347.899 151.2 -347.899 357.5c0 207.1 148.2 359.199 347.7 359.199c162.7 0 300.2 -102.4 330.3 -244.301h-20.5996c-30 130.4 -158.5 224.2 -309.5 224.2
c-188.8 0 -327.399 -143.4 -327.399 -339.101c0 -197.7 135.6 -337.4 327.399 -337.4c177.38 0 305.899 119 320.59 292.4h-356.29v19.7998zM387.799 -113.697v41.6992h40.7998v-38.2998c0 -36.9004 -12.7998 -62.4004 -34.0996 -76.7002l-6.2998 14.2002
c16.2998 13.2002 25.0996 31.7002 25.0996 59.1006h-25.5z" />
    <glyph glyph-name="uni0136" unicode="&#x136;" horiz-adv-x="597" 
d="M272.91 364.83l320.289 -364.83h-26.5996l-311.8 354.8h-124.3v-354.8h-20.2998v700h20.2998v-325.5h124.28l285.32 325.5h26.5zM317.399 -113.7v41.6992h40.7998v-38.2998c0 -36.9004 -12.7998 -62.4004 -34.0996 -76.7002l-6.2998 14.2002
c16.2998 13.2002 25.0996 31.7002 25.0996 59.1006h-25.5z" />
    <glyph glyph-name="uni013B" unicode="&#x13b;" horiz-adv-x="502" 
d="M130.5 19.7002h349.8v-19.7002h-370.1v700h20.2998v-680.3zM259.1 -113.7v41.6992h40.7998v-38.2998c0 -36.9004 -12.7998 -62.4004 -34.0996 -76.7002l-6.2998 14.2002c16.2998 13.2002 25.0996 31.7002 25.0996 59.1006h-25.5z" />
    <glyph glyph-name="uni0145" unicode="&#x145;" horiz-adv-x="744" 
d="M613.4 700h20.0996v-700h-17.9004l-485.3 663.39v-663.39h-20.0996v700h18.5l484.7 -663.26v663.26zM342.6 -113.7v41.6992h40.7998v-38.2998c0 -36.9004 -12.7998 -62.4004 -34.0996 -76.7002l-6.2998 14.2002c16.2998 13.2002 25.0996 31.7002 25.0996 59.1006h-25.5z
" />
    <glyph glyph-name="uni0156" unicode="&#x156;" horiz-adv-x="630" 
d="M571.2 504.7c0 -106.45 -79.1504 -185.579 -190.62 -193.539l186.72 -311.16h-23.2998l-186.23 310.5h-227.27v-310.5h-20.2998v700h251.7c121.2 0 209.3 -81.9004 209.3 -195.301zM130.5 680.201l-0.000976562 -349.9h230.9c110.9 0 189.301 73.5996 189.301 174.5
c0 101.7 -79.2998 175.4 -189.3 175.4h-230.9zM304.199 -113.699v41.6992h40.7998v-38.2998c0 -36.9004 -12.7998 -62.4004 -34.0996 -76.7002l-6.2998 14.2002c16.2998 13.2002 25.0996 31.7002 25.0996 59.1006h-25.5z" />
    <glyph glyph-name="uni0162" unicode="&#x162;" horiz-adv-x="528" 
d="M273.9 0l-1.73926 0.000976562l-17.7598 -62.3604c59.2197 -0.830078 102.2 -37.2803 102.2 -86.04c0 -49.7998 -44.7998 -86.2002 -105.899 -86.2002h-61.7002v16.4004h61.5996c51.5996 0 87.8994 29.5996 87.8994 69.8994c0 40.2002 -37.2002 69.9004 -89.7998 69.9004
h-11.7002l-3 4.09961l20.8398 74.2998h-1.24023v680.3h-231.7v19.7002h483.7v-19.7002h-231.7v-680.3z" />
    <glyph glyph-name="uni0218" unicode="&#x218;" horiz-adv-x="579" 
d="M296.9 -8.09961c-146 0 -242.901 84.2979 -242.901 211.598h20.5c0 -115.5 87.9004 -191.5 222.301 -191.5c122.7 0 206.9 71 206.9 174.4c0 117.6 -101.7 139.3 -209.601 163c-108.9 23.2998 -224.4 48.7002 -224.4 176.2c0 110.3 87.7002 182.5 222 182.5
c129 0 214.4 -76.5 214.4 -191.9h-20.2002c0 103.8 -77.2998 172 -194.399 172c-122.4 0 -201.5 -64.0996 -201.5 -162.199c0 -112.6 103.2 -134.3 209.2 -157.1c110.9 -24.2998 225.101 -49.7998 225.101 -182.399c0 -116 -93.7002 -194.6 -227.4 -194.6zM284.6 -187.502
l-6.2998 14.1992c16.2998 13.2002 25.0996 31.7002 25.0996 59.1006h-25.5v41.7002h40.7998v-38.2998c0 -36.9004 -12.7998 -62.4004 -34.0996 -76.7002z" />
    <glyph glyph-name="uni021A" unicode="&#x21a;" horiz-adv-x="528" 
d="M21.9004 700h483.7v-19.7002h-231.7v-680.3h-20.2998v680.3h-231.7v19.7002zM242.9 -113.7v41.6992h40.7998v-38.2998c0 -36.9004 -12.7998 -62.4004 -34.0996 -76.7002l-6.2998 14.2002c16.2998 13.2002 25.0996 31.7002 25.0996 59.1006h-25.5z" />
    <glyph glyph-name="K.ss01" horiz-adv-x="584" 
d="M110.2 0v700h20.2998v-700h-20.2998zM202.75 364.38l381.351 -364.38h-28.2002l-378.9 361.4v6.5l352.5 332.1h27.7002z" />
    <glyph glyph-name="K.ss03" horiz-adv-x="584" 
d="M110.2 0v700h20.2998v-700h-20.2998zM202.75 364.38l381.351 -364.38h-28.2002l-378.9 361.4v6.5l352.5 332.1h27.7002z" />
    <glyph glyph-name="K.ss04" horiz-adv-x="584" 
d="M110.2 0v700h20.2998v-700h-20.2998zM202.75 364.38l381.351 -364.38h-28.2002l-378.9 361.4v6.5l352.5 332.1h27.7002z" />
    <glyph glyph-name="a" unicode="a" horiz-adv-x="703" 
d="M583.4 540h18.0889v-540h-18.4004l-1.58008 163.37c-38.3896 -103.57 -133.159 -173.57 -255.009 -173.57c-156.4 0 -274.601 121 -274.601 280.2c0 159.3 118.2 280.2 274.601 280.2c121.87 0 216.65 -69.96 255.03 -173.57zM327.189 9.5c147 0 254.1 109.9 254.1 260.5
s-107.1 260.5 -254.1 260.5c-145.2 0 -255.101 -112.7 -255.101 -260.5c0 -148.7 109.9 -260.5 255.101 -260.5z" />
    <glyph glyph-name="aacute" unicode="&#xe1;" horiz-adv-x="703" 
d="M404.3 759.5l-83.001 -152h-19.7998l80.4004 152h22.4004zM583.398 540h18.0889v-540h-18.4004l-1.58008 163.37c-38.3896 -103.57 -133.159 -173.57 -255.009 -173.57c-156.4 0 -274.601 121 -274.601 280.2c0 159.3 118.2 280.2 274.601 280.2
c121.87 0 216.65 -69.96 255.03 -173.57zM327.188 9.5c147 0 254.1 109.9 254.1 260.5s-107.1 260.5 -254.1 260.5c-145.2 0 -255.101 -112.7 -255.101 -260.5c0 -148.7 109.9 -260.5 255.101 -260.5z" />
    <glyph glyph-name="abreve" unicode="&#x103;" horiz-adv-x="703" 
d="M330.9 601.6c-84.4004 0 -140.4 56.4004 -140.4 157.9h18v-1.2002c0 -90.5 49.5 -139.7 122.4 -139.7c73.7998 0 122.2 49.2002 122.2 139.7v1.2002h18.2002c0 -101.5 -56 -157.9 -140.4 -157.9zM583.4 540h18.0889v-540h-18.4004l-1.58008 163.37
c-38.3896 -103.57 -133.159 -173.57 -255.009 -173.57c-156.4 0 -274.601 121 -274.601 280.2c0 159.3 118.2 280.2 274.601 280.2c121.87 0 216.65 -69.96 255.03 -173.57zM327.189 9.5c147 0 254.1 109.9 254.1 260.5s-107.1 260.5 -254.1 260.5
c-145.2 0 -255.101 -112.7 -255.101 -260.5c0 -148.7 109.9 -260.5 255.101 -260.5z" />
    <glyph glyph-name="acircumflex" unicode="&#xe2;" horiz-adv-x="703" 
d="M330.55 745.07l-112.05 -137.57h-21.5996l121.6 152h24l122.6 -152h-21.5996zM583.4 540h18.0889v-540h-18.4004l-1.58008 163.37c-38.3896 -103.57 -133.159 -173.57 -255.009 -173.57c-156.4 0 -274.601 121 -274.601 280.2c0 159.3 118.2 280.2 274.601 280.2
c121.87 0 216.65 -69.96 255.03 -173.57zM327.189 9.5c147 0 254.1 109.9 254.1 260.5s-107.1 260.5 -254.1 260.5c-145.2 0 -255.101 -112.7 -255.101 -260.5c0 -148.7 109.9 -260.5 255.101 -260.5z" />
    <glyph glyph-name="adieresis" unicode="&#xe4;" horiz-adv-x="703" 
d="M269.3 712.3v-46.2998h-37.4004v46.2998h37.4004zM429.8 712.3v-46.2998h-37.4004v46.2998h37.4004zM583.399 540h18.0889v-540h-18.4004l-1.58008 163.37c-38.3896 -103.57 -133.159 -173.57 -255.009 -173.57c-156.4 0 -274.601 121 -274.601 280.2
c0 159.3 118.2 280.2 274.601 280.2c121.87 0 216.65 -69.96 255.03 -173.57zM327.188 9.5c147 0 254.1 109.9 254.1 260.5s-107.1 260.5 -254.1 260.5c-145.2 0 -255.101 -112.7 -255.101 -260.5c0 -148.7 109.9 -260.5 255.101 -260.5z" />
    <glyph glyph-name="agrave" unicode="&#xe0;" horiz-adv-x="703" 
d="M347.9 607.5h-19.8008l-83 152h22.4004zM583.399 540h18.0889v-540h-18.4004l-1.58008 163.37c-38.3896 -103.57 -133.159 -173.57 -255.009 -173.57c-156.4 0 -274.601 121 -274.601 280.2c0 159.3 118.2 280.2 274.601 280.2c121.87 0 216.65 -69.96 255.03 -173.57z
M327.188 9.5c147 0 254.1 109.9 254.1 260.5s-107.1 260.5 -254.1 260.5c-145.2 0 -255.101 -112.7 -255.101 -260.5c0 -148.7 109.9 -260.5 255.101 -260.5z" />
    <glyph glyph-name="amacron" unicode="&#x101;" horiz-adv-x="703" 
d="M486.9 700v-18.0996h-313v18.0996h313zM583.4 540h18.0889v-540h-18.4004l-1.58008 163.37c-38.3896 -103.57 -133.159 -173.57 -255.009 -173.57c-156.4 0 -274.601 121 -274.601 280.2c0 159.3 118.2 280.2 274.601 280.2c121.87 0 216.65 -69.96 255.03 -173.57z
M327.189 9.5c147 0 254.1 109.9 254.1 260.5s-107.1 260.5 -254.1 260.5c-145.2 0 -255.101 -112.7 -255.101 -260.5c0 -148.7 109.9 -260.5 255.101 -260.5z" />
    <glyph glyph-name="aogonek" unicode="&#x105;" horiz-adv-x="703" 
d="M584.5 -206.4c15.2998 0 29.5977 2.10059 43.998 7.30078v-17c-15 -5 -31.2998 -7.40039 -46.5 -7.40039c-62.4004 0 -104.5 37.0996 -104.5 91.0996c0 56.0498 43.6602 112.27 105.51 141.25l-1.5 154.51c-38.3896 -103.56 -133.159 -173.56 -255.009 -173.56
c-156.4 0 -274.601 121 -274.601 280.2c0 159.3 118.2 280.2 274.601 280.2c121.86 0 216.65 -69.9697 255.03 -173.58l1.87012 163.38h18.0996v-540c-61.5 -24.5 -106.1 -79 -106.1 -130.2c0 -46.2002 35.4004 -76.2002 89.1006 -76.2002zM327.198 9.50098
c147 0 254.1 109.9 254.1 260.5s-107.1 260.5 -254.1 260.5c-145.2 0 -255.101 -112.7 -255.101 -260.5c0 -148.7 109.9 -260.5 255.101 -260.5z" />
    <glyph glyph-name="aring" unicode="&#xe5;" horiz-adv-x="703" 
d="M330.9 595.3c-57.2002 0 -96.2002 37.9004 -96.2002 93.7002c0 55.9004 39 93.7002 96.2002 93.7002s96.2002 -37.7998 96.2002 -93.7002c0 -55.7998 -39 -93.7002 -96.2002 -93.7002zM330.9 766.8c-47.5996 0 -79.7998 -31.0996 -79.7998 -77.7998
c0 -46.5996 32.2002 -77.6992 79.7998 -77.6992s79.7998 31.0996 79.7998 77.6992c0 46.7002 -32.2002 77.7998 -79.7998 77.7998zM583.4 540h18.0889v-540h-18.4004l-1.58008 163.37c-38.3896 -103.57 -133.159 -173.57 -255.009 -173.57
c-156.4 0 -274.601 121 -274.601 280.2c0 159.3 118.2 280.2 274.601 280.2c121.87 0 216.65 -69.96 255.03 -173.57zM327.189 9.5c147 0 254.1 109.9 254.1 260.5s-107.1 260.5 -254.1 260.5c-145.2 0 -255.101 -112.7 -255.101 -260.5
c0 -148.7 109.9 -260.5 255.101 -260.5z" />
    <glyph glyph-name="atilde" unicode="&#xe3;" horiz-adv-x="703" 
d="M182.1 640.2l-0.000976562 -11.001h-16.4004v11.2002c0 62.2998 30.7002 104 78.2998 104c31.5 0 53.7002 -14 88.2002 -56.5996c29.5996 -35.9004 47.3994 -48.2002 73.2998 -48.2002c37.7002 0 61.9004 33.9004 61.9004 87.1006v9h16.5v-9.2002
c0 -62.2998 -30.7998 -104 -78.2998 -104c-30 0 -51.5996 13.2998 -86.1992 54.0996c-32.2998 38.4004 -49.8994 50.6006 -75.2998 50.6006c-36.7002 0 -62 -34.7998 -62 -87zM583.398 539.999h18.0889v-540h-18.4004l-1.58008 163.37
c-38.3896 -103.57 -133.159 -173.57 -255.009 -173.57c-156.4 0 -274.601 121 -274.601 280.2c0 159.3 118.2 280.2 274.601 280.2c121.87 0 216.65 -69.96 255.03 -173.57zM327.188 9.49902c147 0 254.1 109.9 254.1 260.5s-107.1 260.5 -254.1 260.5
c-145.2 0 -255.101 -112.7 -255.101 -260.5c0 -148.7 109.9 -260.5 255.101 -260.5z" />
    <glyph glyph-name="ae" unicode="&#xe6;" horiz-adv-x="1162" 
d="M1114 274.4c0 -3 -0.100586 -6.79785 -0.200195 -9.79785h-513.75c2.57031 -145.52 109.08 -254.899 249.95 -254.899c99.7998 0 179.5 52.5996 225 141h21.4004c-52.2002 -104.8 -137.4 -160.899 -246.4 -160.899c-116.8 0 -212.02 70.8496 -250.329 175.369
l-0.870117 -165.37h-17.5l-0.790039 161.88c-38.71 -102.61 -132.89 -171.78 -253.609 -171.78c-156.6 0 -275 121 -275 280.1s118.3 280.1 275 280.1c120.73 0 214.91 -69.1904 253.62 -171.801l0.879883 161.9h17.5l0.769531 -165.9
c38.2998 104.1 133.52 174.899 250.329 174.899c152.6 0 264 -119.3 264 -274.8zM326.899 9.60254c144.3 0 253.9 115.999 253.9 260.399c0 150.7 -106.9 260.4 -253.9 260.4c-145.1 0 -254.8 -112.5 -254.8 -260.4c0 -148.8 109.7 -260.399 254.8 -260.399zM850 529.802
c-138.05 0 -243.25 -104.64 -249.69 -246h494.11c-2.12988 145.51 -110.33 246 -244.42 246z" />
    <glyph glyph-name="aeacute" unicode="&#x1fd;" horiz-adv-x="1162" 
d="M663.2 759.5l-83.001 -152h-19.7998l80.4004 152h22.4004zM1114 274.4c0 -3 -0.100586 -6.79785 -0.200195 -9.79785h-513.75c2.57031 -145.52 109.08 -254.899 249.95 -254.899c99.7998 0 179.5 52.5996 225 141h21.4004
c-52.2002 -104.8 -137.4 -160.899 -246.4 -160.899c-116.8 0 -212.02 70.8496 -250.329 175.369l-0.870117 -165.37h-17.5l-0.790039 161.88c-38.71 -102.61 -132.89 -171.78 -253.609 -171.78c-156.6 0 -275 121 -275 280.1s118.3 280.1 275 280.1
c120.73 0 214.91 -69.1904 253.62 -171.801l0.879883 161.9h17.5l0.769531 -165.9c38.2998 104.1 133.52 174.899 250.329 174.899c152.6 0 264 -119.3 264 -274.8zM326.898 9.60254c144.3 0 253.9 115.999 253.9 260.399c0 150.7 -106.9 260.4 -253.9 260.4
c-145.1 0 -254.8 -112.5 -254.8 -260.4c0 -148.8 109.7 -260.399 254.8 -260.399zM849.999 529.802c-138.05 0 -243.25 -104.64 -249.69 -246h494.11c-2.12988 145.51 -110.33 246 -244.42 246z" />
    <glyph glyph-name="b" unicode="b" horiz-adv-x="703" 
d="M376.3 550.2c160.3 0 273.61 -120.889 273.61 -280.188c0 -159.2 -113.3 -280.2 -273.6 -280.2c-118.86 0 -215.57 69.79 -255.221 173.1l-2.08984 -162.9h-17.9004v730.3h20v-353.14c39.6504 103.31 136.351 173.029 255.2 173.029zM375.61 9.51172
c147 0 254.1 109.9 254.1 260.5s-107.1 260.5 -254.1 260.5c-145.2 0 -255.101 -111.8 -255.101 -260.5c0 -147.7 109.9 -260.5 255.101 -260.5z" />
    <glyph glyph-name="c" unicode="c" horiz-adv-x="618" 
d="M328.4 -10.2002c-156.4 0 -276.502 121 -276.502 280.2c0 161 119.2 280.2 276.5 280.2c117.4 0 209.5 -65.4004 248.7 -164.601h-20.7998c-39.0996 90.4004 -124.8 144.9 -227.899 144.9c-146.6 0 -256.3 -111.9 -256.3 -260.5c0 -147.7 110.7 -260.5 256.3 -260.5
c102.2 0 187.7 53.5996 229.601 146.1h21c-41.9004 -102.1 -136 -165.8 -250.6 -165.8z" />
    <glyph glyph-name="cacute" unicode="&#x107;" horiz-adv-x="618" 
d="M296.2 607.5l80.3994 152h22.4004l-83 -152h-19.7998zM328.399 -10.2002c-156.4 0 -276.502 121 -276.502 280.2c0 161 119.2 280.2 276.5 280.2c117.4 0 209.5 -65.4004 248.7 -164.601h-20.7998c-39.0996 90.4004 -124.8 144.9 -227.899 144.9
c-146.6 0 -256.3 -111.9 -256.3 -260.5c0 -147.7 110.7 -260.5 256.3 -260.5c102.2 0 187.7 53.5996 229.601 146.1h21c-41.9004 -102.1 -136 -165.8 -250.6 -165.8z" />
    <glyph glyph-name="ccaron" unicode="&#x10d;" horiz-adv-x="618" 
d="M438.1 759.5h21.5996l-122.6 -152h-24l-121.6 152h21.5996l112.05 -137.57zM328.399 -10.2002c-156.4 0 -276.502 121 -276.502 280.2c0 161 119.2 280.2 276.5 280.2c117.4 0 209.5 -65.4004 248.7 -164.601h-20.7998c-39.0996 90.4004 -124.8 144.9 -227.899 144.9
c-146.6 0 -256.3 -111.9 -256.3 -260.5c0 -147.7 110.7 -260.5 256.3 -260.5c102.2 0 187.7 53.5996 229.601 146.1h21c-41.9004 -102.1 -136 -165.8 -250.6 -165.8z" />
    <glyph glyph-name="ccedilla" unicode="&#xe7;" horiz-adv-x="618" 
d="M579 155.6c-41 -99.9004 -131.962 -163.03 -243.212 -165.71l-15.75 -52.3701c60.54 -1.90039 103.26 -36.7305 103.26 -86.0205c0 -49.7998 -44 -86.0996 -104.8 -86.0996h-62.4004v16.0996h61.2998c51.9004 0 88.3008 28.9004 88.3008 70.3008
c0 40.5 -37.2998 70.2002 -90.0996 70.2002h-11.7002l-2.7998 3.7002l17.8096 64.25c-151.74 4.79004 -267.01 124.09 -267.01 280.05c0 161 119.2 280.2 276.5 280.2c117.4 0 209.5 -65.4004 248.7 -164.601h-20.7998c-39.0996 90.4004 -124.8 144.9 -227.899 144.9
c-146.6 0 -256.3 -111.9 -256.3 -260.5c0 -147.7 110.7 -260.5 256.3 -260.5c102.2 0 187.7 53.5996 229.601 146.1h21z" />
    <glyph glyph-name="ccircumflex" unicode="&#x109;" horiz-adv-x="618" 
d="M459.8 607.5h-21.5996l-112.95 137.57l-112.05 -137.57h-21.5996l121.6 152h24zM328.4 -10.2002c-156.4 0 -276.502 121 -276.502 280.2c0 161 119.2 280.2 276.5 280.2c117.4 0 209.5 -65.4004 248.7 -164.601h-20.7998c-39.0996 90.4004 -124.8 144.9 -227.899 144.9
c-146.6 0 -256.3 -111.9 -256.3 -260.5c0 -147.7 110.7 -260.5 256.3 -260.5c102.2 0 187.7 53.5996 229.601 146.1h21c-41.9004 -102.1 -136 -165.8 -250.6 -165.8z" />
    <glyph glyph-name="cdotaccent" unicode="&#x10b;" horiz-adv-x="618" 
d="M307.2 666v46.2998h36.7998v-46.2998h-36.7998zM328.4 -10.2002c-156.4 0 -276.502 121 -276.502 280.2c0 161 119.2 280.2 276.5 280.2c117.4 0 209.5 -65.4004 248.7 -164.601h-20.7998c-39.0996 90.4004 -124.8 144.9 -227.899 144.9
c-146.6 0 -256.3 -111.9 -256.3 -260.5c0 -147.7 110.7 -260.5 256.3 -260.5c102.2 0 187.7 53.5996 229.601 146.1h21c-41.9004 -102.1 -136 -165.8 -250.6 -165.8z" />
    <glyph glyph-name="d" unicode="d" horiz-adv-x="702" 
d="M580.7 730.3l20 -0.000976562v-730.3h-17.9004l-2.01953 161.47c-38.9004 -102.52 -133.351 -171.67 -254.381 -171.67c-156.7 0 -274.5 121 -274.5 280.2c0 159.3 117.8 280.2 274.5 280.2c120.95 0 215.36 -69 254.301 -171.43v351.53zM327.101 9.49902
c147 0 254.2 110.1 254.2 260.5c0 150.5 -107.2 260.5 -254.2 260.5c-145.2 0 -255 -111.7 -255 -260.5c0 -147.9 109.8 -260.5 255 -260.5z" />
    <glyph glyph-name="eth" unicode="&#xf0;" horiz-adv-x="642" 
d="M359.56 712.75c139.87 -83.8799 221.171 -245.261 222.44 -459.051c0 -150.2 -113.5 -263.8 -264.2 -263.8c-151.1 0 -264.899 111.7 -264.899 260.5c0 148.5 114.1 260 263.8 260c106.99 0 197.75 -59.29 238.24 -147.84
c-22.8701 155.16 -97.4404 271.92 -210.381 337.13l-143.46 -124.79l-11.2002 12l139.33 121.21c-62.75 32.6797 -136.49 50.1992 -219.13 50.4893v18.7002c89.04 -0.280273 167.87 -19.75 234.37 -55.9297l80.7305 70.2305l11.0996 -12.0996zM317.801 9.19922
c139.2 0 244.199 105 244.199 241.3c-1 140.1 -108.8 241.3 -244.2 241.3c-141.1 0 -245.199 -105 -245.199 -241.3s105 -241.3 245.2 -241.3z" />
    <glyph glyph-name="dcaron" unicode="&#x10f;" horiz-adv-x="702" 
d="M580.7 378.77v351.529h20v-730.3h-17.9004l-2.01953 161.47c-38.9004 -102.52 -133.351 -171.67 -254.381 -171.67c-156.7 0 -274.5 121 -274.5 280.2c0 159.3 117.8 280.2 274.5 280.2c120.95 0 215.36 -69 254.301 -171.43zM675.601 730.299l40.7998 -0.000976562
v-38.2998c0 -36.9004 -12.7998 -62.4004 -34.0996 -76.7002l-6.2998 14.2002c16.2998 13.2002 25.0996 31.7002 25.0996 59.1006h-25.5v41.7002zM327.101 9.49805c147 0 254.2 110.1 254.2 260.5c0 150.5 -107.2 260.5 -254.2 260.5c-145.2 0 -255 -111.7 -255 -260.5
c0 -147.9 109.8 -260.5 255 -260.5z" />
    <glyph glyph-name="dcroat" unicode="&#x111;" horiz-adv-x="702" 
d="M687.8 631.2v-18.5h-87.0996v-612.7h-17.9004l-2.01953 161.47c-38.9004 -102.52 -133.351 -171.67 -254.381 -171.67c-156.7 0 -274.5 121 -274.5 280.2c0 159.3 117.8 280.2 274.5 280.2c120.95 0 215.36 -69 254.301 -171.43v233.93h-225.8v18.5h225.8v99.0996h20
v-99.0996h87.0996zM327.1 9.5c147 0 254.2 110.1 254.2 260.5c0 150.5 -107.2 260.5 -254.2 260.5c-145.2 0 -255 -111.7 -255 -260.5c0 -147.9 109.8 -260.5 255 -260.5z" />
    <glyph glyph-name="e" unicode="e" horiz-adv-x="635" 
d="M586.5 275.1c0 -2.90039 -0.109375 -6.69922 -0.208984 -9.59961h-513.65c2.55957 -146.5 109.18 -255.9 249.859 -255.9c99.9004 0 179.5 52.7998 225 142h21.4004c-52.2002 -105.7 -137.4 -161.8 -246.4 -161.8c-153.4 0 -269.7 121 -269.7 281.1
c0 158.3 116.3 279.3 269.7 279.3c153.3 0 264 -119.8 264 -275.1zM322.49 530.7c-137.92 0 -243.1 -104.5 -249.58 -245.9h493.76c-5.5498 145.73 -110.27 245.9 -244.18 245.9z" />
    <glyph glyph-name="eacute" unicode="&#xe9;" horiz-adv-x="635" 
d="M393 759.5l-83.001 -152h-19.7998l80.4004 152h22.4004zM586.499 275.1c0 -2.90039 -0.109375 -6.69922 -0.208984 -9.59961h-513.65c2.55957 -146.5 109.18 -255.9 249.859 -255.9c99.9004 0 179.5 52.7998 225 142h21.4004
c-52.2002 -105.7 -137.4 -161.8 -246.4 -161.8c-153.4 0 -269.7 121 -269.7 281.1c0 158.3 116.3 279.3 269.7 279.3c153.3 0 264 -119.8 264 -275.1zM322.489 530.7c-137.92 0 -243.1 -104.5 -249.58 -245.9h493.76c-5.5498 145.73 -110.27 245.9 -244.18 245.9z" />
    <glyph glyph-name="ebreve" unicode="&#x115;" horiz-adv-x="635" 
d="M319.6 601.6c-84.4004 0 -140.4 56.4004 -140.4 157.9h18v-1.2002c0 -90.5 49.5 -139.7 122.4 -139.7c73.7998 0 122.2 49.2002 122.2 139.7v1.2002h18.2002c0 -101.5 -56 -157.9 -140.4 -157.9zM586.5 275.1c0 -2.90039 -0.109375 -6.69922 -0.208984 -9.59961h-513.65
c2.55957 -146.5 109.18 -255.9 249.859 -255.9c99.9004 0 179.5 52.7998 225 142h21.4004c-52.2002 -105.7 -137.4 -161.8 -246.4 -161.8c-153.4 0 -269.7 121 -269.7 281.1c0 158.3 116.3 279.3 269.7 279.3c153.3 0 264 -119.8 264 -275.1zM322.49 530.7
c-137.92 0 -243.1 -104.5 -249.58 -245.9h493.76c-5.5498 145.73 -110.27 245.9 -244.18 245.9z" />
    <glyph glyph-name="ecaron" unicode="&#x11b;" horiz-adv-x="635" 
d="M331.1 607.5h-24l-121.6 152h21.5996l112.05 -137.57l112.95 137.57h21.5996zM586.5 275.1c0 -2.90039 -0.109375 -6.69922 -0.208984 -9.59961h-513.65c2.55957 -146.5 109.18 -255.9 249.859 -255.9c99.9004 0 179.5 52.7998 225 142h21.4004
c-52.2002 -105.7 -137.4 -161.8 -246.4 -161.8c-153.4 0 -269.7 121 -269.7 281.1c0 158.3 116.3 279.3 269.7 279.3c153.3 0 264 -119.8 264 -275.1zM322.49 530.7c-137.92 0 -243.1 -104.5 -249.58 -245.9h493.76c-5.5498 145.73 -110.27 245.9 -244.18 245.9z" />
    <glyph glyph-name="ecircumflex" unicode="&#xea;" horiz-adv-x="635" 
d="M319.25 745.07l-112.05 -137.57h-21.5996l121.6 152h24l122.6 -152h-21.5996zM586.5 275.1c0 -2.90039 -0.109375 -6.69922 -0.208984 -9.59961h-513.65c2.55957 -146.5 109.18 -255.9 249.859 -255.9c99.9004 0 179.5 52.7998 225 142h21.4004
c-52.2002 -105.7 -137.4 -161.8 -246.4 -161.8c-153.4 0 -269.7 121 -269.7 281.1c0 158.3 116.3 279.3 269.7 279.3c153.3 0 264 -119.8 264 -275.1zM322.49 530.7c-137.92 0 -243.1 -104.5 -249.58 -245.9h493.76c-5.5498 145.73 -110.27 245.9 -244.18 245.9z" />
    <glyph glyph-name="edieresis" unicode="&#xeb;" horiz-adv-x="635" 
d="M258 712.3v-46.2998h-37.4004v46.2998h37.4004zM418.5 712.3v-46.2998h-37.4004v46.2998h37.4004zM586.5 275.1c0 -2.90039 -0.109375 -6.69922 -0.208984 -9.59961h-513.65c2.55957 -146.5 109.18 -255.9 249.859 -255.9c99.9004 0 179.5 52.7998 225 142h21.4004
c-52.2002 -105.7 -137.4 -161.8 -246.4 -161.8c-153.4 0 -269.7 121 -269.7 281.1c0 158.3 116.3 279.3 269.7 279.3c153.3 0 264 -119.8 264 -275.1zM322.49 530.7c-137.92 0 -243.1 -104.5 -249.58 -245.9h493.76c-5.5498 145.73 -110.27 245.9 -244.18 245.9z" />
    <glyph glyph-name="edotaccent" unicode="&#x117;" horiz-adv-x="635" 
d="M338 712.3v-46.2998h-36.7998v46.2998h36.7998zM586.5 275.1c0 -2.90039 -0.109375 -6.69922 -0.208984 -9.59961h-513.65c2.55957 -146.5 109.18 -255.9 249.859 -255.9c99.9004 0 179.5 52.7998 225 142h21.4004c-52.2002 -105.7 -137.4 -161.8 -246.4 -161.8
c-153.4 0 -269.7 121 -269.7 281.1c0 158.3 116.3 279.3 269.7 279.3c153.3 0 264 -119.8 264 -275.1zM322.49 530.7c-137.92 0 -243.1 -104.5 -249.58 -245.9h493.76c-5.5498 145.73 -110.27 245.9 -244.18 245.9z" />
    <glyph glyph-name="egrave" unicode="&#xe8;" horiz-adv-x="635" 
d="M336.6 607.5h-19.8008l-83 152h22.4004zM586.499 275.1c0 -2.90039 -0.109375 -6.69922 -0.208984 -9.59961h-513.65c2.55957 -146.5 109.18 -255.9 249.859 -255.9c99.9004 0 179.5 52.7998 225 142h21.4004c-52.2002 -105.7 -137.4 -161.8 -246.4 -161.8
c-153.4 0 -269.7 121 -269.7 281.1c0 158.3 116.3 279.3 269.7 279.3c153.3 0 264 -119.8 264 -275.1zM322.489 530.7c-137.92 0 -243.1 -104.5 -249.58 -245.9h493.76c-5.5498 145.73 -110.27 245.9 -244.18 245.9z" />
    <glyph glyph-name="emacron" unicode="&#x113;" horiz-adv-x="635" 
d="M475.6 700v-18.0996h-313v18.0996h313zM586.5 275.101c0 -2.90039 -0.109375 -6.69922 -0.208984 -9.59961h-513.65c2.55957 -146.5 109.18 -255.9 249.859 -255.9c99.9004 0 179.5 52.7998 225 142h21.4004c-52.2002 -105.7 -137.4 -161.8 -246.4 -161.8
c-153.4 0 -269.7 121 -269.7 281.1c0 158.3 116.3 279.3 269.7 279.3c153.3 0 264 -119.8 264 -275.1zM322.49 530.701c-137.92 0 -243.1 -104.5 -249.58 -245.9h493.76c-5.5498 145.73 -110.27 245.9 -244.18 245.9z" />
    <glyph glyph-name="eogonek" unicode="&#x119;" horiz-adv-x="635" 
d="M586.7 276c0 -3.2002 -0.100586 -7.29688 -0.300781 -10.4971h-513.64c2.91016 -145.87 109.47 -255.9 249.939 -255.9c99.7998 0 179.3 52.7002 224.899 142h21.4004c-39.5 -79.5 -98.2998 -129.6 -166.5 -150.399c-60.7998 -25.5996 -104.3 -80.5 -104.3 -131.2
c0 -46.2002 35.0996 -76.4004 89.0996 -76.4004c15.2998 0 29.7002 2.09961 44 7.2998v-16.9004c-14.7998 -4.90039 -31.0996 -7.5 -46.3994 -7.5c-62.7998 0 -104.5 37.4004 -104.5 91c0 45.0898 31.0303 93.8896 76.2207 124.18
c-10.96 -1.32031 -21.8496 -1.78027 -33.9199 -1.78027c-153.5 0 -269.8 121.1 -269.8 281.1c0 158.1 116.3 279.1 269.8 279.1c153.1 0 264 -119.9 264 -274.101zM322.699 530.703c-138.27 0 -246.7 -105.25 -249.74 -245.9h493.8
c-5.83984 145.96 -109.8 245.9 -244.06 245.9z" />
    <glyph glyph-name="f" unicode="f" horiz-adv-x="364" 
d="M350.9 539.6l0.00195312 -18.5h-198v-521.1h-20v521.1h-119.4v18.5h119.4v42.2002c0 127.5 46.7002 173.8 174.8 173.8h43.0996v-18.2002h-41.4004c-117.9 0 -156.801 -38.7998 -156.801 -155.8v-42h198.3z" />
    <glyph glyph-name="g" unicode="g" horiz-adv-x="677" 
d="M558.7 540l16.9082 -0.00195312v-459.6c0 -174.9 -95.5996 -280.9 -253.399 -280.9c-117.8 0 -201.1 59.2002 -235.5 160.8h20c33.7998 -91.0996 111.6 -141.6 215.5 -141.6c145.4 0 233.601 96.9004 233.601 260.5v102.07
c-37.54 -97.3896 -128.18 -161.569 -240.6 -161.569c-149.1 0 -262.399 114.2 -262.399 265.2c0 150.1 114.2 265.3 262.4 265.3c112.67 0 204.33 -66.46 241.47 -165.06zM316.208 39.2979c138.3 0 239.5 103.899 239.5 245.6c0 140.9 -102.1 245.7 -239.5 245.7
c-138.3 0 -243.2 -106.7 -243.2 -245.7c0 -139.8 104.9 -245.6 243.2 -245.6z" />
    <glyph glyph-name="gbreve" unicode="&#x11f;" horiz-adv-x="677" 
d="M321.9 601.6c-84.4004 0 -140.4 56.4004 -140.4 157.9h18v-1.2002c0 -90.5 49.5 -139.7 122.4 -139.7c73.7998 0 122.2 49.2002 122.2 139.7v1.2002h18.2002c0 -101.5 -56 -157.9 -140.4 -157.9zM558.7 540l16.9082 -0.00195312v-459.6
c0 -174.9 -95.5996 -280.9 -253.399 -280.9c-117.8 0 -201.1 59.2002 -235.5 160.8h20c33.7998 -91.0996 111.6 -141.6 215.5 -141.6c145.4 0 233.601 96.9004 233.601 260.5v102.07c-37.54 -97.3896 -128.18 -161.569 -240.6 -161.569
c-149.1 0 -262.399 114.2 -262.399 265.2c0 150.1 114.2 265.3 262.4 265.3c112.67 0 204.33 -66.46 241.47 -165.06zM316.208 39.2979c138.3 0 239.5 103.899 239.5 245.6c0 140.9 -102.1 245.7 -239.5 245.7c-138.3 0 -243.2 -106.7 -243.2 -245.7
c0 -139.8 104.9 -245.6 243.2 -245.6z" />
    <glyph glyph-name="gcircumflex" unicode="&#x11d;" horiz-adv-x="677" 
d="M321.55 745.07l-112.05 -137.57h-21.5996l121.6 152h24l122.6 -152h-21.5996zM558.7 540l16.9082 -0.00195312v-459.6c0 -174.9 -95.5996 -280.9 -253.399 -280.9c-117.8 0 -201.1 59.2002 -235.5 160.8h20c33.7998 -91.0996 111.6 -141.6 215.5 -141.6
c145.4 0 233.601 96.9004 233.601 260.5v102.07c-37.54 -97.3896 -128.18 -161.569 -240.6 -161.569c-149.1 0 -262.399 114.2 -262.399 265.2c0 150.1 114.2 265.3 262.4 265.3c112.67 0 204.33 -66.46 241.47 -165.06zM316.208 39.2979c138.3 0 239.5 103.899 239.5 245.6
c0 140.9 -102.1 245.7 -239.5 245.7c-138.3 0 -243.2 -106.7 -243.2 -245.7c0 -139.8 104.9 -245.6 243.2 -245.6z" />
    <glyph glyph-name="gdotaccent" unicode="&#x121;" horiz-adv-x="677" 
d="M340.3 712.3v-46.2998h-36.7998v46.2998h36.7998zM558.7 540l16.9082 -0.00195312v-459.6c0 -174.9 -95.5996 -280.9 -253.399 -280.9c-117.8 0 -201.1 59.2002 -235.5 160.8h20c33.7998 -91.0996 111.6 -141.6 215.5 -141.6c145.4 0 233.601 96.9004 233.601 260.5
v102.07c-37.54 -97.3896 -128.18 -161.569 -240.6 -161.569c-149.1 0 -262.399 114.2 -262.399 265.2c0 150.1 114.2 265.3 262.4 265.3c112.67 0 204.33 -66.46 241.47 -165.06zM316.208 39.2979c138.3 0 239.5 103.899 239.5 245.6c0 140.9 -102.1 245.7 -239.5 245.7
c-138.3 0 -243.2 -106.7 -243.2 -245.7c0 -139.8 104.9 -245.6 243.2 -245.6z" />
    <glyph glyph-name="h" unicode="h" horiz-adv-x="640" 
d="M337.3 550.2c130.7 0 212.5 -89.8008 212.5 -231.601v-318.6h-20v316.4c0 133.1 -74.2002 214.6 -194.9 214.6c-114.3 0 -213.8 -98.5 -213.8 -212v-319h-20v730.3h20v-327.1c34.4004 85.2402 120.4 147 216.2 147z" />
    <glyph glyph-name="hbar" unicode="&#x127;" horiz-adv-x="640" 
d="M337.3 550.2c130.7 0 212.5 -89.8008 212.5 -231.601v-318.6h-20v316.4c0 133.1 -74.2002 214.6 -194.9 214.6c-114.3 0 -213.8 -98.5 -213.8 -212v-319h-20v612.7h-102v18.5h102v99.0996h20v-99.0996h210.9v-18.5h-210.9v-209.5c34.4004 85.2402 120.4 147 216.2 147z
" />
    <glyph glyph-name="hcircumflex" unicode="&#x125;" horiz-adv-x="640" 
d="M223.5 785.3l-112.95 128.51l-111.95 -128.51h-21.5996l121.6 142h24l122.5 -142h-21.5996zM337.3 550.199c130.7 0 212.5 -89.8008 212.5 -231.601v-318.6h-20v316.4c0 133.1 -74.2002 214.6 -194.9 214.6c-114.3 0 -213.8 -98.5 -213.8 -212v-319h-20v730.3h20v-327.1
c34.4004 85.2402 120.4 147 216.2 147z" />
    <glyph glyph-name="i" unicode="i" horiz-adv-x="222" 
d="M92.7002 666v46.2998h36.7998v-46.2998h-36.7998zM101.101 -0v540h20v-540h-20z" />
    <glyph glyph-name="dotlessi" unicode="&#x131;" horiz-adv-x="222" 
d="M101.1 0v540h20v-540h-20z" />
    <glyph glyph-name="iacute" unicode="&#xed;" horiz-adv-x="222" 
d="M98.0996 607.5l59.7002 152h22.2002l-62 -152h-19.9004zM101.1 0v540h20v-540h-20z" />
    <glyph glyph-name="ibreve" unicode="&#x12d;" horiz-adv-x="222" 
d="M111.2 601.6c-78.4004 0 -130.4 56.4004 -130.4 157.9h18v-1.2002c0 -90.5 45.5 -139.7 112.4 -139.7c67.7998 0 112.2 49.2002 112.2 139.7v1.2002h18.2002c0 -101.5 -52 -157.9 -130.4 -157.9zM101.101 -0v540h20v-540h-20z" />
    <glyph glyph-name="icircumflex" unicode="&#xee;" horiz-adv-x="222" 
d="M123 759.5l109.299 -152h-21.2002l-99.5996 136.88l-99.5996 -136.88h-21.0996l109.3 152h22.9004zM101.099 0v540h20v-540h-20z" />
    <glyph glyph-name="idieresis" unicode="&#xef;" horiz-adv-x="222" 
d="M43.7002 665.1v46.2998h34.8496v-46.2998h-34.8496zM144 664.999v46.2998h34.8496v-46.2998h-34.8496zM101.1 -0.000976562v540h20v-540h-20z" />
    <glyph glyph-name="igrave" unicode="&#xec;" horiz-adv-x="222" 
d="M122.7 607.5h-19.9004l-62 152h22.2002zM101.1 0v540h20v-540h-20z" />
    <glyph glyph-name="ij" unicode="&#x133;" horiz-adv-x="543" 
d="M92.7002 666v46.2998h36.7998v-46.2998h-36.7998zM413.601 666v46.2998h36.7998v-46.2998h-36.7998zM101.101 -0v540h20v-540h-20zM267.7 -190.3v19.2002h16c86.7998 0 138.2 51.5 138.2 137.4v573.7h20v-574.4c0 -96.4004 -60.4004 -155.9 -156.9 -155.9h-17.2998z" />
    <glyph glyph-name="imacron" unicode="&#x12b;" horiz-adv-x="222" 
d="M-11.7695 681.9v18.0996h245.73v-18.0996h-245.73zM101.101 0v540h20v-540h-20z" />
    <glyph glyph-name="iogonek" unicode="&#x12f;" horiz-adv-x="223" 
d="M130.4 712.3v-46.2998h-36.7998v46.2998h36.7998zM105.101 -206.4c15.2998 0 29.5986 2.10156 43.999 7.30176v-17c-15 -5 -31.2998 -7.40039 -46.5 -7.40039c-62.4004 0 -104.5 37.0996 -104.5 91.0996c0 54.0801 42.9004 110.13 103.9 139.14v533.26h20v-539.73
l0.0996094 -0.269531c-61.5 -24.5 -106.1 -79 -106.1 -130.2c0 -46.2002 35.4004 -76.2002 89.1006 -76.2002z" />
    <glyph glyph-name="itilde" unicode="&#x129;" horiz-adv-x="222" 
d="M186.6 622.2c-35.7998 0 -58.9014 27.7988 -80.8018 55.1992c-20.5 25 -40.7002 49.9004 -70.5 49.9004c-33.5996 0 -56.5 -34 -56.5 -85.2998v-12.5h-16.7998v12c0 61.9004 27.9004 103.5 72.7002 103.5c37.7998 0 60.7998 -28.7002 82.5996 -56.1006
c20.4004 -25.0996 39.8008 -49.0996 68.7012 -49.0996c34.4004 0 56.4004 33.0996 56.4004 85.5v10.4004h16.7998v-10c0 -62.4004 -28.2998 -103.5 -72.5996 -103.5zM101.098 -0.000976562v540h20v-540h-20z" />
    <glyph glyph-name="j" unicode="j" horiz-adv-x="234" 
d="M104.8 666v46.2998h36.7998v-46.2998h-36.7998zM-41.1006 -190.3v19.2002h16c86.7998 0 138.2 51.5 138.2 137.4v573.7h20v-574.4c0 -96.4004 -60.4004 -155.9 -156.9 -155.9h-17.2998z" />
    <glyph glyph-name="jcircumflex" unicode="&#x135;" horiz-adv-x="234" 
d="M134.8 759.5l109.299 -152h-21.2002l-99.5996 136.88l-99.5996 -136.88h-21.0996l109.3 152h22.9004zM113.099 -33l0.000976562 573h20v-573.5c0 -96.5 -60.5 -156 -156.9 -156h-14.5v19.2002h13.0996c86.7998 0 138.3 51.5 138.3 137.3z" />
    <glyph glyph-name="k" unicode="k" horiz-adv-x="500" 
d="M469.6 0l-241.719 272.3h-105.78v-272.3h-20v730.3h20v-438.7h105.99l221.81 248.4h25.5996l-230.15 -258.12l250.15 -281.88h-25.9004z" />
    <glyph glyph-name="kgreenlandic" unicode="&#x138;" horiz-adv-x="498" 
d="M468.6 0l-241.719 272.3h-105.78v-272.3h-20v540h20v-248.4h106.01l222.69 248.4h25.5996l-231.04 -258.14l250.14 -281.86h-25.9004z" />
    <glyph glyph-name="l" unicode="l" horiz-adv-x="222" 
d="M101.1 0v730.3h20v-730.3h-20z" />
    <glyph glyph-name="lacute" unicode="&#x13a;" horiz-adv-x="222" 
d="M89.5996 813.7l89.8994 142h22.4004l-92.5 -142h-19.7998zM101.099 0v730.3h20v-730.3h-20z" />
    <glyph glyph-name="lcaron" unicode="&#x13e;" horiz-adv-x="222" 
d="M101.1 0v730.3h20v-730.3h-20zM203.1 615.3l-6.2998 14.1992c16.2998 13.2002 25.0996 31.7002 25.0996 59.1006h-25.5v41.7002h40.7998v-38.2998c0 -36.9004 -12.7998 -62.4004 -34.0996 -76.7002z" />
    <glyph glyph-name="ldot" unicode="&#x140;" horiz-adv-x="248" 
d="M101.1 0v730.3h20v-730.3h-20zM216.399 339.2v52.5996h37.4004v-52.5996h-37.4004z" />
    <glyph glyph-name="lslash" unicode="&#x142;" horiz-adv-x="222" 
d="M240.8 491.9v-21.2002l-119.7 -76.7998v-393.9h-20v381.07l-120.6 -77.3701v21.2002l120.6 77.3701v328.03h20v-315.2z" />
    <glyph glyph-name="m" unicode="m" horiz-adv-x="957" 
d="M686.5 550.2c107.8 0 179.3 -84.2002 179.3 -210.5v-339.7h-19.0996l-0.900391 336.8c0 116.6 -64.5996 194.199 -161.199 194.199c-113.7 0 -190.3 -84.9004 -191.2 -211.5v-319.5h-19.7998v336.8c0 118.4 -63.7002 194.2 -161.3 194.2
c-113.7 0 -190.3 -84.9004 -191.2 -211.5v-319.5h-20v540h17.4004l2.2002 -123.6c30.5703 82.8203 101.63 133.801 193.7 133.801c89.5195 0 153.979 -58.2197 173.119 -150.46c26.7998 92.5898 100.96 150.46 198.979 150.46z" />
    <glyph glyph-name="n" unicode="n" horiz-adv-x="640" 
d="M337.3 550.2c130.7 0 212.5 -90.7002 212.5 -231.601v-318.6h-20v316.4c0 133.1 -74.2002 214.6 -194.9 214.6c-114.3 0 -213.8 -98.5 -213.8 -212v-319h-20v540h17.2998l2.41016 -137.51c34.2197 85.6104 120.42 147.71 216.49 147.71z" />
    <glyph glyph-name="nacute" unicode="&#x144;" horiz-adv-x="640" 
d="M397 759.5l-83.001 -152h-19.7998l80.4004 152h22.4004zM337.299 550.2c130.7 0 212.5 -90.7002 212.5 -231.601v-318.6h-20v316.4c0 133.1 -74.2002 214.6 -194.9 214.6c-114.3 0 -213.8 -98.5 -213.8 -212v-319h-20v540h17.2998l2.41016 -137.51
c34.2197 85.6104 120.42 147.71 216.49 147.71z" />
    <glyph glyph-name="ncaron" unicode="&#x148;" horiz-adv-x="640" 
d="M335.1 607.5h-24l-121.6 152h21.5996l112.05 -137.57l112.95 137.57h21.5996zM337.3 550.2c130.7 0 212.5 -90.7002 212.5 -231.601v-318.6h-20v316.4c0 133.1 -74.2002 214.6 -194.9 214.6c-114.3 0 -213.8 -98.5 -213.8 -212v-319h-20v540h17.2998l2.41016 -137.51
c34.2197 85.6104 120.42 147.71 216.49 147.71z" />
    <glyph glyph-name="eng" unicode="&#x14b;" horiz-adv-x="640" 
d="M337.3 550.1c130.7 0 212.499 -89.8008 212.499 -231.601v-321.1c0 -114.5 -73.0996 -187.7 -187.6 -187.7h-13.2002v19.2002h11.9004c103.4 0 168.9 65.5996 168.9 169v318.4c0 133.2 -74.2002 214.7 -194.9 214.7c-114.3 0 -213.8 -98.5996 -213.8 -212.1v-318.9h-20
v540h17.2998l2.58984 -137.17c34.3301 85.3799 120.41 147.27 216.311 147.27z" />
    <glyph glyph-name="ntilde" unicode="&#xf1;" horiz-adv-x="640" 
d="M174.8 640.2l-0.000976562 -11.001h-16.4004v11.2002c0 62.2998 30.7002 104 78.2998 104c31.5 0 53.7002 -14 88.2002 -56.5996c29.5996 -35.9004 47.3994 -48.2002 73.2998 -48.2002c37.7002 0 61.9004 33.9004 61.9004 87.1006v9h16.5v-9.2002
c0 -62.2998 -30.7998 -104 -78.2998 -104c-30 0 -51.5996 13.2998 -86.1992 54.0996c-32.2998 38.4004 -49.8994 50.6006 -75.2998 50.6006c-36.7002 0 -62 -34.7998 -62 -87zM337.299 550.199c130.7 0 212.5 -90.7002 212.5 -231.601v-318.6h-20v316.4
c0 133.1 -74.2002 214.6 -194.9 214.6c-114.3 0 -213.8 -98.5 -213.8 -212v-319h-20v540h17.2998l2.41016 -137.51c34.2197 85.6104 120.42 147.71 216.49 147.71z" />
    <glyph glyph-name="o" unicode="o" horiz-adv-x="663" 
d="M331.7 -10.2002c-159.5 0 -279.8 120 -279.8 280.2c0 161.2 120.3 280.2 279.8 280.2c160.4 0 279.801 -120 279.801 -280.2s-119.4 -280.2 -279.801 -280.2zM331.7 9.5c148.9 0 259.602 111.6 259.602 260.5s-110.7 260.5 -259.601 260.5
s-259.601 -110.7 -259.601 -260.5c0 -148.9 111.6 -260.5 259.6 -260.5z" />
    <glyph glyph-name="oacute" unicode="&#xf3;" horiz-adv-x="663" 
d="M302.3 607.5l80.3994 152h22.4004l-83 -152h-19.7998zM331.699 -10.2002c-159.5 0 -279.8 120 -279.8 280.2c0 161.2 120.3 280.2 279.8 280.2c160.4 0 279.801 -120 279.801 -280.2s-119.4 -280.2 -279.801 -280.2zM331.699 9.5c148.9 0 259.602 111.6 259.602 260.5
s-110.7 260.5 -259.601 260.5s-259.601 -110.7 -259.601 -260.5c0 -148.9 111.6 -260.5 259.6 -260.5z" />
    <glyph glyph-name="obreve" unicode="&#x14f;" horiz-adv-x="663" 
d="M331.7 601.6c-84.4004 0 -140.4 56.4004 -140.4 157.9h18v-1.2002c0 -90.5 49.5 -139.7 122.4 -139.7c73.7998 0 122.2 49.2002 122.2 139.7v1.2002h18.2002c0 -101.5 -56 -157.9 -140.4 -157.9zM331.7 -10.2002c-159.5 0 -279.8 120 -279.8 280.2
c0 161.2 120.3 280.2 279.8 280.2c160.4 0 279.801 -120 279.801 -280.2s-119.4 -280.2 -279.801 -280.2zM331.7 9.5c148.9 0 259.602 111.6 259.602 260.5s-110.7 260.5 -259.601 260.5s-259.601 -110.7 -259.601 -260.5c0 -148.9 111.6 -260.5 259.6 -260.5z" />
    <glyph glyph-name="ocircumflex" unicode="&#xf4;" horiz-adv-x="663" 
d="M465.9 607.5h-21.5996l-112.95 137.57l-112.05 -137.57h-21.5996l121.6 152h24zM331.701 -10.2002c-159.5 0 -279.8 120 -279.8 280.2c0 161.2 120.3 280.2 279.8 280.2c160.4 0 279.801 -120 279.801 -280.2s-119.4 -280.2 -279.801 -280.2zM331.701 9.5
c148.9 0 259.602 111.6 259.602 260.5s-110.7 260.5 -259.601 260.5s-259.601 -110.7 -259.601 -260.5c0 -148.9 111.6 -260.5 259.6 -260.5z" />
    <glyph glyph-name="odieresis" unicode="&#xf6;" horiz-adv-x="663" 
d="M232.7 666v46.2998h37.4004v-46.2998h-37.4004zM393.2 666v46.2998h37.4004v-46.2998h-37.4004zM331.7 -10.2002c-159.5 0 -279.8 120 -279.8 280.2c0 161.2 120.3 280.2 279.8 280.2c160.4 0 279.801 -120 279.801 -280.2s-119.4 -280.2 -279.801 -280.2zM331.7 9.5
c148.9 0 259.602 111.6 259.602 260.5s-110.7 260.5 -259.601 260.5s-259.601 -110.7 -259.601 -260.5c0 -148.9 111.6 -260.5 259.6 -260.5z" />
    <glyph glyph-name="ograve" unicode="&#xf2;" horiz-adv-x="663" 
d="M348.7 607.5h-19.8008l-83 152h22.4004zM331.699 -10.2002c-159.5 0 -279.8 120 -279.8 280.2c0 161.2 120.3 280.2 279.8 280.2c160.4 0 279.801 -120 279.801 -280.2s-119.4 -280.2 -279.801 -280.2zM331.699 9.5c148.9 0 259.602 111.6 259.602 260.5
s-110.7 260.5 -259.601 260.5s-259.601 -110.7 -259.601 -260.5c0 -148.9 111.6 -260.5 259.6 -260.5z" />
    <glyph glyph-name="ohungarumlaut" unicode="&#x151;" horiz-adv-x="663" 
d="M239.4 607.5l79.8994 152h21.9004l-82.2002 -152h-19.5996zM388.6 607.5l81.4004 152h21.5996l-83.5996 -152h-19.4004zM331.7 -10.2002c-159.5 0 -279.8 120 -279.8 280.2c0 161.2 120.3 280.2 279.8 280.2c160.4 0 279.801 -120 279.801 -280.2
s-119.4 -280.2 -279.801 -280.2zM331.7 9.5c148.9 0 259.602 111.6 259.602 260.5s-110.7 260.5 -259.601 260.5s-259.601 -110.7 -259.601 -260.5c0 -148.9 111.6 -260.5 259.6 -260.5z" />
    <glyph glyph-name="omacron" unicode="&#x14d;" horiz-adv-x="663" 
d="M174.7 681.9v18.0996h313v-18.0996h-313zM331.7 -10.2002c-159.5 0 -279.8 120 -279.8 280.2c0 161.2 120.3 280.2 279.8 280.2c160.4 0 279.801 -120 279.801 -280.2s-119.4 -280.2 -279.801 -280.2zM331.7 9.5c148.9 0 259.602 111.6 259.602 260.5
s-110.7 260.5 -259.601 260.5s-259.601 -110.7 -259.601 -260.5c0 -148.9 111.6 -260.5 259.6 -260.5z" />
    <glyph glyph-name="oslash" unicode="&#xf8;" horiz-adv-x="656" 
d="M462.35 514.41c85.2695 -46.25 141.249 -136.302 141.249 -244.412c0 -158.2 -117.3 -276.3 -273.8 -276.3c-50.1904 0 -95.9004 11.6104 -135.471 33.2305l-47.9297 -87.9297h-19.2998l52.71 95.4102c-78.6699 47.5996 -128.91 133.38 -128.91 236.49
c0 158.2 118.4 276.4 275.801 276.4c43.0303 0 84.1807 -9.16992 120.03 -25.71l43.3701 79.4102h19.2998zM70.6982 270.898c0 -95.1602 45.1504 -175.34 118.2 -219.92l248.33 453.34c-32.8203 14.9502 -70.7803 23.7803 -110.53 23.7803c-147.2 0 -256 -110 -256 -257.2z
M329.798 12.8984c146.1 0 254.1 109.899 254.1 257.1c0 101.34 -51.46 184.95 -131.31 227.141l-248.99 -453.41c36.6602 -19.4297 79.2002 -30.8301 126.2 -30.8301z" />
    <glyph glyph-name="oslashacute" unicode="&#x1ff;" horiz-adv-x="656" 
d="M400.7 759.5l-83.001 -152h-19.7998l80.4004 152h22.4004zM462.35 514.41c85.2695 -46.25 141.249 -136.302 141.249 -244.412c0 -158.2 -117.3 -276.3 -273.8 -276.3c-50.1904 0 -95.9004 11.6104 -135.471 33.2305l-47.9297 -87.9297h-19.2998l52.71 95.4102
c-78.6699 47.5996 -128.91 133.38 -128.91 236.49c0 158.2 118.4 276.4 275.801 276.4c43.0303 0 84.1807 -9.16992 120.03 -25.71l43.3701 79.4102h19.2998zM70.6982 270.898c0 -95.1602 45.1504 -175.34 118.2 -219.92l248.33 453.34
c-32.8203 14.9502 -70.7803 23.7803 -110.53 23.7803c-147.2 0 -256 -110 -256 -257.2zM329.798 12.8984c146.1 0 254.1 109.899 254.1 257.1c0 101.34 -51.46 184.95 -131.31 227.141l-248.99 -453.41c36.6602 -19.4297 79.2002 -30.8301 126.2 -30.8301z" />
    <glyph glyph-name="otilde" unicode="&#xf5;" horiz-adv-x="663" 
d="M406.4 622.5c-30 0 -51.6006 13.2988 -86.2002 54.0986c-32.2998 38.4004 -49.8994 50.6006 -75.2998 50.6006c-36.7002 0 -62 -34.7998 -62 -87v-11h-16.4004v11.2002c0 62.2998 30.7002 104 78.2998 104c31.5 0 53.7002 -14 88.2002 -56.5996
c29.5996 -35.9004 47.3994 -48.2002 73.2998 -48.2002c37.7002 0 61.9004 33.9004 61.9004 87.1006v9h16.5v-9.2002c0 -62.2998 -30.7998 -104 -78.2998 -104zM331.699 -10.2012c-159.5 0 -279.8 120 -279.8 280.2c0 161.2 120.3 280.2 279.8 280.2
c160.4 0 279.801 -120 279.801 -280.2s-119.4 -280.2 -279.801 -280.2zM331.699 9.49902c148.9 0 259.602 111.6 259.602 260.5s-110.7 260.5 -259.601 260.5s-259.601 -110.7 -259.601 -260.5c0 -148.9 111.6 -260.5 259.6 -260.5z" />
    <glyph glyph-name="oe" unicode="&#x153;" horiz-adv-x="1173" 
d="M1124.6 275.3c0 -3 -0.0996094 -6.79883 -0.199219 -9.79883h-513.66c2.55957 -146.4 109.079 -255.801 249.859 -255.801c99.7998 0 179.5 52.5996 225 141.899h21.4004c-52.2002 -105.7 -137.4 -161.8 -246.4 -161.8c-127.16 0 -228.83 83.4199 -259.72 203.28
c-31.46 -120.12 -136.25 -203.18 -269.28 -203.18c-159.4 0 -279.7 120 -279.7 280.1c0 161.2 120.3 280.2 279.7 280.2c132.85 0 237.529 -82.8301 269.149 -202.73c30.7305 119.13 132.511 202.729 259.851 202.729c152.6 0 264 -119.3 264 -274.899zM860.6 530.801
c-137.95 0 -243.15 -104.641 -249.591 -246.101h493.78c-5.33008 145.61 -110.1 246.101 -244.189 246.101zM331.6 9.5c148.7 0 259.4 111.6 259.4 260.5s-110.7 260.5 -259.4 260.5c-148.8 0 -259.5 -110.7 -259.5 -260.5c0 -148.9 111.6 -260.5 259.5 -260.5z" />
    <glyph glyph-name="p" unicode="p" horiz-adv-x="703" 
d="M376.5 550.2c160.1 0 273.48 -120.91 273.48 -280.21c0 -159.2 -113.4 -280.2 -273.5 -280.2c-119.09 0 -216 70.25 -255.39 174.12v-354.22h-20v730.3h17.0996l2.83008 -164.07c39.3496 104 136.31 174.28 255.479 174.28zM375.78 9.49023
c147 0 254.1 109.9 254.1 260.5s-107.1 260.5 -254.1 260.5c-145.2 0 -255.101 -111.8 -255.101 -260.5c0 -147.8 109.9 -260.5 255.101 -260.5z" />
    <glyph glyph-name="thorn" unicode="&#xfe;" horiz-adv-x="703" 
d="M376.5 550.1c160.1 0 273.5 -120.899 273.5 -280.1s-113.4 -280.2 -273.5 -280.2c-119.09 0 -216.01 70.25 -255.399 174.12v-354.22h-20v920.6h20v-354.23c39.3896 103.84 136.31 174.03 255.399 174.03zM375.8 9.50098c147 0 254.1 109.899 254.1 260.499
c0 150.5 -107.1 260.4 -254.1 260.4c-145.2 0 -255.101 -111.8 -255.101 -260.399c0 -147.8 109.9 -260.5 255.101 -260.5z" />
    <glyph glyph-name="q" unicode="q" horiz-adv-x="702" 
d="M583.7 540l17.0908 0.00878906v-730.3h-20v352.62c-38.6904 -103 -133.29 -172.53 -254.5 -172.53c-156.5 0 -274.4 121 -274.4 280.2c0 159.3 117.9 280.2 274.4 280.2c121.18 0 215.77 -69.4297 254.479 -172.39zM326.991 9.50879c147 0 254.2 110 254.2 260.5
s-107.2 260.5 -254.2 260.5c-145.2 0 -255 -111.7 -255 -260.5c0 -147.9 109.8 -260.5 255 -260.5z" />
    <glyph glyph-name="r" unicode="r" horiz-adv-x="378" 
d="M317.8 541.2l46.2002 -0.000976562v-19.5h-47c-115.9 0 -195.9 -92.5 -195.9 -215.3v-306.4h-20v540h17.2998l2.29004 -136.85c30.6299 83.0703 101 138.051 197.11 138.051z" />
    <glyph glyph-name="racute" unicode="&#x155;" horiz-adv-x="378" 
d="M301.7 759.6l-83.001 -152h-19.7998l80.4004 152h22.4004zM317.799 541.199l46.2002 -0.000976562v-19.5h-47c-115.9 0 -195.9 -92.5 -195.9 -215.3v-306.4h-20v540h17.2998l2.29004 -136.85c30.6299 83.0703 101 138.051 197.11 138.051z" />
    <glyph glyph-name="rcaron" unicode="&#x159;" horiz-adv-x="378" 
d="M239.8 607.6h-24l-121.6 152h21.5996l112.05 -137.57l112.95 137.57h21.5996zM317.8 541.199l46.2002 -0.000976562v-19.5h-47c-115.9 0 -195.9 -92.5 -195.9 -215.3v-306.4h-20v540h17.2998l2.29004 -136.85c30.6299 83.0703 101 138.051 197.11 138.051z" />
    <glyph glyph-name="s" unicode="s" horiz-adv-x="504" 
d="M252.5 -10.2002c-120 0 -194.098 57.4004 -203.498 153h19.7998c9.40039 -84.5 76 -133.7 184 -133.7c109.6 0 181.3 52.4004 181.3 132.101c0 100.4 -92.7998 117.801 -185.399 133.4c-93.7998 16 -188.8 32.2998 -188.8 134.7c0 84.0996 76.5996 140.899 188.8 140.899
c113.1 0 184.899 -56.0996 190.6 -147.399h-19.5c-5.7002 80.2998 -68.6006 128.399 -171.301 128.399c-101.5 0 -168.9 -48.7998 -168.9 -121.6c0 -86.4004 81.5996 -100 173.199 -115.5c94.7998 -15.9004 201.2 -35.6006 201.2 -152.501
c0 -91.2002 -80.5996 -151.8 -201.5 -151.8z" />
    <glyph glyph-name="sacute" unicode="&#x15b;" horiz-adv-x="504" 
d="M222.1 607.5l80.3994 152h22.4004l-83 -152h-19.7998zM252.499 -10.2002c-120 0 -194.098 57.4004 -203.498 153h19.7998c9.40039 -84.5 76 -133.7 184 -133.7c109.6 0 181.3 52.4004 181.3 132.101c0 100.4 -92.7998 117.801 -185.399 133.4
c-93.7998 16 -188.8 32.2998 -188.8 134.7c0 84.0996 76.5996 140.899 188.8 140.899c113.1 0 184.899 -56.0996 190.6 -147.399h-19.5c-5.7002 80.2998 -68.6006 128.399 -171.301 128.399c-101.5 0 -168.9 -48.7998 -168.9 -121.6c0 -86.4004 81.5996 -100 173.199 -115.5
c94.7998 -15.9004 201.2 -35.6006 201.2 -152.501c0 -91.2002 -80.5996 -151.8 -201.5 -151.8z" />
    <glyph glyph-name="scaron" unicode="&#x161;" horiz-adv-x="504" 
d="M364 759.5h21.5996l-122.6 -152h-24l-121.6 152h21.5996l112.05 -137.57zM252.5 -10.2002c-120 0 -194.098 57.4004 -203.498 153h19.7998c9.40039 -84.5 76 -133.7 184 -133.7c109.6 0 181.3 52.4004 181.3 132.101c0 100.4 -92.7998 117.801 -185.399 133.4
c-93.7998 16 -188.8 32.2998 -188.8 134.7c0 84.0996 76.5996 140.899 188.8 140.899c113.1 0 184.899 -56.0996 190.6 -147.399h-19.5c-5.7002 80.2998 -68.6006 128.399 -171.301 128.399c-101.5 0 -168.9 -48.7998 -168.9 -121.6c0 -86.4004 81.5996 -100 173.199 -115.5
c94.7998 -15.9004 201.2 -35.6006 201.2 -152.501c0 -91.2002 -80.5996 -151.8 -201.5 -151.8z" />
    <glyph glyph-name="scedilla" unicode="&#x15f;" horiz-adv-x="504" 
d="M454 141.6c0 -88.04 -75.1084 -147.561 -189.068 -151.58l-16 -53.2002c60.54 -1.90039 103.26 -36.7305 103.26 -86.0205c0 -49.7998 -44 -86.0996 -104.8 -86.0996h-62.4004v16.0996h61.2998c51.9004 0 88.3008 28.9004 88.3008 70.3008
c0 40.5 -37.2998 70.2002 -90.0996 70.2002h-11.7002l-2.7998 3.7002l17.9697 64.8301c-117.33 1.42969 -189.68 58.5801 -198.96 152.97h19.7998c9.40039 -84.5 76 -133.7 184 -133.7c109.6 0 181.3 52.4004 181.3 132.101c0 100.4 -92.7998 117.801 -185.399 133.4
c-93.7998 16 -188.8 32.2998 -188.8 134.7c0 84.0996 76.5996 140.899 188.8 140.899c113.1 0 184.899 -56.0996 190.6 -147.399h-19.5c-5.7002 80.2998 -68.6006 128.399 -171.301 128.399c-101.5 0 -168.9 -48.7998 -168.9 -121.6c0 -86.4004 81.5996 -100 173.199 -115.5
c94.7998 -15.9004 201.2 -35.6006 201.2 -152.501z" />
    <glyph glyph-name="scircumflex" unicode="&#x15d;" horiz-adv-x="504" 
d="M385.7 607.5h-21.5996l-112.95 137.57l-112.05 -137.57h-21.5996l121.6 152h24zM252.501 -10.2002c-120 0 -194.098 57.4004 -203.498 153h19.7998c9.40039 -84.5 76 -133.7 184 -133.7c109.6 0 181.3 52.4004 181.3 132.101c0 100.4 -92.7998 117.801 -185.399 133.4
c-93.7998 16 -188.8 32.2998 -188.8 134.7c0 84.0996 76.5996 140.899 188.8 140.899c113.1 0 184.899 -56.0996 190.6 -147.399h-19.5c-5.7002 80.2998 -68.6006 128.399 -171.301 128.399c-101.5 0 -168.9 -48.7998 -168.9 -121.6c0 -86.4004 81.5996 -100 173.199 -115.5
c94.7998 -15.9004 201.2 -35.6006 201.2 -152.501c0 -91.2002 -80.5996 -151.8 -201.5 -151.8z" />
    <glyph glyph-name="germandbls" unicode="&#xdf;" horiz-adv-x="598" 
d="M418.8 384.22c74.2598 -18.9404 125.799 -90.5508 125.799 -179.921c0 -123 -98.5996 -204.3 -247.699 -204.3h-59.5v19.7002h59.5c137.4 0 227.9 73.5 227.9 185.4c0 95.5 -65.2998 168.1 -153.2 168.1h-124.3v19.4004h123.2c67.2002 0 125.9 74.0996 125.9 158.5
c0 101.2 -75.7998 175.2 -179 175.2c-126.1 0 -196.3 -85 -196.3 -237.9v-488.4h-20v488.4c0 164.7 78.0996 257.5 216.3 257.5c113.4 0 198.2 -83.0996 198.2 -194.3c0 -74.54 -41.4404 -143.36 -96.8008 -167.38z" />
    <glyph glyph-name="longs" unicode="&#x17f;" horiz-adv-x="242" 
d="M101.1 0v598.7c0 89.4004 43.0996 131.601 133.6 131.601h65.5v-19.2002h-62.7998c-81.2998 0 -116.3 -35 -116.3 -114.4v-596.7h-20z" />
    <glyph glyph-name="t" unicode="t" horiz-adv-x="375" 
d="M294.6 19.2998l68.6006 0.000976562v-19.4004h-69.7002c-97.2002 0 -155.9 59.5996 -155.9 158.699v362.5h-124.8v18.5h124.8v159.9h20v-159.9h200.8v-18.5h-200.8v-362c0 -88.0996 49.9004 -139.8 137 -139.8z" />
    <glyph glyph-name="tbar" unicode="&#x167;" horiz-adv-x="397" 
d="M308.1 19.2998l68.6006 0.000976562v-19.4004h-69.7002c-97.2002 0 -155.9 59.5996 -155.9 158.699v125.24h-120.81v19.04h120.81v218.22h-124.8v18.5h124.8v159.9h20v-159.9h199.9v-18.5h-199.9v-218.22h195.12v-19.04h-195.12v-124.74
c0 -88.0996 49.9004 -139.8 137 -139.8z" />
    <glyph glyph-name="tcaron" unicode="&#x165;" horiz-adv-x="376" 
d="M362 730.3l40.7998 -0.000976562v-38.2998c0 -36.9004 -12.7998 -62.4004 -34.0996 -76.7002l-6.2998 14.2002c16.2998 13.2002 25.0996 31.7002 25.0996 59.1006h-25.5v41.7002zM158.7 159.099c0 -88.0996 49.9014 -139.799 137.001 -139.799h68.5996v-19.4004h-69.7002
c-97.2002 0 -155.9 59.5996 -155.9 158.699v362.5h-124.8v18.5h124.8v159.9h20v-159.9h190.8v-18.5h-190.8v-362z" />
    <glyph glyph-name="u" unicode="u" horiz-adv-x="630" 
d="M315.1 -10.2002c-137.9 0 -224.8 92.2998 -224.8 236.399v313.8h20v-312.3c0 -134.5 78.5996 -218.2 204.8 -218.2c126.3 0 204.8 83.7998 204.8 218.2v312.3h20v-313.8c0 -144.1 -86.7998 -236.399 -224.8 -236.399z" />
    <glyph glyph-name="uacute" unicode="&#xfa;" horiz-adv-x="630" 
d="M285.7 607.5l80.3994 152h22.4004l-83 -152h-19.7998zM315.1 -10.2002c-137.9 0 -224.8 92.2998 -224.8 236.399v313.8h20v-312.3c0 -134.5 78.5996 -218.2 204.8 -218.2c126.3 0 204.8 83.7998 204.8 218.2v312.3h20v-313.8c0 -144.1 -86.7998 -236.399 -224.8 -236.399
z" />
    <glyph glyph-name="ubreve" unicode="&#x16d;" horiz-adv-x="630" 
d="M315.1 601.6c-84.4004 0 -140.4 56.4004 -140.4 157.9h18v-1.2002c0 -90.5 49.5 -139.7 122.4 -139.7c73.7998 0 122.2 49.2002 122.2 139.7v1.2002h18.2002c0 -101.5 -56 -157.9 -140.4 -157.9zM315.1 -10.2002c-137.9 0 -224.8 92.2998 -224.8 236.399v313.8h20v-312.3
c0 -134.5 78.5996 -218.2 204.8 -218.2c126.3 0 204.8 83.7998 204.8 218.2v312.3h20v-313.8c0 -144.1 -86.7998 -236.399 -224.8 -236.399z" />
    <glyph glyph-name="ucircumflex" unicode="&#xfb;" horiz-adv-x="630" 
d="M449.3 607.5h-21.5996l-112.95 137.57l-112.05 -137.57h-21.5996l121.6 152h24zM315.101 -10.2002c-137.9 0 -224.8 92.2998 -224.8 236.399v313.8h20v-312.3c0 -134.5 78.5996 -218.2 204.8 -218.2c126.3 0 204.8 83.7998 204.8 218.2v312.3h20v-313.8
c0 -144.1 -86.7998 -236.399 -224.8 -236.399z" />
    <glyph glyph-name="udieresis" unicode="&#xfc;" horiz-adv-x="630" 
d="M216.1 666v46.2998h37.4004v-46.2998h-37.4004zM376.6 666v46.2998h37.4004v-46.2998h-37.4004zM315.1 -10.2002c-137.9 0 -224.8 92.2998 -224.8 236.399v313.8h20v-312.3c0 -134.5 78.5996 -218.2 204.8 -218.2c126.3 0 204.8 83.7998 204.8 218.2v312.3h20v-313.8
c0 -144.1 -86.7998 -236.399 -224.8 -236.399z" />
    <glyph glyph-name="ugrave" unicode="&#xf9;" horiz-adv-x="630" 
d="M332.1 607.5h-19.8008l-83 152h22.4004zM315.099 -10.2002c-137.9 0 -224.8 92.2998 -224.8 236.399v313.8h20v-312.3c0 -134.5 78.5996 -218.2 204.8 -218.2c126.3 0 204.8 83.7998 204.8 218.2v312.3h20v-313.8c0 -144.1 -86.7998 -236.399 -224.8 -236.399z" />
    <glyph glyph-name="uhungarumlaut" unicode="&#x171;" horiz-adv-x="630" 
d="M222.8 607.5l79.8994 152h21.9004l-82.2002 -152h-19.5996zM371.999 607.5l81.4004 152h21.5996l-83.5996 -152h-19.4004zM315.1 -10.2002c-137.9 0 -224.8 92.2998 -224.8 236.399v313.8h20v-312.3c0 -134.5 78.5996 -218.2 204.8 -218.2
c126.3 0 204.8 83.7998 204.8 218.2v312.3h20v-313.8c0 -144.1 -86.7998 -236.399 -224.8 -236.399z" />
    <glyph glyph-name="umacron" unicode="&#x16b;" horiz-adv-x="630" 
d="M158.1 681.9v18.0996h313v-18.0996h-313zM315.1 -10.2002c-137.9 0 -224.8 92.2998 -224.8 236.399v313.8h20v-312.3c0 -134.5 78.5996 -218.2 204.8 -218.2c126.3 0 204.8 83.7998 204.8 218.2v312.3h20v-313.8c0 -144.1 -86.7998 -236.399 -224.8 -236.399z" />
    <glyph glyph-name="uni0123" unicode="&#x123;" horiz-adv-x="677" 
d="M341.8 703.1v-41.6895h-40.7998v38.2998c0 36.9004 12.7998 62.4004 34.0996 76.7002l6.2998 -14.2002c-16.4697 -13.2197 -25.2295 -31.6299 -25.1592 -59.1104h25.5596zM558.7 540.01l16.9082 -0.00195312v-459.6c0 -174.9 -95.5996 -280.9 -253.399 -280.9
c-117.8 0 -201.1 59.2002 -235.5 160.8h20c33.7998 -91.0996 111.6 -141.6 215.5 -141.6c145.4 0 233.601 96.9004 233.601 260.5v102.07c-37.54 -97.3896 -128.18 -161.569 -240.6 -161.569c-149.1 0 -262.399 114.2 -262.399 265.2c0 150.1 114.2 265.3 262.4 265.3
c112.67 0 204.33 -66.46 241.47 -165.06zM316.208 39.3076c138.3 0 239.5 103.899 239.5 245.6c0 140.9 -102.1 245.7 -239.5 245.7c-138.3 0 -243.2 -106.7 -243.2 -245.7c0 -139.8 104.9 -245.6 243.2 -245.6z" />
    <glyph glyph-name="uni0137" unicode="&#x137;" horiz-adv-x="500" 
d="M245.35 281.88l250.151 -281.88h-25.9004l-241.72 272.3h-105.78v-272.3h-20v730.3h20v-438.7h105.99l221.81 248.4h25.5996zM230.401 -113.7v41.6992h40.7998v-38.2998c0 -36.9004 -12.7998 -62.4004 -34.0996 -76.7002l-6.2998 14.2002
c16.2998 13.2002 25.0996 31.7002 25.0996 59.1006h-25.5z" />
    <glyph glyph-name="uni013C" unicode="&#x13c;" horiz-adv-x="222" 
d="M101.1 0v730.3h20v-730.3h-20zM96.8994 -187l-6.2998 14.1992c16.2998 13.2002 25.0996 31.7002 25.0996 59.1006h-25.5v41.7002h40.7998v-38.2998c0 -36.9004 -12.7998 -62.4004 -34.0996 -76.7002z" />
    <glyph glyph-name="uni0146" unicode="&#x146;" horiz-adv-x="640" 
d="M337.3 550.2c130.7 0 212.5 -90.7002 212.5 -231.601v-318.6h-20v316.4c0 133.1 -74.2002 214.6 -194.9 214.6c-114.3 0 -213.8 -98.5 -213.8 -212v-319h-20v540h17.2998l2.41016 -137.51c34.2197 85.6104 120.42 147.71 216.49 147.71zM302.899 -113.7v41.6992h40.7998
v-38.2998c0 -36.9004 -12.7998 -62.4004 -34.0996 -76.7002l-6.2998 14.2002c16.2998 13.2002 25.0996 31.7002 25.0996 59.1006h-25.5z" />
    <glyph glyph-name="uni0157" unicode="&#x157;" horiz-adv-x="378" 
d="M317.8 541.2l46.2002 -0.000976562v-19.5h-47c-115.9 0 -195.9 -92.5 -195.9 -215.3v-306.4h-20v540h17.2998l2.29004 -136.85c30.6299 83.0703 101 138.051 197.11 138.051zM90.2998 -113.701v41.6992h40.7998v-38.2998c0 -36.9004 -12.7998 -62.4004 -34.0996 -76.7002
l-6.2998 14.2002c16.2998 13.2002 25.0996 31.7002 25.0996 59.1006h-25.5z" />
    <glyph glyph-name="uni0163" unicode="&#x163;" horiz-adv-x="376" 
d="M271.33 -62.4805c60.54 -1.90039 103.271 -36.7207 103.271 -86.0107c0 -49.7998 -44 -86.0996 -104.8 -86.0996h-62.4004v16.0996h61.2998c51.9004 0 88.3008 28.9004 88.3008 70.3008c0 40.5 -37.2998 70.2002 -90.0996 70.2002h-11.7002l-2.7998 3.7002l20.8398 75.21
c-84.3701 8.21973 -134.54 66.0693 -134.54 157.689v362.5h-124.8v18.5h124.8v159.9h20v-159.9h200.8v-18.5h-200.8v-362c0 -88.0996 49.9004 -139.8 137 -139.8h68.5996v-19.4004h-69.7002c-1.50977 0 -3.00977 0 -4.49023 0.0302734z" />
    <glyph glyph-name="uni0219" unicode="&#x219;" horiz-adv-x="504" 
d="M252.5 -10.2002c-120 0 -194.098 57.4004 -203.498 153h19.7998c9.40039 -84.5 76 -133.7 184 -133.7c109.6 0 181.3 52.4004 181.3 132.101c0 100.4 -92.7998 117.801 -185.399 133.4c-93.7998 16 -188.8 32.2998 -188.8 134.7c0 84.0996 76.5996 140.899 188.8 140.899
c113.1 0 184.899 -56.0996 190.6 -147.399h-19.5c-5.7002 80.2998 -68.6006 128.399 -171.301 128.399c-101.5 0 -168.9 -48.7998 -168.9 -121.6c0 -86.4004 81.5996 -100 173.199 -115.5c94.7998 -15.9004 201.2 -35.6006 201.2 -152.501
c0 -91.2002 -80.5996 -151.8 -201.5 -151.8zM247.902 -187.7l-6.2998 14.1992c16.2998 13.2002 25.0996 31.7002 25.0996 59.1006h-25.5v41.7002h40.7998v-38.2998c0 -36.9004 -12.7998 -62.4004 -34.0996 -76.7002z" />
    <glyph glyph-name="uni021B" unicode="&#x21b;" horiz-adv-x="375" 
d="M294.6 19.2998l68.6006 0.000976562v-19.4004h-69.7002c-97.2002 0 -155.9 59.5996 -155.9 158.699v362.5h-124.8v18.5h124.8v159.9h20v-159.9h200.8v-18.5h-200.8v-362c0 -88.0996 49.9004 -139.8 137 -139.8zM258.5 -113.699v41.6992h40.7998v-38.2998
c0 -36.9004 -12.7998 -62.4004 -34.0996 -76.7002l-6.2998 14.2002c16.2998 13.2002 25.0996 31.7002 25.0996 59.1006h-25.5z" />
    <glyph glyph-name="uogonek" unicode="&#x173;" horiz-adv-x="630" 
d="M519.8 540l19.999 0.00195312v-313.7c0 -115.1 -54.5996 -196.699 -149.199 -224.999c-57.4004 -17.2002 -103 -75.4004 -103 -130.801c0 -46.2998 35.4004 -76.3994 89.2002 -76.3994c16.0996 0 30.3994 2.2002 43.8994 7.2998v-17.0996
c-15 -4.90039 -31.2002 -7.30078 -46.2998 -7.30078c-61.4004 0 -104.5 36.2002 -104.5 91.4004c0 48.8896 30.4297 98.8193 69.6602 122.629c-8.75977 -0.69043 -17.79 -1.13086 -25.7598 -1.13086c-136.2 0 -223.5 93 -223.5 236.6v313.5h20v-312.4
c0 -134.4 78.5 -218 204.7 -218s204.8 83.5996 204.8 218v312.4z" />
    <glyph glyph-name="uring" unicode="&#x16f;" horiz-adv-x="630" 
d="M315.1 595.3c-57.2002 0 -96.2002 37.9004 -96.2002 93.7002c0 55.9004 39 93.7002 96.2002 93.7002s96.2002 -37.7998 96.2002 -93.7002c0 -55.7998 -39 -93.7002 -96.2002 -93.7002zM315.1 611.3c47.5996 0 79.7998 31.0996 79.7998 77.6992
c0 46.7002 -32.2002 77.7998 -79.7998 77.7998s-79.7998 -31.0996 -79.7998 -77.7998c0 -46.5996 32.2002 -77.6992 79.7998 -77.6992zM315.1 -10.2002c-137.9 0 -224.8 92.2998 -224.8 236.399v313.8h20v-312.3c0 -134.5 78.5996 -218.2 204.8 -218.2
c126.3 0 204.8 83.7998 204.8 218.2v312.3h20v-313.8c0 -144.1 -86.7998 -236.399 -224.8 -236.399z" />
    <glyph glyph-name="utilde" unicode="&#x169;" horiz-adv-x="630" 
d="M389.8 622.5c-30 0 -51.6006 13.2988 -86.2002 54.0986c-32.2998 38.4004 -49.8994 50.6006 -75.2998 50.6006c-36.7002 0 -62 -34.7998 -62 -87v-11h-16.4004v11.2002c0 62.2998 30.7002 104 78.2998 104c31.5 0 53.7002 -14 88.2002 -56.5996
c29.5996 -35.9004 47.3994 -48.2002 73.2998 -48.2002c37.7002 0 61.9004 33.9004 61.9004 87.1006v9h16.5v-9.2002c0 -62.2998 -30.7998 -104 -78.2998 -104zM315.099 -10.2012c-137.9 0 -224.8 92.2998 -224.8 236.399v313.8h20v-312.3
c0 -134.5 78.5996 -218.2 204.8 -218.2c126.3 0 204.8 83.7998 204.8 218.2v312.3h20v-313.8c0 -144.1 -86.7998 -236.399 -224.8 -236.399z" />
    <glyph glyph-name="v" unicode="v" horiz-adv-x="562" 
d="M512.4 540h21.0996l-243.1 -540h-15.5996l-248.2 540h21.2998l234.64 -508.81z" />
    <glyph glyph-name="w" unicode="w" horiz-adv-x="848" 
d="M799.2 540l21.001 -0.000976562l-192.9 -540h-14.7002l-191.23 481.67l-189.47 -481.67h-14.7002l-186.5 540h21.2998l173.2 -503.5l190.9 483.9h10.5l193.1 -484.43z" />
    <glyph glyph-name="wacute" unicode="&#x1e83;" horiz-adv-x="848" 
d="M494.5 759.5l-83.001 -152h-19.7998l80.4004 152h22.4004zM799.199 540l21.001 -0.000976562l-192.9 -540h-14.7002l-191.23 481.67l-189.47 -481.67h-14.7002l-186.5 540h21.2998l173.2 -503.5l190.9 483.9h10.5l193.1 -484.43z" />
    <glyph glyph-name="wcircumflex" unicode="&#x175;" horiz-adv-x="848" 
d="M420.75 745.07l-112.05 -137.57h-21.5996l121.6 152h24l122.6 -152h-21.5996zM799.2 540l21.001 -0.000976562l-192.9 -540h-14.7002l-191.23 481.67l-189.47 -481.67h-14.7002l-186.5 540h21.2998l173.2 -503.5l190.9 483.9h10.5l193.1 -484.43z" />
    <glyph glyph-name="wdieresis" unicode="&#x1e85;" horiz-adv-x="848" 
d="M322.1 666v46.2998h37.4004v-46.2998h-37.4004zM482.6 666v46.2998h37.4004v-46.2998h-37.4004zM799.199 540l21.001 -0.0107422l-192.9 -540h-14.7002l-191.23 481.67l-189.47 -481.67h-14.7002l-186.5 540h21.2998l173.21 -503.5l190.89 483.9h10.5l193.11 -484.42z
" />
    <glyph glyph-name="wgrave" unicode="&#x1e81;" horiz-adv-x="848" 
d="M438.1 607.5h-19.8008l-83 152h22.4004zM799.199 540l21.001 -0.000976562l-192.9 -540h-14.7002l-191.23 481.67l-189.47 -481.67h-14.7002l-186.5 540h21.2998l173.2 -503.5l190.9 483.9h10.5l193.1 -484.43z" />
    <glyph glyph-name="x" unicode="x" horiz-adv-x="480" 
d="M466.9 0h-23.7998l-203.08 269.12l-203.12 -269.12h-23.5996l214.45 283.8l-193.05 256.2h23.7998l181.53 -241.26l181.97 241.26h23.5996l-193.36 -256.21z" />
    <glyph glyph-name="y" unicode="y" horiz-adv-x="570" 
d="M521.9 540l21.502 0.000976562l-279.3 -593.2c-50.9004 -108.4 -96.6006 -137.101 -179.001 -137.101h-40.2998v19.0996h39.5c74.7002 0 114 22.9004 161.5 124.5l35.6299 75.3398l-254.83 511.36h22.5996l242.93 -488.7z" />
    <glyph glyph-name="yacute" unicode="&#xfd;" horiz-adv-x="570" 
d="M364 759.5l-83.001 -152h-19.7998l80.4004 152h22.4004zM521.899 540l21.502 0.000976562l-279.3 -593.2c-50.9004 -108.4 -96.6006 -137.101 -179.001 -137.101h-40.2998v19.0996h39.5c74.7002 0 114 22.9004 161.5 124.5l35.6299 75.3398l-254.83 511.36h22.5996
l242.93 -488.7z" />
    <glyph glyph-name="ycircumflex" unicode="&#x177;" horiz-adv-x="570" 
d="M290.25 745.07l-112.05 -137.57h-21.5996l121.6 152h24l122.6 -152h-21.5996zM521.9 540l21.502 0.000976562l-279.3 -593.2c-50.9004 -108.4 -96.6006 -137.101 -179.001 -137.101h-40.2998v19.0996h39.5c74.7002 0 114 22.9004 161.5 124.5l35.6299 75.3398
l-254.83 511.36h22.5996l242.93 -488.7z" />
    <glyph glyph-name="ydieresis" unicode="&#xff;" horiz-adv-x="570" 
d="M191.6 666v46.2998h37.4004v-46.2998h-37.4004zM352.1 666v46.2998h37.4004v-46.2998h-37.4004zM521.899 540l21.5117 0.000976562l-279.3 -593.2c-50.9004 -108.4 -96.6006 -137.101 -179.001 -137.101h-40.2998v19.0996h39.5c74.7002 0 114 22.9004 161.5 124.5
l35.6299 75.3398l-254.84 511.36h22.5996l242.93 -488.7z" />
    <glyph glyph-name="ygrave" unicode="&#x1ef3;" horiz-adv-x="570" 
d="M307.6 607.5h-19.8008l-83 152h22.4004zM521.898 540l21.502 0.000976562l-279.3 -593.2c-50.9004 -108.4 -96.6006 -137.101 -179.001 -137.101h-40.2998v19.0996h39.5c74.7002 0 114 22.9004 161.5 124.5l35.6299 75.3398l-254.83 511.36h22.5996l242.93 -488.7z" />
    <glyph glyph-name="z" unicode="z" horiz-adv-x="451" 
d="M57.2598 19.4004h367.64v-19.4004h-399v8.5l359.36 512.2h-343.06v19.2998h374.5v-7.7998z" />
    <glyph glyph-name="zacute" unicode="&#x17a;" horiz-adv-x="451" 
d="M311.7 759.5l-83.001 -152h-19.7998l80.4004 152h22.4004zM57.2588 19.4004h367.64v-19.4004h-399v8.5l359.36 512.2h-343.06v19.2998h374.5v-7.7998z" />
    <glyph glyph-name="zcaron" unicode="&#x17e;" horiz-adv-x="451" 
d="M249.8 607.5h-24l-121.6 152h21.5996l112.05 -137.57l112.95 137.57h21.5996zM57.2598 19.4004h367.64v-19.4004h-399v8.5l359.36 512.2h-343.06v19.2998h374.5v-7.7998z" />
    <glyph glyph-name="zdotaccent" unicode="&#x17c;" horiz-adv-x="451" 
d="M256.7 712.3v-46.2998h-36.7998v46.2998h36.7998zM57.2598 19.4004h367.64v-19.4004h-399v8.5l359.36 512.2h-343.06v19.2998h374.5v-7.7998z" />
    <glyph glyph-name="germandbls.calt" horiz-adv-x="643" 
d="M358.47 436.49c141.25 -3.45996 232.829 -88.3477 232.829 -214.388c0 -128.7 -94.4004 -222.101 -247 -222.101h-87.5996v20h87.5996c136.4 0 226.5 80.5 226.5 202.1c0 118.1 -89.2002 195.899 -223.8 195.899h-18.0996v9.09961l172.4 253h-164
c-139.3 0 -215.6 -75.2998 -215.6 -214.6v-465.5h-20.2998v466.5c0 149.2 84.2998 233.5 234.399 233.5h196.8v-8.90039z" />
    <glyph glyph-name="i.loclTRK" horiz-adv-x="222" 
d="M92.7002 666v46.2998h36.7998v-46.2998h-36.7998zM101.101 -0v540h20v-540h-20z" />
    <glyph glyph-name="k.ss01" horiz-adv-x="484" 
d="M101.1 0v730.3h20v-730.3h-20zM200.659 282.27l284.239 -282.269h-27.0996l-279.6 277.8v8.09961l260.2 254.1h26.7998z" />
    <glyph glyph-name="k.ss03" horiz-adv-x="484" 
d="M101.1 0v730.3h20v-730.3h-20zM200.659 282.27l284.239 -282.269h-27.0996l-279.6 277.8v8.09961l260.2 254.1h26.7998z" />
    <glyph glyph-name="k.ss04" horiz-adv-x="484" 
d="M101.1 0v730.3h20v-730.3h-20zM200.659 282.27l284.239 -282.269h-27.0996l-279.6 277.8v8.09961l260.2 254.1h26.7998z" />
    <glyph glyph-name="ordfeminine" unicode="&#xaa;" horiz-adv-x="474" 
d="M374.48 704.45h16.5908v-330.2h-16.8203l-1.19043 92.4004c-25.1299 -58.9404 -81.1699 -98.3506 -152.25 -98.3506c-94.9805 0 -167.16 74.1104 -167.16 171.101c0 96.8896 72.1797 171 167.16 171c71.1104 0 127.16 -39.4297 152.28 -98.3799zM221.671 385.75
c86.29 0 149.28 64.7305 149.28 153.65c0 88.8496 -62.9902 153.649 -149.28 153.649c-85.46 0 -149.91 -66.1904 -149.91 -153.65c0 -87.5596 64.5498 -153.649 149.91 -153.649z" />
    <glyph glyph-name="ordmasculine" unicode="&#xba;" horiz-adv-x="457" 
d="M228.88 368.13c-97.4199 0 -170.939 73.2402 -170.939 170.95c0 98.25 73.5195 170.94 170.939 170.94c97.9404 0 170.851 -73.2402 170.851 -170.94c0 -97.71 -72.9102 -170.95 -170.851 -170.95zM228.88 385.689c87.8496 0 152.859 65.2393 152.859 153.39
c0 88.1201 -65.0098 153.38 -152.859 153.38c-87.8701 0 -152.88 -65.2695 -152.88 -153.38c0 -87.8496 65.2803 -153.39 152.88 -153.39z" />
    <glyph glyph-name="uni0410" unicode="&#x410;" horiz-adv-x="677" 
d="M627.7 0l-92.2402 210.7h-396.23l-90.6299 -210.7h-21.7998l299.4 700h16.0996l307.4 -700h-22zM334.62 668.79l-187.319 -438.59h379.85z" />
    <glyph glyph-name="uni0411" unicode="&#x411;" horiz-adv-x="608" 
d="M345.7 405.4c127.4 0 218.6 -84.7002 218.6 -201.7c0 -118 -93.2002 -203.7 -221.5 -203.7h-232.6v700h407.6v-19.7998h-387.3v-274.8h215.2zM342.1 20.1006c116.8 0 201.701 77.3008 201.701 183.601s-83 181.6 -198.9 181.6h-214.4v-365.2h211.6z" />
    <glyph glyph-name="uni0412" unicode="&#x412;" horiz-adv-x="644" 
d="M439.04 370.25c78.7197 -20.9697 137.359 -94 137.359 -180.86c0 -104.5 -79.5 -189.4 -203.1 -189.4h-263.1v700h262.7c109.6 0 181.899 -74.2998 181.899 -167.399c0 -75.4404 -48.6396 -140.2 -115.76 -162.34zM381.589 679.9h-251.201v-299.9h257.5
c82.5 0 146.4 71.9004 146.4 151.301c0 83.0996 -67.5996 148.6 -152.699 148.6zM382.088 20.2002c97.5996 0 173.7 74.8008 173.7 170.301c0 93.5996 -75.2002 169.399 -169.2 169.399h-256.2v-339.7h251.7z" />
    <glyph glyph-name="uni0413" unicode="&#x413;" horiz-adv-x="485" 
d="M463 700v-19.7002h-332.5v-680.3h-20.2998v700h352.8z" />
    <glyph glyph-name="uni0403" unicode="&#x403;" horiz-adv-x="485" 
d="M349.6 925.4l-92.501 -142h-19.7998l89.9004 142h22.4004zM462.999 700v-19.7002h-332.5v-680.3h-20.2998v700h352.8z" />
    <glyph glyph-name="uni0490" unicode="&#x490;" horiz-adv-x="485" 
d="M443.3 805h19.7002v-124.7h-332.5v-680.3h-20.2998v700h333.1v105z" />
    <glyph glyph-name="uni0414" unicode="&#x414;" horiz-adv-x="734" 
d="M615.9 19.7002h79.1982v-173.4h-19.5996v153.7h-646.3v-153.7h-19.5996v173.4h49.3701c80.21 35.7598 100.65 128.59 151.03 680.3h405.9v-680.3zM228.209 680.3c-42.6299 -482.96 -63.9502 -611.55 -136.24 -660.6h503.53v660.6h-367.29z" />
    <glyph glyph-name="uni0415" unicode="&#x415;" horiz-adv-x="540" 
d="M130.5 19.9004h362.7v-19.9004h-383v700h372v-19.7998h-351.7v-303.3h325.7v-19.5996h-325.7v-337.4z" />
    <glyph glyph-name="uni0401" unicode="&#x401;" horiz-adv-x="540" 
d="M174.1 825.4v46.2998h37.4004v-46.2998h-37.4004zM374.199 825.4v46.2998h37.4004v-46.2998h-37.4004zM130.499 19.9004h362.7v-19.9004h-383v700h372v-19.7998h-351.7v-303.3h325.7v-19.5996h-325.7v-337.4z" />
    <glyph glyph-name="uni0416" unicode="&#x416;" horiz-adv-x="885" 
d="M852.2 0l-294.129 354.8h-105.37v-354.8h-20.4004v354.8h-105.37l-294.13 -354.8h-26.4004l302.63 364.96l-275.73 335.04h26l267.67 -325.5h105.33v325.5h20.4004v-325.5h105.33l267.67 325.5h25.9004l-275.64 -335.04l302.64 -364.96h-26.4004z" />
    <glyph glyph-name="uni0417" unicode="&#x417;" horiz-adv-x="564" 
d="M368.46 375.14c73.3896 -21.7402 124.84 -93.5322 124.84 -181.742c0 -117.3 -94 -202.6 -222.3 -202.6c-120.6 0 -209.6 75.2002 -222.8 187.4h20.0996c14.2002 -99.9004 93 -167.7 202.7 -167.7c116.7 0 202.101 76.2002 202.101 183.3
c0 97.2998 -68.4004 171.7 -157.9 171.7h-99.7002v19.0996h99.7002c82.4004 0 143.9 62.2002 143.9 145.9c0 93.7998 -76.5996 159.399 -188.1 159.399c-95.2998 0 -170.2 -61.0996 -187.3 -149.199h-19.9004c17 101.2 103.9 168.601 207.2 168.601
c120.3 0 208.1 -71.9004 208.1 -178.5c0 -74.79 -45.7002 -136.56 -110.641 -155.659z" />
    <glyph glyph-name="uni0418" unicode="&#x418;" horiz-adv-x="734" 
d="M609.3 700h14.0996v-700h-20.2998v657.91l-479.1 -657.91h-13.7998v700h20.2998v-657.48z" />
    <glyph glyph-name="uni0419" unicode="&#x419;" horiz-adv-x="734" 
d="M229.2 837v18h266.2v-18h-266.2zM609.3 700h14.0996v-700h-20.2998v657.91l-479.1 -657.91h-13.7998v700h20.2998v-657.48z" />
    <glyph glyph-name="uni041A" unicode="&#x41a;" horiz-adv-x="597" 
d="M566.6 0l-311.801 354.8h-124.3v-354.8h-20.2998v700h20.2998v-325.5h124.28l285.32 325.5h26.5l-293.69 -335.17l320.29 -364.83h-26.5996z" />
    <glyph glyph-name="uni041B" unicode="&#x41b;" horiz-adv-x="718" 
d="M214.4 700l393.8 0.000976562v-700h-20.2998v680.3h-355.16l-33.6396 -496.7c-8.5 -121.3 -67.9004 -183.7 -174.5 -183.7h-13.7998v20.2002h13.7002c94.5 0 146.1 54.5996 154.1 164.1z" />
    <glyph glyph-name="uni041C" unicode="&#x41c;" horiz-adv-x="939" 
d="M885.3 0h-20.499l-116.87 657.69l-273.93 -622.79h-9.7002l-273.03 622.02l-117.87 -656.92h-20.5l125.1 700h16.4004l274.21 -629.59l276.09 629.59h16.5996z" />
    <glyph glyph-name="uni041D" unicode="&#x41d;" horiz-adv-x="728" 
d="M597.6 700h20.2998v-700h-20.2998v356.3h-467.1v-356.3h-20.2998v700h20.2998v-323.8h467.1v323.8z" />
    <glyph glyph-name="uni041E" unicode="&#x41e;" horiz-adv-x="833" 
d="M416.7 -10.2002c-210.2 0 -359.8 154.999 -359.8 359.299c0 205.2 149.6 361.101 359.8 361.101s359.8 -155 359.8 -361.1c0 -205.2 -149.6 -359.3 -359.8 -359.3zM416.7 9.89844c198.2 0 339.3 145.6 339.3 339.199c0 194.5 -141.1 341 -339.3 341
s-339.3 -147.5 -339.3 -341c0 -192.6 141.1 -339.199 339.3 -339.199z" />
    <glyph glyph-name="uni041F" unicode="&#x41f;" horiz-adv-x="693" 
d="M110.2 700h472.601v-700h-20.4004v680.3h-431.9v-680.3h-20.2998v700z" />
    <glyph glyph-name="uni0420" unicode="&#x420;" horiz-adv-x="597" 
d="M342.5 700c123.1 0 216.899 -88.7998 216.899 -207.1c0 -119.1 -92.7998 -208 -216.899 -208h-212v-284.9h-20.2998v700h232.3zM342 304.9c112.7 0 196.9 80.3994 196.9 187.999c0 106.7 -84.2002 187.101 -196.9 187.101h-211.5v-375.1h211.5z" />
    <glyph glyph-name="uni0421" unicode="&#x421;" horiz-adv-x="779" 
d="M413.2 -10.0996c-208.9 0 -356.302 150.101 -356.302 359.2s148.3 361 356.3 361c152.2 0 270.601 -81.7998 320.4 -215h-21.4004c-48.5996 121.5 -158.199 194.9 -298.999 194.9c-195.2 0 -335.8 -142.5 -335.8 -340.9s139.7 -339.101 335.8 -339.101
c144.7 0 257.101 77.4004 305.601 207.601h20.5c-48.9004 -142 -170 -227.7 -326.1 -227.7z" />
    <glyph glyph-name="uni0422" unicode="&#x422;" horiz-adv-x="528" 
d="M505.6 700v-19.7002h-231.7v-680.3h-20.2998v680.3h-231.7v19.7002h483.7z" />
    <glyph glyph-name="uni0423" unicode="&#x423;" horiz-adv-x="578" 
d="M541.2 700l21.8984 0.00878906l-235.6 -496.5c-80.4004 -170.1 -118.7 -205.5 -219 -205.5h-37.4004v19.7002h38.2002c86.7305 0 117.801 28.6504 189.051 171.65l-277.35 510.64h23.5l264.49 -488.68l1.80957 3.78027z" />
    <glyph glyph-name="uni040E" unicode="&#x40e;" horiz-adv-x="578" 
d="M173 837v18h266.2v-18h-266.2zM541.2 700h21.8984l-235.6 -496.5c-80.4004 -170.1 -118.7 -205.5 -219 -205.5h-37.4004v19.7002h38.2002c86.7305 0 117.801 28.6602 189.051 171.66l-277.35 510.64h23.5l264.49 -488.67l1.80957 3.76953z" />
    <glyph glyph-name="uni0424" unicode="&#x424;" horiz-adv-x="845" 
d="M788.2 349.2c0 -202.81 -149.84 -357.79 -354.7 -359.29v-106.11h-20.0996v106.11c-204.74 1.55957 -356.5 157.399 -356.5 359.09c0 202.68 151.76 359.52 356.5 361.09v96.8096h20.0996v-96.8096c204.86 -1.50977 354.7 -157.29 354.7 -360.89zM77.4004 349.101
c0 -190.78 143.06 -337.729 336 -339.289v680.27c-192.05 -1.57031 -336 -149.41 -336 -340.98zM433.5 9.81152c192.08 1.50977 334.2 147.581 334.2 339.291c0 192.5 -142.12 339.47 -334.2 340.989v-680.28z" />
    <glyph glyph-name="uni0425" unicode="&#x425;" horiz-adv-x="574" 
d="M560.9 0h-24.2002l-249.33 349.57l-249.67 -349.57h-24.2998l261.4 365.65l-238.9 334.35h24.2002l227.1 -318.46l227.8 318.46h24.2002l-239.54 -334.88z" />
    <glyph glyph-name="uni0427" unicode="&#x427;" horiz-adv-x="619" 
d="M487.9 700h20.4004v-700h-20.4004v307.62c-72.8496 -26.9297 -139.42 -40.3193 -197.5 -40.3193c-144.9 0 -236.2 81.0996 -236.2 228.6v204.1h20.4004v-203.4c0 -133.1 78.5996 -209.199 216.699 -209.199c57.2803 0 122.811 13.8096 196.601 40.6299v371.97z" />
    <glyph glyph-name="uni0426" unicode="&#x426;" horiz-adv-x="697" 
d="M579.5 19.7002h79.0996v-173.4h-19.5996v153.7h-528.8v700h20.2998v-680.3h428.7v680.3h20.2998v-680.3z" />
    <glyph glyph-name="uni0428" unicode="&#x428;" horiz-adv-x="967" 
d="M836.1 700h20.3008v-700h-746.2v700h20.2998v-680.3h342.7v680.3h20.0996v-680.3h342.8v680.3z" />
    <glyph glyph-name="uni0429" unicode="&#x429;" horiz-adv-x="974" 
d="M856.4 19.7002h79.4004v-173.4h-19.5996v153.7h-806v700h20.2998v-680.3h342.7v680.3h20.0996v-680.3h342.8v680.3h20.2998v-680.3z" />
    <glyph glyph-name="uni040F" unicode="&#x40f;" horiz-adv-x="733" 
d="M623 700l0.000976562 -700h-247.7v-153.4h-18.4004v153.4h-246.7v700h20.2998v-680.3h472.1v680.3h20.4004z" />
    <glyph glyph-name="uni042C" unicode="&#x42c;" horiz-adv-x="605" 
d="M350.2 415.4c124.5 0 217.2 -88.7002 217.2 -208.2c0 -118.4 -93.7002 -207.2 -217.2 -207.2h-240v700h20.2998v-284.6h219.7zM349.5 19.7002c113 0 197.4 80.5996 197.4 187.6c0 108 -84.4004 188.5 -197.4 188.5h-219v-376.1h219z" />
    <glyph glyph-name="uni042A" unicode="&#x42a;" horiz-adv-x="692" 
d="M437.6 415.4c124.5 0 217.2 -88.7002 217.2 -208.2c0 -118.4 -93.7002 -207.2 -217.2 -207.2h-240v680.3h-177v19.7002h197.3v-284.6h219.7zM436.899 19.7002c113 0 197.4 80.5996 197.4 187.6c0 108 -84.4004 188.5 -197.4 188.5h-219v-376.1h219z" />
    <glyph glyph-name="uni042B" unicode="&#x42b;" horiz-adv-x="837" 
d="M350.2 415.4c124.5 0 217.2 -88.7002 217.2 -208.2c0 -118.4 -93.7002 -207.2 -217.2 -207.2h-240v700h20.2998v-284.6h219.7zM706.2 700h20.2998v-700h-20.2998v700zM349.5 19.7002c113 0 197.4 80.5996 197.4 187.6c0 108 -84.4004 188.5 -197.4 188.5h-219v-376.1h219
z" />
    <glyph glyph-name="uni0409" unicode="&#x409;" horiz-adv-x="1082" 
d="M827.8 415.4c124.5 0 217.198 -88.6992 217.198 -208.199c0 -118.4 -93.7002 -207.2 -217.2 -207.2h-240.1v680.3h-355.16l-33.6396 -496.7c-8.59961 -121.3 -67.8994 -183.7 -174.499 -183.7h-13.5996v20.2002h13.7002c94.5 0 146.1 54.5996 154.1 164.1l36 515.8h393.5
v-284.6h219.7zM827.098 19.7012c112.9 0 197.4 80.5996 197.4 187.6c0 108 -84.5 188.5 -197.4 188.5h-219v-376.1h219z" />
    <glyph glyph-name="uni040A" unicode="&#x40a;" horiz-adv-x="1016" 
d="M764.1 388.8c135.3 0 214.501 -80.7998 214.501 -193.899c0 -113.2 -78.2998 -194.9 -214.5 -194.9h-229.9v368.5h-403.7v-368.5h-20.2998v700h20.2998v-311.7h403.7v311.7h20.2998v-311.2h209.6zM763.601 19.7998c119.1 0 194.5 67.7998 194.5 175.1
c0 106.4 -75.4004 174.101 -194.5 174.101h-209.1v-349.2h209.1z" />
    <glyph glyph-name="uni0405" unicode="&#x405;" horiz-adv-x="579" 
d="M296.9 -8.09961c-146 0 -242.901 84.2979 -242.901 211.598h20.5c0 -115.5 87.9004 -191.5 222.301 -191.5c122.7 0 206.9 71 206.9 174.4c0 117.6 -101.7 139.3 -209.601 163c-108.9 23.2998 -224.4 48.7002 -224.4 176.2c0 110.3 87.7002 182.5 222 182.5
c129 0 214.4 -76.5 214.4 -191.9h-20.2002c0 103.8 -77.2998 172 -194.399 172c-122.4 0 -201.5 -64.0996 -201.5 -162.199c0 -112.6 103.2 -134.3 209.2 -157.1c110.9 -24.2998 225.101 -49.7998 225.101 -182.399c0 -116 -93.7002 -194.6 -227.4 -194.6z" />
    <glyph glyph-name="uni0404" unicode="&#x404;" horiz-adv-x="788" 
d="M729.4 218.5l20.3096 0.00195312c-51.7002 -143 -177.4 -228.7 -334.601 -228.7c-206.1 0 -358.199 154.1 -358.199 360.199c0 206.2 153.2 360.2 358.2 360.2c152.3 0 272 -78.7002 328.9 -216.8h-21.2998c-55.5 126 -165.9 196.6 -307.601 196.6
c-189.07 0 -331.46 -139.11 -337.6 -327.301h406.5v-19.5996h-406.64c3.33008 -191.99 145.73 -333.101 337.73 -333.101c146.6 0 263.699 77.4004 314.299 208.5z" />
    <glyph glyph-name="uni042D" unicode="&#x42d;" horiz-adv-x="788" 
d="M372.9 710.2c205 0 358.211 -154.001 358.211 -360.201c0 -206.1 -152.1 -360.199 -358.199 -360.199c-157.2 0 -282.9 85.7002 -334.601 228.7h20.2998c50.5996 -131.2 167.699 -208.601 314.299 -208.601c191.91 0 334.311 141.11 337.641 333.2h-406.54v19.5996
h406.39c-6.13965 188.29 -148.52 327.4 -337.5 327.4c-141.7 0 -252.101 -70.5996 -307.601 -196.699h-21.2998c56.9004 138.1 176.601 216.8 328.9 216.8z" />
    <glyph glyph-name="uni0406" unicode="&#x406;" horiz-adv-x="241" 
d="M110.2 0v700h20.2998v-700h-20.2998z" />
    <glyph glyph-name="uni0407" unicode="&#x407;" horiz-adv-x="241" 
d="M30.4004 825.4v46.2998h36.4004v-46.2998h-36.4004zM173.101 825.4v46.2998h36.4004v-46.2998h-36.4004zM110.2 0v700h20.2998v-700h-20.2998z" />
    <glyph glyph-name="uni0408" unicode="&#x408;" horiz-adv-x="585" 
d="M259.3 -10.2002c-125.6 0 -226 100.302 -226 233.302v5.09961h20.2002v-4.7002c0 -120.7 90 -213.601 205.8 -213.601c114.6 0 204.6 93.7998 204.6 213.6v476.5h20.2002v-476.9c0 -133 -100.1 -233.3 -224.8 -233.3z" />
    <glyph glyph-name="uni040B" unicode="&#x40b;" horiz-adv-x="749" 
d="M464 451.1c140.7 0 228.401 -80.2998 228.401 -228v-223.1h-20.4004v222.1c0 134.8 -76.5 209.2 -209.2 209.2c-55.1504 0 -118.521 -13.5195 -188.801 -39.5098v-391.79h-20.4004v680.3h-231.7v19.7002h483.7v-19.7002h-231.6v-268.71
c69.7402 26.3398 134.03 39.5098 190 39.5098z" />
    <glyph glyph-name="uni042E" unicode="&#x42e;" horiz-adv-x="1026" 
d="M611 711.1c205.8 0 358.499 -153.899 358.499 -361.1c0 -207.3 -152.6 -360.2 -358.5 -360.2c-200.6 0 -350.05 146.49 -354.689 350.4h-125.81v-340.2h-20.2998v700h20.2998v-340.1h125.81c4.69043 203.89 154.021 351.199 354.69 351.199zM610.699 10.001
c195.1 0 338.299 144.5 338.299 340s-144.1 341 -338.3 341c-192.1 0 -334.699 -143.8 -334.699 -341s141.7 -340 334.7 -340z" />
    <glyph glyph-name="uni042F" unicode="&#x42f;" horiz-adv-x="630" 
d="M269.7 700l250.39 0.000976562v-700h-20.4004v310.3h-221.02l-195.68 -310.3h-23.7998l196.47 311.18c-114.8 5.83008 -195.46 86.1699 -195.46 193.52c0 113.1 88.2002 195.3 209.5 195.3zM270.09 330.001h229.599v350.2h-229.6
c-109.8 0 -189.399 -73.5996 -189.399 -175.5c0 -101 78.7002 -174.7 189.4 -174.7z" />
    <glyph glyph-name="uni0402" unicode="&#x402;" horiz-adv-x="732" 
d="M448.6 469.3c143.9 0 240.001 -96.1006 240.001 -240.101c0 -143.1 -96.2002 -239.1 -240.601 -239.1h-4.2998v20.0996h4.2998c132.6 -0.0996094 220.199 87.3008 220.199 219.001c0 131.8 -87.7002 220 -220.3 220c-62.5498 0 -132.47 -25.6797 -174.5 -65.4199v-383.78
h-20.2998v680.3h-231.2v19.7002h483.1v-19.7002h-231.6v-272.01c46.2402 37.3896 113.601 61.0098 175.2 61.0098z" />
    <glyph glyph-name="uni0414.loclBGR" horiz-adv-x="764" 
d="M666.42 19.7002h61.4775v-172.8h-19.5996v153.1h-651.3v-153.1h-19.5996v172.8h62.4004l268.4 680.3h15.9004zM376.258 666.94l-254.87 -647.24h523.64z" />
    <glyph glyph-name="uni041B.loclBGR" horiz-adv-x="647" 
d="M618.9 0h-22l-274.75 666.12l-268.85 -666.12h-21.7002l282 700h16.0996z" />
    <glyph glyph-name="uni0416.ss01" horiz-adv-x="845" 
d="M27.5996 700h26.7998l311.6 -331.2v-6.5l-336.2 -362.3h-27.2998l339.36 366.17zM412.499 0v700h20.2998v-700h-20.2998zM503.359 366.19l339.44 -366.19h-27.2998l-336.2 362.3v6.5l311.6 331.2h26.7998z" />
    <glyph glyph-name="uni041A.ss01" horiz-adv-x="584" 
d="M110.2 0v700h20.2998v-700h-20.2998zM202.75 364.38l381.351 -364.38h-28.2002l-378.9 361.4v6.5l352.5 332.1h27.7002z" />
    <glyph glyph-name="uni0424.ss01" horiz-adv-x="845" 
d="M788.2 349.2c0 -202.81 -149.84 -357.79 -354.7 -359.29v-106.11h-20.0996v106.11c-204.74 1.55957 -356.5 157.399 -356.5 359.09c0 202.68 151.76 359.52 356.5 361.09v96.8096h20.0996v-96.8096c204.86 -1.50977 354.7 -157.29 354.7 -360.89zM77.4004 349.101
c0 -190.78 143.06 -337.729 336 -339.289v680.27c-192.05 -1.57031 -336 -149.41 -336 -340.98zM433.5 9.81152c192.08 1.50977 334.2 147.581 334.2 339.291c0 192.5 -142.12 339.47 -334.2 340.989v-680.28z" />
    <glyph glyph-name="uni0414.ss02" horiz-adv-x="764" 
d="M666.42 19.7002h61.4775v-172.8h-19.5996v153.1h-651.3v-153.1h-19.5996v172.8h62.4004l268.4 680.3h15.9004zM376.258 666.94l-254.87 -647.24h523.64z" />
    <glyph glyph-name="uni041B.ss02" horiz-adv-x="647" 
d="M618.9 0h-22l-274.75 666.12l-268.85 -666.12h-21.7002l282 700h16.0996z" />
    <glyph glyph-name="uni0414.ss03" horiz-adv-x="764" 
d="M666.42 19.7002h61.4775v-172.8h-19.5996v153.1h-651.3v-153.1h-19.5996v172.8h62.4004l268.4 680.3h15.9004zM376.258 666.94l-254.87 -647.24h523.64z" />
    <glyph glyph-name="uni0416.ss03" horiz-adv-x="845" 
d="M27.5996 700h26.7998l311.6 -331.2v-6.5l-336.2 -362.3h-27.2998l339.36 366.17zM412.499 0v700h20.2998v-700h-20.2998zM503.359 366.19l339.44 -366.19h-27.2998l-336.2 362.3v6.5l311.6 331.2h26.7998z" />
    <glyph glyph-name="uni041A.ss03" horiz-adv-x="584" 
d="M110.2 0v700h20.2998v-700h-20.2998zM202.75 364.38l381.351 -364.38h-28.2002l-378.9 361.4v6.5l352.5 332.1h27.7002z" />
    <glyph glyph-name="uni041B.ss03" horiz-adv-x="647" 
d="M618.9 0h-22l-274.75 666.12l-268.85 -666.12h-21.7002l282 700h16.0996z" />
    <glyph glyph-name="uni0416.ss04" horiz-adv-x="845" 
d="M27.5996 700h26.7998l311.6 -331.2v-6.5l-336.2 -362.3h-27.2998l339.36 366.17zM412.499 0v700h20.2998v-700h-20.2998zM503.359 366.19l339.44 -366.19h-27.2998l-336.2 362.3v6.5l311.6 331.2h26.7998z" />
    <glyph glyph-name="uni041A.ss04" horiz-adv-x="584" 
d="M110.2 0v700h20.2998v-700h-20.2998zM202.75 364.38l381.351 -364.38h-28.2002l-378.9 361.4v6.5l352.5 332.1h27.7002z" />
    <glyph glyph-name="uni0424.ss04" horiz-adv-x="784" 
d="M402.8 678.3c189 -0.900391 326.9 -143.301 326.9 -329.101c0 -184.8 -137.9 -326.1 -326.9 -327.1v-85.5h-20.2998v85.5c-188.9 1 -328.7 143.3 -328.7 327.1c0 185.8 139.8 328.2 328.7 329.101v80.2998h20.2998v-80.2998zM74.2998 349.2
c0 -174.3 132.05 -306.95 308.3 -307.5v617.2c-176.25 -0.75 -308.3 -134.5 -308.3 -309.7zM402.7 41.7002c176.34 0.549805 306.399 132.3 306.399 307.5c0 176.2 -130.06 308.95 -306.399 309.7v-617.2z" />
    <glyph glyph-name="uni0424.ss05" horiz-adv-x="784" 
d="M402.8 678.3c189 -0.900391 326.9 -143.301 326.9 -329.101c0 -184.8 -137.9 -326.1 -326.9 -327.1v-85.5h-20.2998v85.5c-188.9 1 -328.7 143.3 -328.7 327.1c0 185.8 139.8 328.2 328.7 329.101v80.2998h20.2998v-80.2998zM74.2998 349.2
c0 -174.3 132.05 -306.95 308.3 -307.5v617.2c-176.25 -0.75 -308.3 -134.5 -308.3 -309.7zM402.7 41.7002c176.34 0.549805 306.399 132.3 306.399 307.5c0 176.2 -130.06 308.95 -306.399 309.7v-617.2z" />
    <glyph glyph-name="uni0430" unicode="&#x430;" horiz-adv-x="703" 
d="M583.4 540h18.0889v-540h-18.4004l-1.58008 163.37c-38.3896 -103.57 -133.159 -173.57 -255.009 -173.57c-156.4 0 -274.601 121 -274.601 280.2c0 159.3 118.2 280.2 274.601 280.2c121.87 0 216.65 -69.96 255.03 -173.57zM327.189 9.5c147 0 254.1 109.9 254.1 260.5
s-107.1 260.5 -254.1 260.5c-145.2 0 -255.101 -112.7 -255.101 -260.5c0 -148.7 109.9 -260.5 255.101 -260.5z" />
    <glyph glyph-name="uni0431" unicode="&#x431;" horiz-adv-x="654" 
d="M338.5 510.2c149.6 0 263.002 -112.4 263.002 -259.801c0 -147.9 -113.9 -260.601 -264.301 -260.601c-152.1 0 -265.5 112.4 -265.5 263.9c0 302 94.2998 432.9 354.6 493.7l136.8 31.7998v-20.7998l-133.9 -30.7998
c-218.32 -49.7598 -313.971 -152.109 -333.28 -371.43c40.6904 93.29 130.58 154.03 242.58 154.03zM337.202 9.5c139.1 0 244.1 104.8 244.1 240.899s-105 241 -244.1 241c-141 0 -245.1 -104.8 -245.1 -241c0 -136.1 105 -240.899 245.1 -240.899z" />
    <glyph glyph-name="uni0432" unicode="&#x432;" horiz-adv-x="568" 
d="M394.54 285.11c66.8096 -17.2002 110.661 -69.6992 110.661 -138.609c0 -85.0996 -67.5 -146.5 -158.9 -146.5h-245.2v540h244c85.5 0 142.1 -53.4004 142.1 -130.801c0 -61.0898 -36.4199 -107.27 -92.6602 -124.09zM467.302 407.602c0 68 -48.9004 113 -123.5 113
h-222.9v-225.9h222.9c73.7998 0 123.5 45.9004 123.5 112.9zM345.202 19.502c81.2998 0 139.7 53.5 139.7 128s-58.4004 128 -140.7 128h-223.3v-256h224.3z" />
    <glyph glyph-name="uni0433" unicode="&#x433;" horiz-adv-x="434" 
d="M416.7 540v-19h-295.8v-521h-19.7998v540h315.6z" />
    <glyph glyph-name="uni0453" unicode="&#x453;" horiz-adv-x="434" 
d="M342.9 759.5l-83.001 -152h-19.7998l80.4004 152h22.4004zM416.699 540v-19h-295.8v-521h-19.7998v540h315.6z" />
    <glyph glyph-name="uni0491" unicode="&#x491;" horiz-adv-x="434" 
d="M397.1 667h19.5996v-146h-295.8v-521h-19.7998v540h296v127z" />
    <glyph glyph-name="uni0434" unicode="&#x434;" horiz-adv-x="622" 
d="M509.5 19.5h79.1992v-173.2h-19.2002v153.7h-540.1v-153.7h-19.2002v173.2h60.8203c51.5 47.7402 61.6504 110.62 91.1807 521.4h347.3v-521.4zM180.759 522c-26.1904 -374.87 -38.8096 -452.53 -84.04 -502.5h392.98v502.5h-308.94z" />
    <glyph glyph-name="uni0435" unicode="&#x435;" horiz-adv-x="635" 
d="M586.5 275.1c0 -2.90039 -0.109375 -6.69922 -0.208984 -9.59961h-513.65c2.55957 -146.5 109.18 -255.9 249.859 -255.9c99.9004 0 179.5 52.7998 225 142h21.4004c-52.2002 -105.7 -137.4 -161.8 -246.4 -161.8c-153.4 0 -269.7 121 -269.7 281.1
c0 158.3 116.3 279.3 269.7 279.3c153.3 0 264 -119.8 264 -275.1zM322.49 530.7c-137.92 0 -243.1 -104.5 -249.58 -245.9h493.76c-5.5498 145.73 -110.27 245.9 -244.18 245.9z" />
    <glyph glyph-name="uni0451" unicode="&#x451;" horiz-adv-x="635" 
d="M258 712.3v-46.2998h-37.4004v46.2998h37.4004zM418.5 712.3v-46.2998h-37.4004v46.2998h37.4004zM586.5 275.1c0 -2.90039 -0.109375 -6.69922 -0.208984 -9.59961h-513.65c2.55957 -146.5 109.18 -255.9 249.859 -255.9c99.9004 0 179.5 52.7998 225 142h21.4004
c-52.2002 -105.7 -137.4 -161.8 -246.4 -161.8c-153.4 0 -269.7 121 -269.7 281.1c0 158.3 116.3 279.3 269.7 279.3c153.3 0 264 -119.8 264 -275.1zM322.49 530.7c-137.92 0 -243.1 -104.5 -249.58 -245.9h493.76c-5.5498 145.73 -110.27 245.9 -244.18 245.9z" />
    <glyph glyph-name="uni0436" unicode="&#x436;" horiz-adv-x="740" 
d="M705 0l-229.078 272.3h-96.1201v-272.3h-19.7002v272.3h-96.1504l-229.95 -272.3h-25.7002l238.86 282.71l-218.86 257.29h25.0996l210.62 -248.7h96.0801v248.7h19.7002v-248.7h96.0498l209.75 248.7h25.0996l-217.98 -257.29l237.98 -282.71h-25.7002z" />
    <glyph glyph-name="uni0437" unicode="&#x437;" horiz-adv-x="476" 
d="M313.81 285c58.6699 -19.1602 99.5889 -71.96 99.5889 -137.3c0 -91.7002 -80.7002 -157.9 -192.8 -157.9c-93.5 0 -167.3 50.5996 -186.2 127.199h19.2002c19 -64.2998 83 -107.7 167 -107.7c100.6 0 173 58.4004 173 139.101c0 67.9004 -53.7002 127.2 -130.7 127.2
h-103.1v18.2998h102.2c72.9004 0 121.5 48.7998 121.5 110.8c0 72.2002 -67.2998 126.601 -158.399 126.601c-77.7998 0 -138.6 -40.5 -155.699 -102.5h-19.2002c17 73 87 121.4 175.1 121.4c101.2 0 177.7 -62.2002 177.7 -144.8
c0 -58.1201 -35.9102 -103.12 -89.1904 -120.4z" />
    <glyph glyph-name="uni0438" unicode="&#x438;" horiz-adv-x="617" 
d="M503.5 540h12.3008v-540h-19.5v501.72l-382.7 -501.72h-12.5v540h19.5996v-500.28z" />
    <glyph glyph-name="uni0439" unicode="&#x439;" horiz-adv-x="617" 
d="M432.9 699.6v-17.7002h-247.8v17.7002h247.8zM503.5 539.999h12.3008v-540h-19.5v501.72l-382.7 -501.72h-12.5v540h19.5996v-500.28z" />
    <glyph glyph-name="uni045D" unicode="&#x45d;" horiz-adv-x="617" 
d="M326 607.5h-19.8008l-83 152h22.4004zM503.499 540h12.3008v-540h-19.5v501.72l-382.7 -501.72h-12.5v540h19.5996v-500.28z" />
    <glyph glyph-name="uni043A" unicode="&#x43a;" horiz-adv-x="498" 
d="M468.6 0l-241.719 272.3h-105.78v-272.3h-20v540h20v-248.4h106.01l222.69 248.4h25.5996l-231.04 -258.14l250.14 -281.86h-25.9004z" />
    <glyph glyph-name="uni045C" unicode="&#x45c;" horiz-adv-x="498" 
d="M361.3 759.5l-83.001 -152h-19.7998l80.4004 152h22.4004zM468.599 0l-241.719 272.3h-105.78v-272.3h-20v540h20v-248.4h106.01l222.69 248.4h25.5996l-231.04 -258.14l250.14 -281.86h-25.9004z" />
    <glyph glyph-name="uni043B" unicode="&#x43b;" horiz-adv-x="600" 
d="M182.4 540h316.602v-540h-19.9004v521.2h-278.9l-39.7998 -357.6c-13.2002 -120 -53.1006 -163.9 -147.801 -163.9h-4.2998v19.4004h4.7998c83.2002 0 116 38.2998 127.6 144.899z" />
    <glyph glyph-name="uni043C" unicode="&#x43c;" horiz-adv-x="785" 
d="M738.3 0h-19.7012l-110.43 500.35l-210.97 -475.95h-9.2002l-210.21 475.95l-111.09 -500.35h-19.7002l118.2 540h14.9004l212.77 -480.45l212.33 480.45h14.9004z" />
    <glyph glyph-name="uni043D" unicode="&#x43d;" horiz-adv-x="625" 
d="M504.3 540h19.7998v-540h-19.7998v270.2h-383.4v-270.2h-19.7998v540h19.7998v-250.4h383.4v250.4z" />
    <glyph glyph-name="uni043E" unicode="&#x43e;" horiz-adv-x="663" 
d="M331.7 -10.2002c-159.5 0 -279.8 120 -279.8 280.2c0 161.2 120.3 280.2 279.8 280.2c160.4 0 279.801 -120 279.801 -280.2s-119.4 -280.2 -279.801 -280.2zM331.7 9.5c148.9 0 259.602 111.6 259.602 260.5s-110.7 260.5 -259.601 260.5
s-259.601 -110.7 -259.601 -260.5c0 -148.9 111.6 -260.5 259.6 -260.5z" />
    <glyph glyph-name="uni043F" unicode="&#x43f;" horiz-adv-x="630" 
d="M101.1 540h427.801v-540h-19.9004v520.8h-387.9v-520.8h-20v540z" />
    <glyph glyph-name="uni0440" unicode="&#x440;" horiz-adv-x="703" 
d="M376.5 550.2c160.1 0 273.48 -120.91 273.48 -280.21c0 -159.2 -113.4 -280.2 -273.5 -280.2c-119.09 0 -216 70.25 -255.39 174.12v-354.22h-20v730.3h17.0996l2.83008 -164.07c39.3496 104 136.31 174.28 255.479 174.28zM375.78 9.49023
c147 0 254.1 109.9 254.1 260.5s-107.1 260.5 -254.1 260.5c-145.2 0 -255.101 -111.8 -255.101 -260.5c0 -147.8 109.9 -260.5 255.101 -260.5z" />
    <glyph glyph-name="uni0441" unicode="&#x441;" horiz-adv-x="618" 
d="M328.4 -10.2002c-156.4 0 -276.502 121 -276.502 280.2c0 161 119.2 280.2 276.5 280.2c117.4 0 209.5 -65.4004 248.7 -164.601h-20.7998c-39.0996 90.4004 -124.8 144.9 -227.899 144.9c-146.6 0 -256.3 -111.9 -256.3 -260.5c0 -147.7 110.7 -260.5 256.3 -260.5
c102.2 0 187.7 53.5996 229.601 146.1h21c-41.9004 -102.1 -136 -165.8 -250.6 -165.8z" />
    <glyph glyph-name="uni0442" unicode="&#x442;" horiz-adv-x="508" 
d="M491.3 540v-19.0996h-227.7v-520.9h-19.7998v520.9h-226.8v19.0996h474.3z" />
    <glyph glyph-name="uni0443" unicode="&#x443;" horiz-adv-x="570" 
d="M521.9 540l21.502 0.000976562l-279.3 -593.2c-50.9004 -108.4 -96.6006 -137.101 -179.001 -137.101h-40.2998v19.0996h39.5c74.7002 0 114 22.9004 161.5 124.5l35.6299 75.3398l-254.83 511.36h22.5996l242.93 -488.7z" />
    <glyph glyph-name="uni045E" unicode="&#x45e;" horiz-adv-x="570" 
d="M166.7 681.9v17.7002h247.8v-17.7002h-247.8zM521.9 540.001l21.502 0.000976562l-279.3 -593.2c-50.9004 -108.4 -96.6006 -137.101 -179.001 -137.101h-40.2998v19.0996h39.5c74.7002 0 114 22.9004 161.5 124.5l35.6299 75.3398l-254.83 511.36h22.5996l242.93 -488.7
z" />
    <glyph glyph-name="uni0444" unicode="&#x444;" horiz-adv-x="712" 
d="M660.5 269.8c0 -169 -125.16 -279.35 -294.3 -280v-159.8h-20v159.8c-169.14 0.650391 -294.3 111 -294.3 280c0 168.2 125.26 279.74 294.3 280.391v150.11h20v-150.11c169.04 -0.650391 294.3 -112.091 294.3 -280.391zM71.7998 269.899
c0 -153.73 112.11 -259.549 274.4 -260.199v520.59c-162.19 -0.650391 -274.4 -107.561 -274.4 -260.391zM366.2 9.70117c162.19 0.650391 274.399 106.569 274.399 260.199c0 152.83 -112.31 259.74 -274.399 260.391v-520.59z" />
    <glyph glyph-name="uni0445" unicode="&#x445;" horiz-adv-x="480" 
d="M466.9 0h-23.7998l-203.08 269.12l-203.12 -269.12h-23.5996l214.45 283.8l-193.05 256.2h23.7998l181.53 -241.26l181.97 241.26h23.5996l-193.36 -256.21z" />
    <glyph glyph-name="uni0447" unicode="&#x447;" horiz-adv-x="527" 
d="M406.1 540l19.7002 -0.000976562v-540h-19.7002v242.24c-53.7598 -22.4502 -109.27 -34.3398 -159.199 -34.3398c-114.4 0 -200.601 62.5996 -200.601 192.3v139.8h19.7998v-139.1c0 -109.2 66.7998 -173.3 181.5 -173.3c49.6699 0 105.12 12.7305 158.5 35.8604v276.54z
" />
    <glyph glyph-name="uni0446" unicode="&#x446;" horiz-adv-x="621" 
d="M508.2 19.2998h79.4004v-173h-19.2002v153.7h-467.3v540h19.7998v-520.7h367.5v520.7h19.7998v-520.7z" />
    <glyph glyph-name="uni0448" unicode="&#x448;" horiz-adv-x="842" 
d="M721.2 540h19.9004v-540h-640v540h19.7998v-520.7h290.4v520.7h19.5996v-520.7h290.3v520.7z" />
    <glyph glyph-name="uni0449" unicode="&#x449;" horiz-adv-x="854" 
d="M741.1 19.2998h79.4004v-173h-19.2002v153.7h-700.2v540h19.7998v-520.7h290.4v520.7h19.5996v-520.7h290.3v520.7h19.9004v-520.7z" />
    <glyph glyph-name="uni045F" unicode="&#x45f;" horiz-adv-x="643" 
d="M542.3 540v-540h-210.3v-153.4h-19.5996v153.4h-211.3v540h19.7998v-520.7h401.6v520.7h19.7998z" />
    <glyph glyph-name="uni044C" unicode="&#x44c;" horiz-adv-x="516" 
d="M303.9 339.7c99.7002 0 176.101 -69.7002 176.101 -169.9c0 -101 -76.4004 -169.8 -176.101 -169.8h-202.8v540h19.7998v-200.3h183zM302.7 19c91.4004 0 157.101 62.7002 157.101 150.8c0 87.2002 -65.7002 150.9 -157.101 150.9h-181.8v-301.7h181.8z" />
    <glyph glyph-name="uni044A" unicode="&#x44a;" horiz-adv-x="614" 
d="M401.3 339.7c99.7002 0 176.101 -69.7002 176.101 -169.9c0 -101 -76.4004 -169.8 -176.101 -169.8h-202.8v521.2h-181.4v18.7998h201.2v-200.3h183zM400.1 19c91.4004 0 157.101 62.7002 157.101 150.8c0 87.2002 -65.7002 150.9 -157.101 150.9h-181.8v-301.7h181.8z
" />
    <glyph glyph-name="uni044B" unicode="&#x44b;" horiz-adv-x="714" 
d="M303.9 339.7c99.7002 0 176.101 -69.7002 176.101 -169.9c0 -101 -76.4004 -169.8 -176.101 -169.8h-202.8v540h19.7998v-200.3h183zM593.101 540h20v-540h-20v540zM302.7 19c91.4004 0 157.101 62.7002 157.101 150.8c0 87.2002 -65.7002 150.9 -157.101 150.9h-181.8
v-301.7h181.8z" />
    <glyph glyph-name="uni0459" unicode="&#x459;" horiz-adv-x="867" 
d="M655.3 339.3c99.5996 0 176.001 -69.5996 176.001 -169.699c0 -100.9 -76.4004 -169.601 -176 -169.601h-202.9v521.2h-252.21l-39.5898 -357.5c-13.2002 -120 -53.1006 -163.9 -147.801 -163.9h-4.5v19.2002h5c82.2998 0 116 37.4004 127.6 144.9l41.7002 376.1h289.3
v-200.7h183.4zM654.4 18.5c91.2998 0 157.1 62.7998 157.1 151.1c0 87.4004 -65.7998 151.2 -157.1 151.2h-182.5v-302.3h182.5z" />
    <glyph glyph-name="uni045A" unicode="&#x45a;" horiz-adv-x="842" 
d="M641.7 309.7c100.6 0 163.7 -62.2002 163.7 -154.8c0 -92.7002 -63.0996 -154.9 -163.699 -154.9h-194.4v287.4h-326.4v-287.4h-19.7998v540h19.7998v-233.2h326.4v233.2h19.7998v-230.3h174.6zM640.401 19.2002c88.5 0 144.8 52.2998 144.8 135.7
c0 83.2998 -56.2998 135.6 -144.8 135.6h-173.3v-271.3h173.3z" />
    <glyph glyph-name="uni0455" unicode="&#x455;" horiz-adv-x="504" 
d="M252.5 -10.2002c-120 0 -194.098 57.4004 -203.498 153h19.7998c9.40039 -84.5 76 -133.7 184 -133.7c109.6 0 181.3 52.4004 181.3 132.101c0 100.4 -92.7998 117.801 -185.399 133.4c-93.7998 16 -188.8 32.2998 -188.8 134.7c0 84.0996 76.5996 140.899 188.8 140.899
c113.1 0 184.899 -56.0996 190.6 -147.399h-19.5c-5.7002 80.2998 -68.6006 128.399 -171.301 128.399c-101.5 0 -168.9 -48.7998 -168.9 -121.6c0 -86.4004 81.5996 -100 173.199 -115.5c94.7998 -15.9004 201.2 -35.6006 201.2 -152.501
c0 -91.2002 -80.5996 -151.8 -201.5 -151.8z" />
    <glyph glyph-name="uni0454" unicode="&#x454;" horiz-adv-x="628" 
d="M564.9 183.5l20.7998 -0.000976562c-33.7002 -114.1 -134.3 -193.699 -258.1 -193.699c-155.5 0 -275.7 123 -275.7 282.2c0 158.1 119.2 278.199 275.7 278.199c122.8 0 222.399 -75.5996 256.1 -187.6h-20.5996c-33.4004 101.7 -124.9 168.601 -235.601 168.601
c-142.91 0 -250.891 -106.77 -255.82 -249.1h293.12v-18.4004h-293.19c4.03027 -144.31 114.16 -254.8 255.891 -254.8c111.7 0 205 70.5996 237.4 174.6z" />
    <glyph glyph-name="uni044D" unicode="&#x44d;" horiz-adv-x="628" 
d="M299.9 550.2c156.5 0 275.7 -120.099 275.7 -278.198c0 -159.2 -120.2 -282.2 -275.7 -282.2c-123.8 0 -224.399 79.5996 -258.1 193.699h20.7998c32.4004 -104 125.7 -174.6 237.4 -174.6c141.73 0 251.86 110.49 255.891 254.8h-293.19v18.4004h293.12
c-4.92969 142.33 -112.91 249.1 -255.82 249.1c-110.7 0 -202.2 -66.9004 -235.601 -168.601h-20.5996c33.7002 112 133.3 187.6 256.1 187.6z" />
    <glyph glyph-name="uni0456" unicode="&#x456;" horiz-adv-x="222" 
d="M92.7002 666v46.2998h36.7998v-46.2998h-36.7998zM101.101 -0v540h20v-540h-20z" />
    <glyph glyph-name="uni0457" unicode="&#x457;" horiz-adv-x="222" 
d="M43.7002 665.1v46.2998h34.8496v-46.2998h-34.8496zM144 664.999v46.2998h34.8496v-46.2998h-34.8496zM101.1 -0.000976562v540h20v-540h-20z" />
    <glyph glyph-name="uni0458" unicode="&#x458;" horiz-adv-x="234" 
d="M104.8 666v46.2998h36.7998v-46.2998h-36.7998zM-41.1006 -190.3v19.2002h16c86.7998 0 138.2 51.5 138.2 137.4v573.7h20v-574.4c0 -96.4004 -60.4004 -155.9 -156.9 -155.9h-17.2998z" />
    <glyph glyph-name="uni045B" unicode="&#x45b;" horiz-adv-x="640" 
d="M337.3 550.2c130.7 0 212.5 -89.8008 212.5 -231.601v-318.6h-20v316.4c0 133.1 -74.2002 214.6 -194.9 214.6c-114.3 0 -213.8 -98.5 -213.8 -212v-319h-20v612.7h-102v18.5h102v99.0996h20v-99.0996h210.9v-18.5h-210.9v-209.5c34.4004 85.2402 120.4 147 216.2 147z
" />
    <glyph glyph-name="uni044E" unicode="&#x44e;" horiz-adv-x="843" 
d="M518.4 550.2c155.4 0 272.5 -120.899 272.5 -280.3c0 -160.2 -117 -280.101 -272.5 -280.101c-153.26 0 -269.55 115.13 -274.16 270.5h-123.14v-262.2h-20v541.9h20v-260.3h123.15c4.7002 155.36 121.05 270.5 274.149 270.5zM518.4 9.50098
c144.6 0 252.3 111.7 252.3 260.4c0 148.8 -108.7 260.6 -252.3 260.6c-145.5 0 -254.1 -111.8 -254.1 -260.6c0 -148.7 108.6 -260.4 254.1 -260.4z" />
    <glyph glyph-name="uni044F" unicode="&#x44f;" horiz-adv-x="544" 
d="M224.3 540l218.599 -0.000976562v-539.1h-19.7998v230.1h-195.71l-156.39 -231h-22.7998l156.24 232.2c-85.5098 6.36035 -146.04 68.6006 -146.04 153.301c0 89.7998 67.7002 154.5 165.9 154.5zM219.698 250.699l203.399 0.000976562v269.6h-198
c-86.2998 0 -146.5 -55.4004 -146.5 -134.801c0 -78.5 58.4004 -134.8 141.101 -134.8z" />
    <glyph glyph-name="uni0452" unicode="&#x452;" horiz-adv-x="640" 
d="M337.3 550.1c130.7 0 212.5 -89.7998 212.5 -231.6v-320.8c0 -114.3 -73.4004 -187.7 -187.7 -187.7h-13.0996v19.2998h11.7998c103.4 0 169 65.5996 169 169v318c0 133.2 -74.2002 214.7 -194.9 214.7c-114.3 0 -213.8 -98.5996 -213.8 -212.1v-318.9h-20v612.7h-102.2
v18.5h102.2v99.0996h20v-99.0996h210.7v-18.5h-210.7v-208.93c34.4004 84.8096 120.4 146.329 216.2 146.329z" />
    <glyph glyph-name="uni0432.loclBGR" horiz-adv-x="619" 
d="M421 384.98c85.6299 -22.3896 143.7 -96.0205 143.7 -186.57c0 -125.3 -95.9004 -208.5 -236.9 -208.5c-155.4 0 -241.4 105 -241.4 294v174.2c0 187.6 81.7002 287.8 235 287.8c131.9 0 222.7 -77.2002 222.7 -191.5c0 -78.9297 -50.1396 -146.479 -123.1 -169.43z
M321.4 726.209c-141.4 0 -215.2 -90.7998 -215.2 -268.1v-64.5996h255.3c92.0996 0 163.3 69.5 163.3 160.3c0 103.1 -81.2998 172.399 -203.399 172.399zM327.801 9.60938c131.2 0 216.899 75.499 216.899 189.499c0 101.4 -76.2998 174.9 -182.7 174.9h-255.8v-90.0996
c0 -177.7 77.9004 -274.3 221.601 -274.3z" />
    <glyph glyph-name="uni0433.loclBGR" horiz-adv-x="511" 
d="M254.4 -4.40039c-122.9 0 -204.499 57.7012 -204.499 145.801c0 112.3 106.1 132.399 201.899 149.399c92.7002 16.7002 176.4 32.2998 176.4 118.899c0 70.9004 -67.5 118.801 -170 118.801c-109.2 0 -173.8 -50.9004 -173.8 -139.601h-19.0996
c0 101.7 76.4004 158.4 192.801 158.4c113 0 189.6 -55.7002 189.6 -137.601c0 -102.2 -96.7002 -120.3 -191.3 -137.3c-93.7002 -16.5996 -186.601 -34 -186.601 -131c0 -76.5996 72.5996 -126.199 184.6 -126.199c117.8 0 187.399 54.7998 187.399 150h19.5996
c0 -109.7 -80.7002 -169.601 -207 -169.601z" />
    <glyph glyph-name="uni0434.loclBGR" horiz-adv-x="677" 
d="M558.7 540l16.9082 -0.00195312v-459.6c0 -174.9 -95.5996 -280.9 -253.399 -280.9c-117.8 0 -201.1 59.2002 -235.5 160.8h20c33.7998 -91.0996 111.6 -141.6 215.5 -141.6c145.4 0 233.601 96.9004 233.601 260.5v102.07
c-37.54 -97.3896 -128.18 -161.569 -240.6 -161.569c-149.1 0 -262.399 114.2 -262.399 265.2c0 150.1 114.2 265.3 262.4 265.3c112.67 0 204.33 -66.46 241.47 -165.06zM316.208 39.2979c138.3 0 239.5 103.899 239.5 245.6c0 140.9 -102.1 245.7 -239.5 245.7
c-138.3 0 -243.2 -106.7 -243.2 -245.7c0 -139.8 104.9 -245.6 243.2 -245.6z" />
    <glyph glyph-name="uni0436.loclBGR" horiz-adv-x="722" 
d="M686.6 0l-219.269 272.3h-95.9297v-272.3h-19.7002v272.3h-95.9502l-220.15 -272.3h-26.4004l229.57 282.49l-209.57 257.51h25.7998l200.84 -248.7h95.8604v443.7h19.7002v-443.7h95.8398l199.96 248.7h25.7998l-208.7 -257.51l228.7 -282.49h-26.4004z" />
    <glyph glyph-name="uni0437.loclBGR" horiz-adv-x="557" 
d="M381.45 192.83l-0.0996094 -0.000976562c72.7598 -22 126.04 -96.5703 126.04 -180.83c0 -126.2 -94.0996 -212.601 -231.8 -212.601c-125.4 0 -223.5 74.0996 -241.8 183.5h20c18.2998 -97.7998 107.399 -163.8 221.8 -163.8c123.3 0 211.7 75.9004 211.7 193.601
c0 89.2002 -66.7998 169.2 -156.5 169.2h-126.7v19.5996h125c79.0996 0 135.899 78.5 135.899 158c0 103.1 -81.2002 170.899 -195.3 170.899c-103.9 0 -183.301 -61.2998 -199.4 -154.399h-19.7002c16 104.7 103.6 174.101 219.1 174.101
c127.4 0 215.4 -77.7002 215.4 -190c0 -77.0098 -44.7695 -142.55 -103.64 -167.27z" />
    <glyph glyph-name="uni0438.loclBGR" horiz-adv-x="640" 
d="M519.1 540h20v-540h-17.5996l-2.30957 137.04c-34.3301 -85.3701 -120.4 -147.24 -216.29 -147.24c-130.7 0 -212.5 90.7002 -212.5 231.601v318.6h20v-316.4c0 -133.1 74.0996 -214.6 194.899 -214.6c114.3 0 213.8 98.5 213.8 212v319z" />
    <glyph glyph-name="uni0439.loclBGR" horiz-adv-x="640" 
d="M443.5 699.6v-17.7002h-247.8v17.7002h247.8zM519.1 539.999h20v-540h-17.5996l-2.30957 137.04c-34.3301 -85.3701 -120.4 -147.24 -216.29 -147.24c-130.7 0 -212.5 90.7002 -212.5 231.601v318.6h20v-316.4c0 -133.1 74.0996 -214.6 194.899 -214.6
c114.3 0 213.8 98.5 213.8 212v319z" />
    <glyph glyph-name="uni043A.loclBGR" horiz-adv-x="500" 
d="M469.6 0l-241.719 272.3h-105.78v-272.3h-20v730.3h20v-438.7h105.99l221.81 248.4h25.5996l-230.15 -258.12l250.15 -281.88h-25.9004z" />
    <glyph glyph-name="uni043B.loclBGR" horiz-adv-x="517" 
d="M485.6 0h-21.0996l-205.07 506.77l-208.83 -506.77h-20.9004l222.5 540h13.7002z" />
    <glyph glyph-name="uni043F.loclBGR" horiz-adv-x="640" 
d="M337.3 550.2c130.7 0 212.5 -90.7002 212.5 -231.601v-318.6h-20v316.4c0 133.1 -74.2002 214.6 -194.9 214.6c-114.3 0 -213.8 -98.5 -213.8 -212v-319h-20v540h17.2998l2.41016 -137.51c34.2197 85.6104 120.42 147.71 216.49 147.71z" />
    <glyph glyph-name="uni0442.loclBGR" horiz-adv-x="957" 
d="M686.5 550.2c107.8 0 179.3 -84.2002 179.3 -210.5v-339.7h-19.0996l-0.900391 336.8c0 116.6 -64.5996 194.199 -161.199 194.199c-113.7 0 -190.3 -84.9004 -191.2 -211.5v-319.5h-19.7998v336.8c0 118.4 -63.7002 194.2 -161.3 194.2
c-113.7 0 -190.3 -84.9004 -191.2 -211.5v-319.5h-20v540h17.4004l2.2002 -123.6c30.5703 82.8203 101.63 133.801 193.7 133.801c89.5195 0 153.979 -58.2197 173.119 -150.46c26.7998 92.5898 100.96 150.46 198.979 150.46z" />
    <glyph glyph-name="uni0446.loclBGR" horiz-adv-x="659" 
d="M539.1 136.1c0 -82.4004 32.8008 -119.2 107.9 -119.2v-170.6h-19.2998v153.85c-77.4902 5.54004 -105.351 49.54 -106.891 140.75c-33.8096 -86.4297 -120.63 -151.1 -217.91 -151.1c-130.7 0 -212.5 90.5996 -212.5 231.5v318.7h20v-316.3
c0 -133.2 74.2002 -214.7 194.9 -214.7c114.3 0 213.8 98.5996 213.8 212.1v318.9h20v-403.9z" />
    <glyph glyph-name="uni0448.loclBGR" horiz-adv-x="956" 
d="M835 540l19.999 -0.000976562v-540h-17.5996l-2.03027 123.25c-30.6396 -82.6201 -101.63 -133.45 -193.57 -133.45c-89.5195 0 -153.989 58.21 -173.119 150.45c-26.8096 -92.5898 -100.97 -150.45 -198.979 -150.45c-107.8 0 -179.3 84.2002 -179.3 210.5v339.7
h19.0996l0.900391 -336.8c0.900391 -116.6 64.6006 -194.199 161.2 -194.199c113.7 0 190.3 84.9004 191.2 211.5v319.5h19.7998v-336.8c0 -118.4 63.7002 -194.2 161.3 -194.2c113.6 0 190.199 84.9004 191.1 211.5v319.5z" />
    <glyph glyph-name="uni0449.loclBGR" horiz-adv-x="975" 
d="M855.1 136.1c0 -82.5996 32.999 -119.201 107.799 -119.201v-170.6h-19.2002v154.59c-69.5098 4.7998 -102.59 40.25 -107.16 123.94c-30.0498 -83.5303 -101.99 -135.03 -194.74 -135.03c-89.5195 0 -153.989 58.21 -173.119 150.45
c-26.8096 -92.5898 -100.97 -150.45 -198.979 -150.45c-107.8 0 -179.3 84.2002 -179.3 210.5v339.7h19.0996l0.900391 -336.8c0.900391 -116.6 64.6006 -194.199 161.2 -194.199c113.7 0 190.3 84.9004 191.2 211.5v319.5h19.7998v-336.8
c0 -118.4 63.7002 -194.2 161.3 -194.2c113.7 0 191.2 84.9004 191.2 211.5v319.5h20v-403.9z" />
    <glyph glyph-name="uni044E.loclBGR" horiz-adv-x="839" 
d="M513.9 550.2c155.5 0 272.601 -120.899 272.601 -280.3c0 -160.2 -117 -280.101 -272.6 -280.101c-153.36 0 -269.65 115.13 -274.261 270.5h-118.54v-262.2h-20v732.2h20v-450.6h118.55c4.7002 155.36 121.05 270.5 274.25 270.5zM513.901 9.50098
c144.7 0 252.4 111.7 252.4 260.4c0 148.8 -108.7 260.6 -252.4 260.6c-145.6 0 -254.199 -111.8 -254.199 -260.6c0 -148.7 108.6 -260.4 254.199 -260.4z" />
    <glyph glyph-name="uni0436.ss01" horiz-adv-x="732" 
d="M22.4004 540l25.2998 -0.000976562l251.5 -254.3v-8.09961l-271.5 -277.6h-25.2998l273.76 281.46zM356.2 -0.000976562v540h19.7002v-540h-19.7002zM455.521 281.919l274.18 -281.919h-25.2998l-271.5 277.6v8.09961l251.5 254.3h25.2998z" />
    <glyph glyph-name="uni043A.ss01" horiz-adv-x="484" 
d="M101.1 0v540h20v-540h-20zM200.659 282.39l284.541 -282.389h-26.4004l-280 277.8v8.09961l260.6 254.1h25.7998z" />
    <glyph glyph-name="uni0432.ss02" horiz-adv-x="619" 
d="M421 384.98c85.6299 -22.3896 143.7 -96.0205 143.7 -186.57c0 -125.3 -95.9004 -208.5 -236.9 -208.5c-155.4 0 -241.4 105 -241.4 294v174.2c0 187.6 81.7002 287.8 235 287.8c131.9 0 222.7 -77.2002 222.7 -191.5c0 -78.9297 -50.1396 -146.479 -123.1 -169.43z
M321.4 726.209c-141.4 0 -215.2 -90.7998 -215.2 -268.1v-64.5996h255.3c92.0996 0 163.3 69.5 163.3 160.3c0 103.1 -81.2998 172.399 -203.399 172.399zM327.801 9.60938c131.2 0 216.899 75.499 216.899 189.499c0 101.4 -76.2998 174.9 -182.7 174.9h-255.8v-90.0996
c0 -177.7 77.9004 -274.3 221.601 -274.3z" />
    <glyph glyph-name="uni0433.ss02" horiz-adv-x="511" 
d="M254.4 -4.40039c-122.9 0 -204.499 57.7012 -204.499 145.801c0 112.3 106.1 132.399 201.899 149.399c92.7002 16.7002 176.4 32.2998 176.4 118.899c0 70.9004 -67.5 118.801 -170 118.801c-109.2 0 -173.8 -50.9004 -173.8 -139.601h-19.0996
c0 101.7 76.4004 158.4 192.801 158.4c113 0 189.6 -55.7002 189.6 -137.601c0 -102.2 -96.7002 -120.3 -191.3 -137.3c-93.7002 -16.5996 -186.601 -34 -186.601 -131c0 -76.5996 72.5996 -126.199 184.6 -126.199c117.8 0 187.399 54.7998 187.399 150h19.5996
c0 -109.7 -80.7002 -169.601 -207 -169.601z" />
    <glyph glyph-name="uni0434.ss02" horiz-adv-x="677" 
d="M558.7 540l16.9082 -0.00195312v-459.6c0 -174.9 -95.5996 -280.9 -253.399 -280.9c-117.8 0 -201.1 59.2002 -235.5 160.8h20c33.7998 -91.0996 111.6 -141.6 215.5 -141.6c145.4 0 233.601 96.9004 233.601 260.5v102.07
c-37.54 -97.3896 -128.18 -161.569 -240.6 -161.569c-149.1 0 -262.399 114.2 -262.399 265.2c0 150.1 114.2 265.3 262.4 265.3c112.67 0 204.33 -66.46 241.47 -165.06zM316.208 39.2979c138.3 0 239.5 103.899 239.5 245.6c0 140.9 -102.1 245.7 -239.5 245.7
c-138.3 0 -243.2 -106.7 -243.2 -245.7c0 -139.8 104.9 -245.6 243.2 -245.6z" />
    <glyph glyph-name="uni0436.ss02" horiz-adv-x="722" 
d="M686.6 0l-219.269 272.3h-95.9297v-272.3h-19.7002v272.3h-95.9502l-220.15 -272.3h-26.4004l229.57 282.49l-209.57 257.51h25.7998l200.84 -248.7h95.8604v443.7h19.7002v-443.7h95.8398l199.96 248.7h25.7998l-208.7 -257.51l228.7 -282.49h-26.4004z" />
    <glyph glyph-name="uni0437.ss02" horiz-adv-x="557" 
d="M381.45 192.83l-0.0996094 -0.000976562c72.7598 -22 126.04 -96.5703 126.04 -180.83c0 -126.2 -94.0996 -212.601 -231.8 -212.601c-125.4 0 -223.5 74.0996 -241.8 183.5h20c18.2998 -97.7998 107.399 -163.8 221.8 -163.8c123.3 0 211.7 75.9004 211.7 193.601
c0 89.2002 -66.7998 169.2 -156.5 169.2h-126.7v19.5996h125c79.0996 0 135.899 78.5 135.899 158c0 103.1 -81.2002 170.899 -195.3 170.899c-103.9 0 -183.301 -61.2998 -199.4 -154.399h-19.7002c16 104.7 103.6 174.101 219.1 174.101
c127.4 0 215.4 -77.7002 215.4 -190c0 -77.0098 -44.7695 -142.55 -103.64 -167.27z" />
    <glyph glyph-name="uni0438.ss02" horiz-adv-x="640" 
d="M519.1 540h20v-540h-17.5996l-2.30957 137.04c-34.3301 -85.3701 -120.4 -147.24 -216.29 -147.24c-130.7 0 -212.5 90.7002 -212.5 231.601v318.6h20v-316.4c0 -133.1 74.0996 -214.6 194.899 -214.6c114.3 0 213.8 98.5 213.8 212v319z" />
    <glyph glyph-name="uni0439.ss02" horiz-adv-x="640" 
d="M443.5 699.6v-17.7002h-247.8v17.7002h247.8zM519.1 539.999h20v-540h-17.5996l-2.30957 137.04c-34.3301 -85.3701 -120.4 -147.24 -216.29 -147.24c-130.7 0 -212.5 90.7002 -212.5 231.601v318.6h20v-316.4c0 -133.1 74.0996 -214.6 194.899 -214.6
c114.3 0 213.8 98.5 213.8 212v319z" />
    <glyph glyph-name="uni043A.ss02" horiz-adv-x="500" 
d="M469.6 0l-241.719 272.3h-105.78v-272.3h-20v730.3h20v-438.7h105.99l221.81 248.4h25.5996l-230.15 -258.12l250.15 -281.88h-25.9004z" />
    <glyph glyph-name="uni043B.ss02" horiz-adv-x="517" 
d="M485.6 0h-21.0996l-205.07 506.77l-208.83 -506.77h-20.9004l222.5 540h13.7002z" />
    <glyph glyph-name="uni043F.ss02" horiz-adv-x="640" 
d="M337.3 550.2c130.7 0 212.5 -90.7002 212.5 -231.601v-318.6h-20v316.4c0 133.1 -74.2002 214.6 -194.9 214.6c-114.3 0 -213.8 -98.5 -213.8 -212v-319h-20v540h17.2998l2.41016 -137.51c34.2197 85.6104 120.42 147.71 216.49 147.71z" />
    <glyph glyph-name="uni0442.ss02" horiz-adv-x="957" 
d="M686.5 550.2c107.8 0 179.3 -84.2002 179.3 -210.5v-339.7h-19.0996l-0.900391 336.8c0 116.6 -64.5996 194.199 -161.199 194.199c-113.7 0 -190.3 -84.9004 -191.2 -211.5v-319.5h-19.7998v336.8c0 118.4 -63.7002 194.2 -161.3 194.2
c-113.7 0 -190.3 -84.9004 -191.2 -211.5v-319.5h-20v540h17.4004l2.2002 -123.6c30.5703 82.8203 101.63 133.801 193.7 133.801c89.5195 0 153.979 -58.2197 173.119 -150.46c26.7998 92.5898 100.96 150.46 198.979 150.46z" />
    <glyph glyph-name="uni0446.ss02" horiz-adv-x="659" 
d="M539.1 136.1c0 -82.4004 32.8008 -119.2 107.9 -119.2v-170.6h-19.2998v153.85c-77.4902 5.54004 -105.351 49.54 -106.891 140.75c-33.8096 -86.4297 -120.63 -151.1 -217.91 -151.1c-130.7 0 -212.5 90.5996 -212.5 231.5v318.7h20v-316.3
c0 -133.2 74.2002 -214.7 194.9 -214.7c114.3 0 213.8 98.5996 213.8 212.1v318.9h20v-403.9z" />
    <glyph glyph-name="uni0448.ss02" horiz-adv-x="956" 
d="M835 540l19.999 -0.000976562v-540h-17.5996l-2.03027 123.25c-30.6396 -82.6201 -101.63 -133.45 -193.57 -133.45c-89.5195 0 -153.989 58.21 -173.119 150.45c-26.8096 -92.5898 -100.97 -150.45 -198.979 -150.45c-107.8 0 -179.3 84.2002 -179.3 210.5v339.7
h19.0996l0.900391 -336.8c0.900391 -116.6 64.6006 -194.199 161.2 -194.199c113.7 0 190.3 84.9004 191.2 211.5v319.5h19.7998v-336.8c0 -118.4 63.7002 -194.2 161.3 -194.2c113.6 0 190.199 84.9004 191.1 211.5v319.5z" />
    <glyph glyph-name="uni0449.ss02" horiz-adv-x="975" 
d="M855.1 136.1c0 -82.5996 32.999 -119.201 107.799 -119.201v-170.6h-19.2002v154.59c-69.5098 4.7998 -102.59 40.25 -107.16 123.94c-30.0498 -83.5303 -101.99 -135.03 -194.74 -135.03c-89.5195 0 -153.989 58.21 -173.119 150.45
c-26.8096 -92.5898 -100.97 -150.45 -198.979 -150.45c-107.8 0 -179.3 84.2002 -179.3 210.5v339.7h19.0996l0.900391 -336.8c0.900391 -116.6 64.6006 -194.199 161.2 -194.199c113.7 0 190.3 84.9004 191.2 211.5v319.5h19.7998v-336.8
c0 -118.4 63.7002 -194.2 161.3 -194.2c113.7 0 191.2 84.9004 191.2 211.5v319.5h20v-403.9z" />
    <glyph glyph-name="uni044E.ss02" horiz-adv-x="839" 
d="M513.9 550.2c155.5 0 272.601 -120.899 272.601 -280.3c0 -160.2 -117 -280.101 -272.6 -280.101c-153.36 0 -269.65 115.13 -274.261 270.5h-118.54v-262.2h-20v732.2h20v-450.6h118.55c4.7002 155.36 121.05 270.5 274.25 270.5zM513.901 9.50098
c144.7 0 252.4 111.7 252.4 260.4c0 148.8 -108.7 260.6 -252.4 260.6c-145.6 0 -254.199 -111.8 -254.199 -260.6c0 -148.7 108.6 -260.4 254.199 -260.4z" />
    <glyph glyph-name="uni0432.ss03" horiz-adv-x="619" 
d="M421 384.98c85.6299 -22.3896 143.7 -96.0205 143.7 -186.57c0 -125.3 -95.9004 -208.5 -236.9 -208.5c-155.4 0 -241.4 105 -241.4 294v174.2c0 187.6 81.7002 287.8 235 287.8c131.9 0 222.7 -77.2002 222.7 -191.5c0 -78.9297 -50.1396 -146.479 -123.1 -169.43z
M321.4 726.209c-141.4 0 -215.2 -90.7998 -215.2 -268.1v-64.5996h255.3c92.0996 0 163.3 69.5 163.3 160.3c0 103.1 -81.2998 172.399 -203.399 172.399zM327.801 9.60938c131.2 0 216.899 75.499 216.899 189.499c0 101.4 -76.2998 174.9 -182.7 174.9h-255.8v-90.0996
c0 -177.7 77.9004 -274.3 221.601 -274.3z" />
    <glyph glyph-name="uni0433.ss03" horiz-adv-x="511" 
d="M254.4 -4.40039c-122.9 0 -204.499 57.7012 -204.499 145.801c0 112.3 106.1 132.399 201.899 149.399c92.7002 16.7002 176.4 32.2998 176.4 118.899c0 70.9004 -67.5 118.801 -170 118.801c-109.2 0 -173.8 -50.9004 -173.8 -139.601h-19.0996
c0 101.7 76.4004 158.4 192.801 158.4c113 0 189.6 -55.7002 189.6 -137.601c0 -102.2 -96.7002 -120.3 -191.3 -137.3c-93.7002 -16.5996 -186.601 -34 -186.601 -131c0 -76.5996 72.5996 -126.199 184.6 -126.199c117.8 0 187.399 54.7998 187.399 150h19.5996
c0 -109.7 -80.7002 -169.601 -207 -169.601z" />
    <glyph glyph-name="uni0434.ss03" horiz-adv-x="677" 
d="M558.7 540l16.9082 -0.00195312v-459.6c0 -174.9 -95.5996 -280.9 -253.399 -280.9c-117.8 0 -201.1 59.2002 -235.5 160.8h20c33.7998 -91.0996 111.6 -141.6 215.5 -141.6c145.4 0 233.601 96.9004 233.601 260.5v102.07
c-37.54 -97.3896 -128.18 -161.569 -240.6 -161.569c-149.1 0 -262.399 114.2 -262.399 265.2c0 150.1 114.2 265.3 262.4 265.3c112.67 0 204.33 -66.46 241.47 -165.06zM316.208 39.2979c138.3 0 239.5 103.899 239.5 245.6c0 140.9 -102.1 245.7 -239.5 245.7
c-138.3 0 -243.2 -106.7 -243.2 -245.7c0 -139.8 104.9 -245.6 243.2 -245.6z" />
    <glyph glyph-name="uni0436.ss03" horiz-adv-x="732" 
d="M356.2 0v730.3h19.7002v-730.3h-19.7002zM22.4004 540l25.2998 -0.000976562l251.5 -254.3v-8.09961l-271.5 -277.6h-25.2998l273.76 281.46zM455.521 281.919l274.18 -281.919h-25.2998l-271.5 277.6v8.09961l251.5 254.3h25.2998z" />
    <glyph glyph-name="uni0437.ss03" horiz-adv-x="557" 
d="M381.45 192.83l-0.0996094 -0.000976562c72.7598 -22 126.04 -96.5703 126.04 -180.83c0 -126.2 -94.0996 -212.601 -231.8 -212.601c-125.4 0 -223.5 74.0996 -241.8 183.5h20c18.2998 -97.7998 107.399 -163.8 221.8 -163.8c123.3 0 211.7 75.9004 211.7 193.601
c0 89.2002 -66.7998 169.2 -156.5 169.2h-126.7v19.5996h125c79.0996 0 135.899 78.5 135.899 158c0 103.1 -81.2002 170.899 -195.3 170.899c-103.9 0 -183.301 -61.2998 -199.4 -154.399h-19.7002c16 104.7 103.6 174.101 219.1 174.101
c127.4 0 215.4 -77.7002 215.4 -190c0 -77.0098 -44.7695 -142.55 -103.64 -167.27z" />
    <glyph glyph-name="uni0438.ss03" horiz-adv-x="640" 
d="M519.1 540h20v-540h-17.5996l-2.30957 137.04c-34.3301 -85.3701 -120.4 -147.24 -216.29 -147.24c-130.7 0 -212.5 90.7002 -212.5 231.601v318.6h20v-316.4c0 -133.1 74.0996 -214.6 194.899 -214.6c114.3 0 213.8 98.5 213.8 212v319z" />
    <glyph glyph-name="uni0439.ss03" horiz-adv-x="640" 
d="M443.5 699.6v-17.7002h-247.8v17.7002h247.8zM519.1 539.999h20v-540h-17.5996l-2.30957 137.04c-34.3301 -85.3701 -120.4 -147.24 -216.29 -147.24c-130.7 0 -212.5 90.7002 -212.5 231.601v318.6h20v-316.4c0 -133.1 74.0996 -214.6 194.899 -214.6
c114.3 0 213.8 98.5 213.8 212v319z" />
    <glyph glyph-name="uni043A.ss03" horiz-adv-x="484" 
d="M101.1 0v730.3h20v-730.3h-20zM200.659 282.39l284.541 -282.389h-26.4004l-280 277.8v8.09961l260.6 254.1h25.7998z" />
    <glyph glyph-name="uni043B.ss03" horiz-adv-x="517" 
d="M485.6 0h-21.0996l-205.07 506.77l-208.83 -506.77h-20.9004l222.5 540h13.7002z" />
    <glyph glyph-name="uni043F.ss03" horiz-adv-x="640" 
d="M337.3 550.2c130.7 0 212.5 -90.7002 212.5 -231.601v-318.6h-20v316.4c0 133.1 -74.2002 214.6 -194.9 214.6c-114.3 0 -213.8 -98.5 -213.8 -212v-319h-20v540h17.2998l2.41016 -137.51c34.2197 85.6104 120.42 147.71 216.49 147.71z" />
    <glyph glyph-name="uni0442.ss03" horiz-adv-x="957" 
d="M686.5 550.2c107.8 0 179.3 -84.2002 179.3 -210.5v-339.7h-19.0996l-0.900391 336.8c0 116.6 -64.5996 194.199 -161.199 194.199c-113.7 0 -190.3 -84.9004 -191.2 -211.5v-319.5h-19.7998v336.8c0 118.4 -63.7002 194.2 -161.3 194.2
c-113.7 0 -190.3 -84.9004 -191.2 -211.5v-319.5h-20v540h17.4004l2.2002 -123.6c30.5703 82.8203 101.63 133.801 193.7 133.801c89.5195 0 153.979 -58.2197 173.119 -150.46c26.7998 92.5898 100.96 150.46 198.979 150.46z" />
    <glyph glyph-name="uni0446.ss03" horiz-adv-x="659" 
d="M539.1 136.1c0 -82.4004 32.8008 -119.2 107.9 -119.2v-170.6h-19.2998v153.85c-77.4902 5.54004 -105.351 49.54 -106.891 140.75c-33.8096 -86.4297 -120.63 -151.1 -217.91 -151.1c-130.7 0 -212.5 90.5996 -212.5 231.5v318.7h20v-316.3
c0 -133.2 74.2002 -214.7 194.9 -214.7c114.3 0 213.8 98.5996 213.8 212.1v318.9h20v-403.9z" />
    <glyph glyph-name="uni0448.ss03" horiz-adv-x="956" 
d="M835 540l19.999 -0.000976562v-540h-17.5996l-2.03027 123.25c-30.6396 -82.6201 -101.63 -133.45 -193.57 -133.45c-89.5195 0 -153.989 58.21 -173.119 150.45c-26.8096 -92.5898 -100.97 -150.45 -198.979 -150.45c-107.8 0 -179.3 84.2002 -179.3 210.5v339.7
h19.0996l0.900391 -336.8c0.900391 -116.6 64.6006 -194.199 161.2 -194.199c113.7 0 190.3 84.9004 191.2 211.5v319.5h19.7998v-336.8c0 -118.4 63.7002 -194.2 161.3 -194.2c113.6 0 190.199 84.9004 191.1 211.5v319.5z" />
    <glyph glyph-name="uni0449.ss03" horiz-adv-x="975" 
d="M855.1 136.1c0 -82.5996 32.999 -119.201 107.799 -119.201v-170.6h-19.2002v154.59c-69.5098 4.7998 -102.59 40.25 -107.16 123.94c-30.0498 -83.5303 -101.99 -135.03 -194.74 -135.03c-89.5195 0 -153.989 58.21 -173.119 150.45
c-26.8096 -92.5898 -100.97 -150.45 -198.979 -150.45c-107.8 0 -179.3 84.2002 -179.3 210.5v339.7h19.0996l0.900391 -336.8c0.900391 -116.6 64.6006 -194.199 161.2 -194.199c113.7 0 190.3 84.9004 191.2 211.5v319.5h19.7998v-336.8
c0 -118.4 63.7002 -194.2 161.3 -194.2c113.7 0 191.2 84.9004 191.2 211.5v319.5h20v-403.9z" />
    <glyph glyph-name="uni044E.ss03" horiz-adv-x="839" 
d="M513.9 550.2c155.5 0 272.601 -120.899 272.601 -280.3c0 -160.2 -117 -280.101 -272.6 -280.101c-153.36 0 -269.65 115.13 -274.261 270.5h-118.54v-262.2h-20v732.2h20v-450.6h118.55c4.7002 155.36 121.05 270.5 274.25 270.5zM513.901 9.50098
c144.7 0 252.4 111.7 252.4 260.4c0 148.8 -108.7 260.6 -252.4 260.6c-145.6 0 -254.199 -111.8 -254.199 -260.6c0 -148.7 108.6 -260.4 254.199 -260.4z" />
    <glyph glyph-name="uni0436.ss04" horiz-adv-x="732" 
d="M22.4004 540l25.2998 -0.000976562l251.5 -254.3v-8.09961l-271.5 -277.6h-25.2998l273.76 281.46zM356.2 -0.000976562v540h19.7002v-540h-19.7002zM455.521 281.919l274.18 -281.919h-25.2998l-271.5 277.6v8.09961l251.5 254.3h25.2998z" />
    <glyph glyph-name="uni043A.ss04" horiz-adv-x="484" 
d="M101.1 0v540h20v-540h-20zM200.659 282.39l284.541 -282.389h-26.4004l-280 277.8v8.09961l260.6 254.1h25.7998z" />
    <glyph glyph-name="Alpha" unicode="&#x391;" horiz-adv-x="677" 
d="M627.7 0l-92.2402 210.7h-396.23l-90.6299 -210.7h-21.7998l299.4 700h16.0996l307.4 -700h-22zM334.62 668.79l-187.319 -438.59h379.85z" />
    <glyph glyph-name="Beta" unicode="&#x392;" horiz-adv-x="644" 
d="M439.04 370.25c78.7197 -20.9697 137.359 -94 137.359 -180.86c0 -104.5 -79.5 -189.4 -203.1 -189.4h-263.1v700h262.7c109.6 0 181.899 -74.2998 181.899 -167.399c0 -75.4404 -48.6396 -140.2 -115.76 -162.34zM381.589 679.9h-251.201v-299.9h257.5
c82.5 0 146.4 71.9004 146.4 151.301c0 83.0996 -67.5996 148.6 -152.699 148.6zM382.088 20.2002c97.5996 0 173.7 74.8008 173.7 170.301c0 93.5996 -75.2002 169.399 -169.2 169.399h-256.2v-339.7h251.7z" />
    <glyph glyph-name="Gamma" unicode="&#x393;" horiz-adv-x="485" 
d="M463 700v-19.7002h-332.5v-680.3h-20.2998v700h352.8z" />
    <glyph glyph-name="uni0394" unicode="&#x394;" horiz-adv-x="672" 
d="M342.1 700l305.2 -700h-618.5l294.2 700h19.0996zM332.649 671.34l-273.42 -651.64h556.78z" />
    <glyph glyph-name="Epsilon" unicode="&#x395;" horiz-adv-x="540" 
d="M130.5 19.9004h362.7v-19.9004h-383v700h372v-19.7998h-351.7v-303.3h325.7v-19.5996h-325.7v-337.4z" />
    <glyph glyph-name="Zeta" unicode="&#x396;" horiz-adv-x="532" 
d="M55.0195 19.7002l460.581 0.000976562v-19.7002h-491.4v7l440.54 673.3h-426.34v19.7002h459.1v-5.40039z" />
    <glyph glyph-name="Eta" unicode="&#x397;" horiz-adv-x="728" 
d="M597.6 700h20.2998v-700h-20.2998v356.3h-467.1v-356.3h-20.2998v700h20.2998v-323.8h467.1v323.8z" />
    <glyph glyph-name="Theta" unicode="&#x398;" horiz-adv-x="833" 
d="M416.7 -10.2002c-209.9 0 -359.801 155 -359.801 359.2c0 205.2 149.9 361.2 359.801 361.2c210 0 359.8 -155 359.8 -361.2c0 -205.2 -149.8 -359.2 -359.8 -359.2zM416.7 9.89941c198 0 339.299 145.601 339.299 339.2c0 194.5 -141.3 341 -339.3 341
s-339.3 -147.5 -339.3 -341c0 -192.7 140.4 -339.2 339.301 -339.2zM171.199 340.101v20h486.2v-20h-486.2z" />
    <glyph glyph-name="Iota" unicode="&#x399;" horiz-adv-x="241" 
d="M110.2 0v700h20.2998v-700h-20.2998z" />
    <glyph glyph-name="Kappa" unicode="&#x39a;" horiz-adv-x="597" 
d="M566.6 0l-311.801 354.8h-124.3v-354.8h-20.2998v700h20.2998v-325.5h124.28l285.32 325.5h26.5l-293.69 -335.17l320.29 -364.83h-26.5996z" />
    <glyph glyph-name="Lambda" unicode="&#x39b;" horiz-adv-x="647" 
d="M618.9 0h-22l-274.75 666.12l-268.85 -666.12h-21.7002l282 700h16.0996z" />
    <glyph glyph-name="Mu" unicode="&#x39c;" horiz-adv-x="939" 
d="M885.3 0h-20.499l-116.87 657.69l-273.93 -622.79h-9.7002l-273.03 622.02l-117.87 -656.92h-20.5l125.1 700h16.4004l274.21 -629.59l276.09 629.59h16.5996z" />
    <glyph glyph-name="Nu" unicode="&#x39d;" horiz-adv-x="744" 
d="M613.4 700h20.0996v-700h-17.9004l-485.3 663.39v-663.39h-20.0996v700h18.5l484.7 -663.26v663.26z" />
    <glyph glyph-name="Xi" unicode="&#x39e;" horiz-adv-x="545" 
d="M52.5 679.9v20.0996h440.1v-20.0996h-440.1zM91.5 357.3v19.9004h362.1v-19.9004h-362.1zM44.5 0v20.2002h455.1v-20.2002h-455.1z" />
    <glyph glyph-name="Omicron" unicode="&#x39f;" horiz-adv-x="833" 
d="M416.7 -10.2002c-210.2 0 -359.8 154.999 -359.8 359.299c0 205.2 149.6 361.101 359.8 361.101s359.8 -155 359.8 -361.1c0 -205.2 -149.6 -359.3 -359.8 -359.3zM416.7 9.89844c198.2 0 339.3 145.6 339.3 339.199c0 194.5 -141.1 341 -339.3 341
s-339.3 -147.5 -339.3 -341c0 -192.6 141.1 -339.199 339.3 -339.199z" />
    <glyph glyph-name="Pi" unicode="&#x3a0;" horiz-adv-x="693" 
d="M110.2 700h472.601v-700h-20.4004v680.3h-431.9v-680.3h-20.2998v700z" />
    <glyph glyph-name="Rho" unicode="&#x3a1;" horiz-adv-x="597" 
d="M342.5 700c123.1 0 216.899 -88.7998 216.899 -207.1c0 -119.1 -92.7998 -208 -216.899 -208h-212v-284.9h-20.2998v700h232.3zM342 304.9c112.7 0 196.9 80.3994 196.9 187.999c0 106.7 -84.2002 187.101 -196.9 187.101h-211.5v-375.1h211.5z" />
    <glyph glyph-name="Sigma" unicode="&#x3a3;" horiz-adv-x="545" 
d="M58.0703 19.7002h459.73v-19.7002h-489.6v12.9004l255.09 342.08l-249.09 332.12v12.9004h474.6v-19.7002h-444.69l241.09 -321v-8.7002z" />
    <glyph glyph-name="Tau" unicode="&#x3a4;" horiz-adv-x="528" 
d="M505.6 700v-19.7002h-231.7v-680.3h-20.2998v680.3h-231.7v19.7002h483.7z" />
    <glyph glyph-name="Upsilon" unicode="&#x3a5;" horiz-adv-x="636" 
d="M600 700l-272.3 -423.96v-276.04h-20.5996v275.26l-269.4 424.74h23l256.93 -404.04l259.37 404.04h23z" />
    <glyph glyph-name="Phi" unicode="&#x3a6;" horiz-adv-x="845" 
d="M788.2 349.2c0 -202.81 -149.84 -357.79 -354.7 -359.29v-106.11h-20.0996v106.11c-204.74 1.55957 -356.5 157.399 -356.5 359.09c0 202.68 151.76 359.52 356.5 361.09v96.8096h20.0996v-96.8096c204.86 -1.50977 354.7 -157.29 354.7 -360.89zM77.4004 349.101
c0 -190.78 143.06 -337.729 336 -339.289v680.27c-192.05 -1.57031 -336 -149.41 -336 -340.98zM433.5 9.81152c192.08 1.50977 334.2 147.581 334.2 339.291c0 192.5 -142.12 339.47 -334.2 340.989v-680.28z" />
    <glyph glyph-name="Chi" unicode="&#x3a7;" horiz-adv-x="574" 
d="M560.9 0h-24.2002l-249.33 349.57l-249.67 -349.57h-24.2998l261.4 365.65l-238.9 334.35h24.2002l227.1 -318.46l227.8 318.46h24.2002l-239.54 -334.88z" />
    <glyph glyph-name="Psi" unicode="&#x3a8;" horiz-adv-x="777" 
d="M702.7 699.1h20.3018v-214.1c0 -181.6 -120.8 -303.1 -300.899 -303.1h-23.5v-181.9h-20.4004v181.9h-23.5c-180.1 0 -300.899 121.5 -300.899 303.1v214.1h20.2998v-213c0 -170.6 112.1 -283.6 280.699 -283.6h23.5996v497.5h20v-497.5h23.5996
c168.6 0 280.699 113 280.699 283.6v213z" />
    <glyph glyph-name="uni03A9" unicode="&#x3a9;" horiz-adv-x="844" 
d="M551.92 19.7002h232.28v-19.7002h-299.5v19.5c163.1 33.5996 276.6 172.199 276.6 336.999c0 188.2 -147.7 333.601 -339.2 333.601c-191.4 0 -339.101 -145.4 -339.101 -333.601c0 -164.8 112.6 -303.399 274.699 -336.999v-19.5h-299.5v19.7002h232.91
c-136.76 54.4404 -228.609 183.971 -228.609 337.501c0 199.4 156.4 353 359.601 353c202.3 0 359.7 -153.6 359.7 -353c0 -153.53 -91.9297 -283.061 -229.88 -337.501z" />
    <glyph glyph-name="Alphatonos" unicode="&#x386;" horiz-adv-x="677" 
d="M627.7 0l-92.2402 210.7h-396.23l-90.6299 -210.7h-21.7998l299.4 700h16.0996l307.4 -700h-22zM119.4 558l89.7998 142h22.5l-92.5 -142h-19.7998zM334.62 668.79l-187.319 -438.59h379.85z" />
    <glyph glyph-name="Epsilontonos" unicode="&#x388;" horiz-adv-x="540" 
d="M-54.9004 558l89.7998 142h22.5l-92.5 -142h-19.7998zM130.499 19.9004h362.7v-19.9004h-383v700h372v-19.7998h-351.7v-303.3h325.7v-19.5996h-325.7v-337.4z" />
    <glyph glyph-name="Etatonos" unicode="&#x389;" horiz-adv-x="728" 
d="M-55.7998 558l89.7998 142h22.5l-92.5 -142h-19.7998zM597.6 700h20.2998v-700h-20.2998v356.3h-467.1v-356.3h-20.2998v700h20.2998v-323.8h467.1v323.8z" />
    <glyph glyph-name="Iotatonos" unicode="&#x38a;" horiz-adv-x="241" 
d="M-56 558l89.7998 142h22.5l-92.5 -142h-19.7998zM110.2 0v700h20.2998v-700h-20.2998z" />
    <glyph glyph-name="Omicrontonos" unicode="&#x38c;" horiz-adv-x="833" 
d="M416.7 -10.2002c-210.2 0 -359.8 154.999 -359.8 359.299c0 205.2 149.6 361.101 359.8 361.101s359.8 -155 359.8 -361.1c0 -205.2 -149.6 -359.3 -359.8 -359.3zM-10.2998 557.999l89.7998 142h22.5l-92.5 -142h-19.7998zM416.7 9.89941
c198.2 0 339.3 145.6 339.3 339.199c0 194.5 -141.1 341 -339.3 341s-339.3 -147.5 -339.3 -341c0 -192.6 141.1 -339.199 339.3 -339.199z" />
    <glyph glyph-name="Upsilontonos" unicode="&#x38e;" horiz-adv-x="636" 
d="M577 700h23l-272.3 -423.96v-276.04h-20.5996v275.26l-269.3 424.58l-92.4004 -141.84h-19.7998l89.7998 142h45.2998l256.93 -404.04z" />
    <glyph glyph-name="Omegatonos" unicode="&#x38f;" horiz-adv-x="844" 
d="M551.92 19.7002h232.28v-19.7002h-299.5v19.5c163.1 33.5996 276.6 172.199 276.6 336.999c0 188.2 -147.7 333.601 -339.2 333.601c-191.4 0 -339.101 -145.4 -339.101 -333.601c0 -164.8 112.6 -303.399 274.699 -336.999v-19.5h-299.5v19.7002h232.91
c-136.76 54.4404 -228.609 183.971 -228.609 337.501c0 199.4 156.4 353 359.601 353c202.3 0 359.7 -153.6 359.7 -353c0 -153.53 -91.9297 -283.061 -229.88 -337.501zM83.7002 700h22.5l-92.5 -142h-19.7998z" />
    <glyph glyph-name="Iotadieresis" unicode="&#x3aa;" horiz-adv-x="241" 
d="M30.4004 825.4v46.2998h36.4004v-46.2998h-36.4004zM173.101 825.4v46.2998h36.4004v-46.2998h-36.4004zM110.2 0v700h20.2998v-700h-20.2998z" />
    <glyph glyph-name="Upsilondieresis" unicode="&#x3ab;" horiz-adv-x="636" 
d="M200.5 825.4v46.2998h37.4004v-46.2998h-37.4004zM400.6 825.4v46.2998h37.4004v-46.2998h-37.4004zM600 700l-272.311 -423.96v-276.04h-20.5996v275.26l-269.4 424.74h23l256.94 -404.04l259.37 404.04h23z" />
    <glyph glyph-name="alpha" unicode="&#x3b1;" horiz-adv-x="703" 
d="M583.4 540h18.0889v-540h-18.4004l-1.58008 163.37c-38.3896 -103.57 -133.159 -173.57 -255.009 -173.57c-156.4 0 -274.601 121 -274.601 280.2c0 159.3 118.2 280.2 274.601 280.2c121.87 0 216.65 -69.96 255.03 -173.57zM327.189 9.5c147 0 254.1 109.9 254.1 260.5
s-107.1 260.5 -254.1 260.5c-145.2 0 -255.101 -112.7 -255.101 -260.5c0 -148.7 109.9 -260.5 255.101 -260.5z" />
    <glyph glyph-name="beta" unicode="&#x3b2;" horiz-adv-x="622" 
d="M427.75 383.03c85.9404 -21.0498 140.449 -88.4707 140.449 -184.53c0 -124.7 -92.7002 -208.7 -230.2 -208.7c-95.7197 0 -168.439 33.7197 -217.8 100.989v-279.89h-20v643.4c0 186 80.9004 286.2 234 286.2c126.7 0 213.5 -76.5996 213.5 -189.8
c0 -82.5098 -47.5596 -146.17 -119.949 -167.67zM337.099 9.49902c128.3 0 211.399 75.4004 211.399 189.801c0 104.6 -71.5996 172.899 -181.5 172.899h-137.5v19.0996h137.2c95.5 0 161.9 64.0996 161.9 158.1c0 102.9 -77.7998 171.9 -194.2 171.9
c-141.2 0 -214.2 -91.5996 -214.2 -267v-334.68c47.6504 -75.2305 121.181 -110.12 216.9 -110.12z" />
    <glyph glyph-name="gamma" unicode="&#x3b3;" horiz-adv-x="556" 
d="M527 540l-235.3 -512.09v-217.91h-19.7998v217.77l-244.3 512.23h21.5l232.76 -485.95l223.64 485.95h21.5z" />
    <glyph glyph-name="delta" unicode="&#x3b4;" horiz-adv-x="604" 
d="M114.59 682.1c224.82 -85.5996 437.608 -246.821 437.608 -445.211c0 -139 -107.7 -247.1 -250.601 -247.1c-142.2 0 -250.7 106.4 -250.7 247.2c0 139.9 107.7 246.5 248.601 246.5c65.5303 0 122.761 -23.0303 165.091 -61.0303
c-77.0996 100.94 -215.729 194.16 -391.489 256.141v22.5996h455.5v-19.0996h-414.01zM301.588 9.08789c131.7 0 230.9 99.2002 230.9 227.9c0 130.6 -100.2 228 -230.9 228c-133.5 0 -230.8 -99.2002 -230.8 -228c0 -128.7 98.2002 -227.9 230.8 -227.9z" />
    <glyph glyph-name="epsilon" unicode="&#x3b5;" horiz-adv-x="476" 
d="M422.5 115.3l19.501 0.00195312c-18.9004 -75.7998 -92.7002 -125.5 -186.101 -125.5c-112.2 0 -192.9 66.4004 -192.9 159.101c0 64.7197 41 117.39 99.8896 136.399c-53.5 17.3896 -89.4902 62.2197 -89.4902 120.3c0 82.5 76.5996 144.6 177.699 144.6
c88.2002 0 158.2 -48.2998 175.2 -121.2h-19.2998c-17 62.2002 -77.7998 102.9 -155.6 102.9c-91 0 -158.4 -54.5 -158.4 -126.9c0 -62.2002 48.5996 -111.2 121.5 -111.2h102.2v-17.7002h-103.1c-77.0996 0 -130.699 -59.4004 -130.699 -126.601
c0 -81.9004 72.4004 -140.5 173 -140.5c84 0 148 42.7998 166.6 106.3z" />
    <glyph glyph-name="zeta" unicode="&#x3b6;" horiz-adv-x="491" 
d="M486 714.3c-274.6 -223 -415.7 -345.199 -415.7 -491.899c0 -216.4 392.3 -168.5 392.3 -333.4c0 -19.9004 -5 -54.3008 -12.2998 -79.3008h-19.7002c6.2998 20.7998 12.0996 58.2002 12.0996 77.2002c0 147.1 -392.6 103.5 -392.6 334.3
c0 145.29 125.19 261.79 401.96 489.4h-373.96v19.7002h407.9v-16z" />
    <glyph glyph-name="eta" unicode="&#x3b7;" horiz-adv-x="640" 
d="M337.3 550.2c130.7 0 212.5 -89.7988 212.5 -231.599v-508.9h-20v506.7c0 133.1 -74.2002 214.6 -194.9 214.6c-114.3 0 -213.8 -98.5 -213.8 -212v-319h-20v540h17.2998l2.58984 -137.07c34.3301 85.3799 120.4 147.27 216.311 147.27z" />
    <glyph glyph-name="theta" unicode="&#x3b8;" horiz-adv-x="693" 
d="M346.2 739.8c177.2 0 281.8 -160 281.8 -375s-104.6 -375 -281.8 -375c-179.1 0 -281.699 161 -281.699 375s102.6 375 281.699 375zM346.2 720.1c-157.06 0 -258.561 -136.33 -261.631 -345.5h523.36c-3.09961 209.17 -105.56 345.5 -261.729 345.5zM346.199 9.5
c155.23 0 258.66 136.61 261.73 345.7h-523.36c3 -209.95 104.71 -345.7 261.63 -345.7z" />
    <glyph glyph-name="iota" unicode="&#x3b9;" horiz-adv-x="332" 
d="M255 -3c-101.6 0 -161.799 60.001 -161.799 161.401v381.6h20v-380.7c0 -90.4004 52.5996 -142.9 143.199 -142.9h64v-19.4004h-65.4004z" />
    <glyph glyph-name="kappa" unicode="&#x3ba;" horiz-adv-x="498" 
d="M468.6 0l-241.719 272.3h-105.78v-272.3h-20v540h20v-248.4h106.01l222.69 248.4h25.5996l-231.04 -258.14l250.14 -281.86h-25.9004z" />
    <glyph glyph-name="lambda" unicode="&#x3bb;" horiz-adv-x="554" 
d="M514.7 0l-21.6992 -0.000976562l-206.79 498.21l-246.21 -498.21h-21.7998l257.8 522.71l-30.7998 73.79c-29.2002 70.5 -58.6006 94.2998 -116.501 94.2998h-26.5v19.4004h27.5c66 0 101.2 -28.5996 134 -106.899z" />
    <glyph glyph-name="uni03BC" unicode="&#x3bc;" horiz-adv-x="640" 
d="M519.1 540h20v-540h-17l-2.30957 139.7c-32.5098 -85.3398 -117.24 -149.8 -210.891 -149.8c-92.8701 0 -160.03 45 -188 122.35v-302.55h-19.7998v730.3h20v-325.7c0 -128.1 71.2998 -204.699 188.8 -204.699c111.7 0 209.2 98.2998 209.2 210.899v319.5z" />
    <glyph glyph-name="nu" unicode="&#x3bd;" horiz-adv-x="562" 
d="M512.4 540h21.0996l-243.1 -540h-15.5996l-248.2 540h21.2998l234.64 -508.81z" />
    <glyph glyph-name="xi" unicode="&#x3be;" horiz-adv-x="502" 
d="M276.7 718.2c-109.5 0 -185.991 -67.7021 -185.991 -165.502c0 -86.5996 64.4004 -150.699 149.4 -150.699h129.9v-19h-130c-92.2998 0 -163.5 -77.5 -163.5 -177.8c0 -142.1 113.5 -173.699 214.5 -203.6c78.0996 -21.9004 153.6 -43.9004 153.6 -111.7
c0 -19.7002 -5.09961 -57 -12.3994 -80.2002h-20.0996c6.2002 20.2998 12.1006 58.7998 12.1006 78.2002c0 54.0996 -61.7002 72.7998 -141.3 95.0996c-108 32 -227.1 69.4004 -227.1 221.301c0 92.0596 54 166.71 131.38 188.38
c-68.7305 19.7598 -116.891 82.1299 -116.891 160.32c0 108.5 85.2002 184.2 206.4 184.2c108.8 0 195.5 -69 213.4 -170.3h-19.9004c-18.9004 90.2002 -96.3008 151.3 -193.501 151.3z" />
    <glyph glyph-name="omicron" unicode="&#x3bf;" horiz-adv-x="663" 
d="M331.7 -10.2002c-159.5 0 -279.8 120 -279.8 280.2c0 161.2 120.3 280.2 279.8 280.2c160.4 0 279.801 -120 279.801 -280.2s-119.4 -280.2 -279.801 -280.2zM331.7 9.5c148.9 0 259.602 111.6 259.602 260.5s-110.7 260.5 -259.601 260.5
s-259.601 -110.7 -259.601 -260.5c0 -148.9 111.6 -260.5 259.6 -260.5z" />
    <glyph glyph-name="pi" unicode="&#x3c0;" horiz-adv-x="630" 
d="M101.1 540h427.801v-540h-19.9004v520.8h-387.9v-520.8h-20v540z" />
    <glyph glyph-name="rho" unicode="&#x3c1;" horiz-adv-x="678" 
d="M354.6 550.1c154.6 0 270.001 -121 270.001 -280.1c0 -160 -115.4 -280.2 -269.7 -280.2c-119.94 0 -217.65 73.29 -252.101 180.44v-360.54h-20.2002v459.6c0 160.8 116 280.8 272 280.8zM354.501 9.5c144.2 0 250.099 111.6 250.099 260.5
c0 148.8 -106.8 260.399 -250.1 260.399c-145.1 0 -251.899 -111.6 -251.899 -260.399c0 -148.9 106.9 -260.5 251.9 -260.5z" />
    <glyph glyph-name="uni03C2" unicode="&#x3c2;" horiz-adv-x="602" 
d="M493.6 -190.3c6.2002 20.7998 12.1016 59.2012 12.1016 78.2012c0 74.2998 -79.7998 93.3994 -171.7 116.399c-127.9 33 -281.101 73.0996 -281.101 284.699c0 149.6 118.3 261.1 276.6 261.1c114.6 0 210.6 -63.4004 251.3 -167.2h-20.7998
c-40.2002 92.5 -126.7 147.4 -230.601 147.4c-146.6 0 -256.3 -102.2 -256.3 -241.3c0 -196.9 141.5 -233.2 268.2 -265.9c93.5996 -23.5 184.199 -45.0996 184.199 -133.199c0 -19.7002 -5.09961 -57 -12.2998 -80.2002h-19.5996z" />
    <glyph glyph-name="sigma" unicode="&#x3c3;" horiz-adv-x="693" 
d="M675.3 540.1v-19.2002h-251.1c106.77 -35.4004 178.5 -133.32 178.5 -255.9c0 -158.2 -116.2 -275.2 -274.8 -275.2c-157.7 0 -275.101 117.2 -275.101 275.2c0 158.9 117.4 275.101 275.4 275.101h347.1zM582.7 265.1c0 146.7 -107.8 255.3 -254.899 255.3
s-254.899 -107.7 -254.899 -255.3c0 -147 107.8 -255.6 254.899 -255.6s254.899 108.6 254.899 255.6z" />
    <glyph glyph-name="tau" unicode="&#x3c4;" horiz-adv-x="474" 
d="M439.7 520.9h-210.399v-361.6c0 -90.4004 52.5996 -142.9 143.199 -142.9h64v-19.4004h-65.4004c-101.6 0 -161.8 60 -161.8 161.4v362.5h-194.3v19.0996h424.7v-19.0996z" />
    <glyph glyph-name="upsilon" unicode="&#x3c5;" horiz-adv-x="630" 
d="M315.1 -10.2002c-137.9 0 -224.8 92.2998 -224.8 236.399v313.8h20v-312.3c0 -134.5 78.5996 -218.2 204.8 -218.2c126.3 0 204.8 83.7998 204.8 218.2v312.3h20v-313.8c0 -144.1 -86.7998 -236.399 -224.8 -236.399z" />
    <glyph glyph-name="phi" unicode="&#x3c6;" horiz-adv-x="710" 
d="M657.6 267.8c0 -161.39 -120.041 -276.881 -292.801 -277.9v-180.2h-19.7998v180.2c-168.09 0.94043 -293.1 120.521 -293.1 277.9c0 123.1 76 226.1 197.1 266.199l6.2002 -17.7002c-112.9 -38.2998 -183.4 -133.399 -183.4 -248.499
c0 -147.08 116.51 -257.271 273.2 -258.2v530.4h17.5c174.2 0 295.101 -110.2 295.101 -272.2zM364.799 9.6084c160.18 1 272.899 107.51 272.899 258.189c0 148.95 -111.04 251.71 -273.1 252.59v-427.39l0.200195 -58v-25.3896z" />
    <glyph glyph-name="chi" unicode="&#x3c7;" horiz-adv-x="480" 
d="M466.9 0h-23.7998l-203.08 269.12l-203.12 -269.12h-23.5996l214.45 283.8l-193.05 256.2h23.7998l181.53 -241.26l181.97 241.26h23.5996l-193.36 -256.21z" />
    <glyph glyph-name="psi" unicode="&#x3c8;" horiz-adv-x="765" 
d="M659 540h19.999v-279.9c0 -156.1 -109 -270.199 -260 -270.199h-26.5v-180.2h-20.5996v180.2h-26.4004c-151 0 -260 115.1 -260 270.199v279.9h20v-279.5c0 -144.2 101.9 -250.2 240.4 -250.2h26.4004v528.7h19.9004v-528.7h26.5c139.3 0 240.3 105 240.3 250.2v279.5z
" />
    <glyph glyph-name="omega" unicode="&#x3c9;" horiz-adv-x="901" 
d="M776 540c38.0996 -89.2002 59.0977 -187.901 59.0977 -276.701c0 -152 -61.7002 -272.5 -197.2 -272.5c-89.5098 0 -164.319 53.6396 -187.22 132.069c-22.9805 -78.4297 -97.8604 -132.069 -187.28 -132.069c-136.4 0 -197.101 119.4 -197.101 271.5
c0 88.7998 20.9004 187.3 59 277.7h21.4004c-38.2998 -88.5996 -60.3994 -190.1 -60.3994 -276.699c0 -159.9 65.9004 -252.9 178.9 -252.9c98.4004 0 175.801 72.7002 175.801 166.4v187.4h19.2998v-187.4c0 -93.7002 77.4004 -166.4 175.7 -166.4
c112.2 0 178.9 94.7002 178.9 253.9c0 86.5996 -22.0996 189 -60.1992 275.7h21.2998z" />
    <glyph glyph-name="iotatonos" unicode="&#x3af;" horiz-adv-x="332" 
d="M87.2002 606.6l80.3994 152h22.4004l-83 -152h-19.7998zM255 -3c-101.6 0 -161.799 60.001 -161.799 161.401v381.6h20v-380.7c0 -90.4004 52.5996 -142.9 143.199 -142.9h64v-19.4004h-65.4004z" />
    <glyph glyph-name="iotadieresis" unicode="&#x3ca;" horiz-adv-x="332" 
d="M4.40039 666v46.2998h37.4004v-46.2998h-37.4004zM164.9 666v46.2998h37.4004v-46.2998h-37.4004zM255 -3c-101.6 0 -161.799 60.001 -161.799 161.401v381.6h20v-380.7c0 -90.4004 52.5996 -142.9 143.199 -142.9h64v-19.4004h-65.4004z" />
    <glyph glyph-name="iotadieresistonos" unicode="&#x390;" horiz-adv-x="332" 
d="M89.0996 607.5l41.3994 152h18.9004l-43.5 -152h-16.7998zM5.09863 666.9v44.5h35.0996v-44.5h-35.0996zM200.198 666.9v44.5h35.0996v-44.5h-35.0996zM254.998 -3c-101.6 0 -161.799 60.001 -161.799 161.401v381.6h20v-380.7c0 -90.4004 52.5996 -142.9 143.199 -142.9
h64v-19.4004h-65.4004z" />
    <glyph glyph-name="upsilontonos" unicode="&#x3cd;" horiz-adv-x="630" 
d="M298.9 606.6l80.3994 152h22.4004l-83 -152h-19.7998zM315.1 -10.2002c-137.9 0 -224.8 92.2998 -224.8 236.399v313.8h20v-312.3c0 -134.5 78.5996 -218.2 204.8 -218.2c126.3 0 204.8 83.7998 204.8 218.2v312.3h20v-313.8c0 -144.1 -86.7998 -236.399 -224.8 -236.399
z" />
    <glyph glyph-name="upsilondieresis" unicode="&#x3cb;" horiz-adv-x="630" 
d="M216.1 666v46.2998h37.4004v-46.2998h-37.4004zM376.6 666v46.2998h37.4004v-46.2998h-37.4004zM315.1 -10.2002c-137.9 0 -224.8 92.2998 -224.8 236.399v313.8h20v-312.3c0 -134.5 78.5996 -218.2 204.8 -218.2c126.3 0 204.8 83.7998 204.8 218.2v312.3h20v-313.8
c0 -144.1 -86.7998 -236.399 -224.8 -236.399z" />
    <glyph glyph-name="upsilondieresistonos" unicode="&#x3b0;" horiz-adv-x="630" 
d="M274 607.5l60.5 152h21.2998l-62.2002 -152h-19.5996zM193.4 666v44.5h35.0996v-44.5h-35.0996zM407.601 666v44.5h35.0996v-44.5h-35.0996zM315.101 -10.2002c-137.9 0 -224.8 92.2998 -224.8 236.399v313.8h20v-312.3c0 -134.5 78.5996 -218.2 204.8 -218.2
c126.3 0 204.8 83.7998 204.8 218.2v312.3h20v-313.8c0 -144.1 -86.7998 -236.399 -224.8 -236.399z" />
    <glyph glyph-name="omicrontonos" unicode="&#x3cc;" horiz-adv-x="663" 
d="M315.5 606.6l80.3994 152h22.4004l-83 -152h-19.7998zM331.699 -10.2002c-159.5 0 -279.8 120 -279.8 280.2c0 161.2 120.3 280.2 279.8 280.2c160.4 0 279.801 -120 279.801 -280.2s-119.4 -280.2 -279.801 -280.2zM331.699 9.5c148.9 0 259.602 111.6 259.602 260.5
s-110.7 260.5 -259.601 260.5s-259.601 -110.7 -259.601 -260.5c0 -148.9 111.6 -260.5 259.6 -260.5z" />
    <glyph glyph-name="omegatonos" unicode="&#x3ce;" horiz-adv-x="901" 
d="M532.6 758.6l-83.001 -152h-19.7998l80.4004 152h22.4004zM775.999 540c38.0996 -89.2002 59.0977 -187.901 59.0977 -276.701c0 -152 -61.7002 -272.5 -197.2 -272.5c-89.5098 0 -164.319 53.6396 -187.22 132.069
c-22.9805 -78.4297 -97.8604 -132.069 -187.28 -132.069c-136.4 0 -197.101 119.4 -197.101 271.5c0 88.7998 20.9004 187.3 59 277.7h21.4004c-38.2998 -88.5996 -60.3994 -190.1 -60.3994 -276.699c0 -159.9 65.9004 -252.9 178.9 -252.9
c98.4004 0 175.801 72.7002 175.801 166.4v187.4h19.2998v-187.4c0 -93.7002 77.4004 -166.4 175.7 -166.4c112.2 0 178.9 94.7002 178.9 253.9c0 86.5996 -22.0996 189 -60.1992 275.7h21.2998z" />
    <glyph glyph-name="alphatonos" unicode="&#x3ac;" horiz-adv-x="703" 
d="M417.5 758.6l-83.001 -152h-19.7998l80.4004 152h22.4004zM583.399 540h18.0889v-540h-18.4004l-1.58008 163.37c-38.3896 -103.57 -133.159 -173.57 -255.009 -173.57c-156.4 0 -274.601 121 -274.601 280.2c0 159.3 118.2 280.2 274.601 280.2
c121.87 0 216.65 -69.96 255.03 -173.57zM327.188 9.5c147 0 254.1 109.9 254.1 260.5s-107.1 260.5 -254.1 260.5c-145.2 0 -255.101 -112.7 -255.101 -260.5c0 -148.7 109.9 -260.5 255.101 -260.5z" />
    <glyph glyph-name="epsilontonos" unicode="&#x3ad;" horiz-adv-x="476" 
d="M312.9 758.6l-83.001 -152h-19.7998l80.4004 152h22.4004zM422.499 115.3l19.501 0.00195312c-18.9004 -75.7998 -92.7002 -125.5 -186.101 -125.5c-112.2 0 -192.9 66.4004 -192.9 159.101c0 64.7197 41 117.39 99.8896 136.399
c-53.5 17.3896 -89.4902 62.2197 -89.4902 120.3c0 82.5 76.5996 144.6 177.699 144.6c88.2002 0 158.2 -48.2998 175.2 -121.2h-19.2998c-17 62.2002 -77.7998 102.9 -155.6 102.9c-91 0 -158.4 -54.5 -158.4 -126.9c0 -62.2002 48.5996 -111.2 121.5 -111.2h102.2
v-17.7002h-103.1c-77.0996 0 -130.699 -59.4004 -130.699 -126.601c0 -81.9004 72.4004 -140.5 173 -140.5c84 0 148 42.7998 166.6 106.3z" />
    <glyph glyph-name="etatonos" unicode="&#x3ae;" horiz-adv-x="640" 
d="M407.8 758.6l-83.001 -152h-19.7998l80.4004 152h22.4004zM337.299 550.199c130.7 0 212.5 -89.7988 212.5 -231.599v-508.9h-20v506.7c0 133.1 -74.2002 214.6 -194.9 214.6c-114.3 0 -213.8 -98.5 -213.8 -212v-319h-20v540h17.2998l2.58984 -137.07
c34.3301 85.3799 120.4 147.27 216.311 147.27z" />
    <glyph glyph-name="zero" unicode="0" horiz-adv-x="611" 
d="M305.7 -10.2002c-149 0 -242.961 132.1 -242.961 342.67c0 211.5 93.8604 342.57 242.96 342.57c148.99 0 242.86 -131.07 242.86 -342.57c0 -210.57 -93.9697 -342.67 -242.859 -342.67zM305.699 9.09961c137.14 0 223.06 123.68 223.06 323.37
c0 200.08 -85.5996 323.271 -223.06 323.271c-137.56 0 -223.159 -123.19 -223.159 -323.271c0 -199.69 85.8096 -323.37 223.159 -323.37z" />
    <glyph glyph-name="one" unicode="1" horiz-adv-x="304" 
d="M23.2998 665h171.6v-665h-19.5996v646h-152v19z" />
    <glyph glyph-name="two" unicode="2" horiz-adv-x="502" 
d="M71.1797 19.2998h394.92v-19.2998h-426.5v15.4004c333.3 325.83 368.3 386.6 368.3 486.5c0 92 -64.7998 154 -162.5 154c-98.9004 0 -167.5 -63.9004 -167.5 -154.101v-18.7002h-19.7002v18.7002c0 103.6 79.5 173.399 187.2 173.399
c108.3 0 182.3 -70.0996 182.3 -173.3c0 -102.93 -36.3096 -168.489 -356.52 -482.6z" />
    <glyph glyph-name="three" unicode="3" horiz-adv-x="511" 
d="M242.4 403.5c124.7 -0.599609 215.9 -92.1982 215.9 -205.599c0 -121.6 -92.5 -208.1 -207.9 -208.1c-114.1 0 -198.699 78.7998 -207.399 189.1h19.5996c8.59961 -100.1 84.0996 -169.8 187.8 -169.8c107.7 0 188.101 81.2998 188.101 189.1
c0 105.1 -86.2002 187.199 -199 187.199h-50.9004v10.7002l214.9 250.8h-333.2v19h363.8v-11l-216.32 -251.4h24.6201z" />
    <glyph glyph-name="four" unicode="4" horiz-adv-x="519" 
d="M492.2 172.1l-0.000976562 -18.6992h-86.9004v-153.4h-19.5v153.4h-363.2v12.7998l250.9 503.3h21l-247.14 -497.4h338.44v255.8h19.5v-255.8h86.9004z" />
    <glyph glyph-name="five" unicode="5" horiz-adv-x="509" 
d="M243.4 404c125.9 0 218.3 -92.1992 218.3 -206.1c0 -121.5 -92.5 -208.1 -207.7 -208.1c-114.3 0 -199.1 79 -207.6 189.1h19.5996c8.5 -100 84.2002 -169.8 188 -169.8c107.5 0 187.9 81.2002 187.9 188.8c0 105 -86.2002 187.3 -198.8 187.3h-153l-6.59961 6.7998
l29.5 273.9h305.4v-19h-288.4l-26.2002 -242.9h139.6z" />
    <glyph glyph-name="six" unicode="6" horiz-adv-x="534" 
d="M277.5 409.8c125.2 0 220.699 -88.6982 220.699 -209.099c0 -122.2 -93.7002 -210.9 -221.9 -210.9c-127.5 0 -222.1 89.5996 -222.1 210.899c0 60.4004 27.7998 148.7 73.8994 232.601l134.8 241.3h21.5c-152.68 -275.81 -161.439 -290.55 -181.489 -344.58
c37.9004 49.0195 104.271 79.7793 174.591 79.7793zM276.199 9.10156c115.8 0 202.2 81.6016 202.2 191.602c0 110.1 -86.4004 190.699 -202.2 190.699s-202.2 -80.7002 -202.2 -190.7c0 -109.9 86.4004 -191.601 202.2 -191.601z" />
    <glyph glyph-name="seven" unicode="7" horiz-adv-x="472" 
d="M24.2002 665.9l421.5 -0.000976562v-9.59961l-270 -656.3h-23l268.04 646.9h-396.54v19z" />
    <glyph glyph-name="eight" unicode="8" horiz-adv-x="558" 
d="M348.9 360.19c92.0801 -21.2803 150.432 -89.7412 150.432 -182.841c0 -111.54 -89.4805 -187.64 -220.311 -187.64c-131.03 0 -220.21 75.7998 -220.21 187.64c0 92.8701 58.3096 161.23 150.47 182.83c-73.1104 21 -119.601 79.0703 -119.601 155.511
c0 94.8799 76.6504 159.16 189.33 159.16s189.229 -64.1797 189.229 -159.16c0 -76.6699 -46.5098 -134.9 -119.34 -155.5zM109.282 515.67c0 -91.71 72.7383 -147.02 169.738 -147.02c96.8604 0 169.641 55.2598 169.641 147.02
c0 83.7803 -67.5996 140.761 -169.64 140.761c-102.14 0 -169.739 -56.9805 -169.739 -140.761zM279.03 8.39062c120.4 0 200.51 68.4902 200.51 168.641c0 109.11 -85.1797 173.13 -200.51 173.13c-115.23 0 -200.41 -64.0195 -200.41 -173.13
c0 -100.15 80.1104 -168.641 200.41 -168.641z" />
    <glyph glyph-name="nine" unicode="9" horiz-adv-x="533" 
d="M257.2 675.2c127.4 0 221.9 -89.6016 221.9 -210.901c0 -60.4004 -27.5 -148.801 -73.7002 -232.601l-134.8 -240.7h-21.5c152.66 274.79 161.33 289.021 181.55 344.001c-37.7305 -48.9697 -103.98 -79.7998 -174.65 -79.7998c-126.1 0 -220.6 89.7002 -220.6 209.101
c0 122.2 93.7002 210.9 221.8 210.9zM257.3 273.698c115.7 0 202 80.6982 202 190.599s-86.2998 191.601 -202 191.601s-202.101 -81.5996 -202.101 -191.6s86.4004 -190.6 202.101 -190.6z" />
    <glyph glyph-name="zero.sinf" horiz-adv-x="353" 
d="M176.4 -104.2c-83.2998 0 -134.1 74.2998 -134.1 189.899c0 117.5 50.7998 189.8 134.1 189.8s134.1 -72.2998 134.1 -189.8c0 -115.6 -50.7998 -189.899 -134.1 -189.899zM176.4 -86.1006c71.5 0 115.901 64.8994 115.901 171.8c0 107.8 -43.5 171.7 -115.9 171.7
s-115.801 -63.9004 -115.801 -171.7c0 -106.8 44.2002 -171.8 115.8 -171.8z" />
    <glyph glyph-name="one.sinf" horiz-adv-x="177" 
d="M21.2998 267.6l93.5996 -0.000976562v-363.8h-17.2998v347.4h-76.2998v16.4004z" />
    <glyph glyph-name="two.sinf" horiz-adv-x="299" 
d="M69.0801 -78.2998l196.819 -0.00878906v-17.7998h-230.7v8.90039c178 176.6 197.2 210.199 197.2 263.799c0 48.0996 -34.4004 81.5996 -85.9004 81.5996c-51.7002 0 -88 -34.5 -88 -81.7002v-10.7002h-18v10.7002c0 57.5996 44.5 99.0996 105.9 99.0996
c61.2998 0 104.2 -40.7998 104.2 -99c0 -60.4697 -29.9697 -102.89 -181.52 -254.89z" />
    <glyph glyph-name="three.sinf" horiz-adv-x="306" 
d="M147.7 127.7c69.7998 -0.599609 121.201 -51.3984 121.201 -115.698c0 -68.5996 -52.4004 -116.199 -116.801 -116.199c-64.9004 0 -111.7 44.7002 -117.3 106h17.9004c5.59961 -51.9004 45.6992 -88.4004 99.3994 -88.4004c56.7002 0 98.7998 42.0996 98.7998 98.8994
c0 55.7998 -45.9004 98.7002 -105.601 98.7002h-38.5996v7.59961l117.96 131.6h-174.56v17.2998h204.8v-6.90039l-119.63 -132.9h12.4297z" />
    <glyph glyph-name="four.sinf" horiz-adv-x="312" 
d="M283.9 2.2998v-17.2002h-44.9004v-81.2998h-17.7998v81.2998h-194.9v11.2002l136 271.3h19l-133.28 -265.3h173.23l1.34961 135.6h16.4004v-135.6h44.9004z" />
    <glyph glyph-name="five.sinf" horiz-adv-x="297" 
d="M143.6 120.9c69.0996 0 118.8 -49.3008 118.8 -112.4c0 -65.7998 -49.7998 -112.6 -113 -112.6c-62.5 0 -109.5 42.0996 -113.1 103.3h18c4.59961 -51 42.0996 -85.7998 95.0996 -85.7998c54.7002 0 94.9004 40.2998 94.9004 95.0996
c0 54.9004 -43.0996 95.3008 -100.8 95.3008h-88.9004l-5.2002 5.5l18.2998 158.3h171.4v-17.2998h-156.16l-14.7803 -129.4h75.4404z" />
    <glyph glyph-name="six.sinf" horiz-adv-x="307" 
d="M157.7 123.2c69.0996 0 119.699 -48.1992 119.699 -112.999c0 -66.4004 -50.9004 -114.301 -121.2 -114.301c-68.7002 0 -120.5 48.7002 -120.5 114.3c0 32.2002 15.5 80 40 125.5l76.9004 140h20.7002l-78.7998 -144
c-7.16992 -13.2305 -13.4199 -26.1504 -18.7695 -39.1201c20.3799 18.75 50.2295 30.6201 81.9697 30.6201zM156.101 -86.499c58.2002 0 103.3 39.5996 103.3 96.6992c0 57 -45.0996 96.7002 -103.3 96.7002c-58.0996 0 -102.399 -39.7002 -102.399 -96.7002
c0 -57.0996 44.2998 -96.6992 102.399 -96.6992z" />
    <glyph glyph-name="seven.sinf" horiz-adv-x="277" 
d="M23.0996 267.6h231.3v-4.59961l-147 -359.2h-19.2002l142.17 346.5h-207.27v17.2998z" />
    <glyph glyph-name="eight.sinf" horiz-adv-x="327" 
d="M210.69 101.64c46.6602 -14.5596 75.5098 -50.4492 75.5098 -100.239c0 -62.7998 -50.7002 -105.6 -122.9 -105.6s-122.8 42.7998 -122.8 105.6c0 50.2402 28.4902 86.3105 75.8506 99.8906c-35.5996 13.5898 -58.5498 44.1094 -58.5498 83.4092
c0 53.9004 43 90.8008 105.6 90.8008c62.5 0 105.5 -36.9004 105.5 -90.8008c0 -38.9199 -22.5996 -69.4004 -58.21 -83.0605zM75.7002 184.6c0 -46 35.6992 -75.9004 87.6992 -75.9004c51.9004 0 87.6006 29.9004 87.6006 75.9004
c0 44.0996 -34.7998 74.0996 -87.5996 74.0996c-52.9004 0 -87.7002 -30 -87.7002 -74.0996zM163.399 -87c63.4004 0 104.801 36.5 104.801 88.4004c0 54.7002 -41.4004 90.4004 -104.801 90.4004s-104.9 -35.7002 -104.9 -90.4004c0 -51.9004 41.5 -88.4004 104.9 -88.4004
z" />
    <glyph glyph-name="nine.sinf" horiz-adv-x="307" 
d="M150.7 275.6c68.7002 0 120.5 -48.7002 120.5 -114.3c0 -32.2002 -14.5996 -80 -40 -125.5l-76.9004 -140h-20.7002l78.7998 144c7.13965 13.1797 13.3701 26.0498 18.71 38.9795c-20.3701 -18.6904 -50.2002 -30.4805 -81.9102 -30.4805
c-69.0996 0 -119.699 48.2002 -119.699 113c0 66.4004 50.9004 114.301 121.2 114.301zM150.8 64.5996c58.0996 0 102.399 39.5996 102.399 96.6992s-44.2998 96.6992 -102.399 96.6992c-58.2002 0 -103.3 -39.5996 -103.3 -96.6992s45.0996 -96.6992 103.3 -96.6992z" />
    <glyph glyph-name="zero.tf" horiz-adv-x="544" 
d="M271.8 -10.2002c-150 0 -244.6 133 -244.6 345c0 213 94.5 345 244.6 345c150 0 244.5 -132 244.5 -345c0 -212 -94.5996 -345 -244.5 -345zM271.8 9.2002c138.2 0 224.699 123.9 224.699 325.601s-86.5 325.601 -224.7 325.601c-138.3 0 -224.8 -123.9 -224.8 -325.601
s86.4004 -325.601 224.801 -325.601z" />
    <glyph glyph-name="one.tf" horiz-adv-x="544" 
d="M300 19h180.5v-19h-392.3v19h192v627h-171.9v19h191.7v-646z" />
    <glyph glyph-name="two.tf" horiz-adv-x="544" 
d="M83.7002 19.2998l412.001 -0.000976562v-19.2998h-443.9v15.4004c327 309.2 386.3 386.9 386.3 494c0 92.9004 -68.4004 153.9 -171.5 153.9c-104.3 0 -176.5 -63.7998 -176.5 -154v-20.5h-19.7002v20.5c0 101.8 81.2998 173.399 196.2 173.399
c114.6 0 191.3 -70.0996 191.3 -173.3c0 -110.89 -60.9697 -193.159 -374.2 -490.1z" />
    <glyph glyph-name="three.tf" horiz-adv-x="544" 
d="M258.7 407.1c130.1 -0.400391 225 -93.0996 225 -207.399c0 -122.5 -96.2002 -209.9 -217 -209.9c-118.7 0 -207.8 79.7002 -216.5 190.9h19.5996c8.59961 -100.9 87.6992 -171.5 196.899 -171.5c113.2 0 197.2 82.2002 197.2 190.8c0 106 -89.7998 189 -208.1 189
h-50.9004v10.7998l222.96 246.2h-350.26v19h381.8v-11l-224.68 -246.9h23.9805z" />
    <glyph glyph-name="four.tf" horiz-adv-x="544" 
d="M505.7 172.1v-18.6992h-87.0996v-153.4h-19.2998v153.4h-363.2v12.7998l249.1 498.8h20.7998l-245.52 -492.9h338.82v255.8h19.2998v-255.8h87.0996z" />
    <glyph glyph-name="five.tf" horiz-adv-x="544" 
d="M260.2 407.6c131.3 0 227.299 -94 227.299 -209.7c0 -121.5 -96.0996 -208.1 -216.699 -208.1c-118.9 0 -208.2 79.9004 -216.7 190.9h19.7002c8.5 -100.8 87.7998 -171.5 197 -171.5c112.9 0 196.9 81.2002 196.9 188.7c0 106.8 -89.7998 190.899 -207.8 190.899h-160.9
l-7.7002 6.7998l29.5 269.4h323.4v-18.9004h-306.41l-26.1797 -238.5h148.59z" />
    <glyph glyph-name="six.tf" horiz-adv-x="544" 
d="M282 410.7c126.1 0 220.702 -89.3984 220.702 -209.099c0 -122.2 -93.7002 -210.9 -221.9 -210.9c-127.5 0 -222.1 89.5996 -222.1 210.899c0 60.4004 28.5996 148.801 73.8994 232.601l134.8 245.5h21.5c-153.04 -279.76 -161.48 -293.96 -181.631 -348.94
c37.7998 49.0498 104.17 79.9395 174.729 79.9395zM280.703 10.1025c115.8 0 202.2 81.5996 202.2 191.5s-86.4004 190.5 -202.2 190.5s-202.2 -80.7002 -202.2 -190.5s86.4004 -191.5 202.2 -191.5z" />
    <glyph glyph-name="seven.tf" horiz-adv-x="544" 
d="M56.7002 665h428.7v-9.59961l-277.2 -655.4h-22.7002l275.24 646h-404.04v19z" />
    <glyph glyph-name="eight.tf" horiz-adv-x="544" 
d="M339.99 364.13c93.8701 -21.6797 153.51 -89.7783 153.51 -184.429c0 -112 -89.9004 -189.9 -221.801 -189.9c-132.1 0 -221.699 77.5996 -221.699 189.899c0 94.54 59.7598 162.61 153.89 184.44c-75.2002 20.8496 -122.79 78.1895 -122.79 156.459
c0 96.2002 76.2002 162.101 190.601 162.101s190.5 -65.7998 190.5 -162.1c0 -78.3398 -47.4404 -135.78 -122.21 -156.471zM100.7 520.601c0 -89 69 -148.2 171 -148.2s171 59.2002 171 148.2c0 85.4004 -68.0996 143.7 -171 143.7s-171 -58.2998 -171 -143.7z
M271.7 8.50098c121.3 0 202 69.9004 202 170.9c0 105.5 -80.7002 174.5 -202 174.5s-202 -69 -202 -174.5c0 -101 80.7002 -170.9 202 -170.9z" />
    <glyph glyph-name="nine.tf" horiz-adv-x="544" 
d="M262.8 680c127.5 0 222.102 -89.5996 222.102 -210.899c0 -60.4004 -27.7002 -148.7 -73.9004 -232.601l-134.8 -245.5h-21.5c152.97 279.63 161.47 294.02 181.6 348.89c-37.8604 -49.1504 -104.221 -79.8906 -174.701 -79.8906c-125.1 0 -220.8 88.7002 -220.8 209.101
c0 122.2 93.7998 210.9 222 210.9zM262.901 278.6c115.8 0 202.3 80.7002 202.3 190.5s-86.5 191.5 -202.3 191.5s-202.3 -81.5996 -202.3 -191.5s86.5 -190.5 202.3 -190.5z" />
    <glyph glyph-name="zero.dnom" horiz-adv-x="353" 
d="M176.4 -8c-83.2998 0 -134.1 74.2998 -134.1 189.899c0 117.5 50.7998 189.8 134.1 189.8s134.1 -72.2998 134.1 -189.8c0 -115.6 -50.7998 -189.899 -134.1 -189.899zM176.4 10.0996c71.5 0 115.901 64.8994 115.901 171.8c0 107.8 -43.5 171.7 -115.9 171.7
s-115.801 -63.9004 -115.801 -171.7c0 -106.8 44.2002 -171.8 115.8 -171.8z" />
    <glyph glyph-name="one.dnom" horiz-adv-x="177" 
d="M21.2998 363.8l93.5996 -0.000976562v-363.8h-17.2998v347.4h-76.2998v16.4004z" />
    <glyph glyph-name="two.dnom" horiz-adv-x="299" 
d="M69.0801 17.7998l196.819 -0.00878906v-17.7998h-230.7v8.90039c178 176.6 197.2 210.199 197.2 263.799c0 48.0996 -34.4004 81.5996 -85.9004 81.5996c-51.7002 0 -88 -34.5 -88 -81.7002v-10.7002h-18v10.7002c0 57.5996 44.5 99.0996 105.9 99.0996
c61.2998 0 104.2 -40.7998 104.2 -99c0 -60.4697 -29.9697 -102.89 -181.52 -254.89z" />
    <glyph glyph-name="three.dnom" horiz-adv-x="306" 
d="M147.7 224c69.7998 -0.599609 121.201 -51.3984 121.201 -115.698c0 -68.5996 -52.4004 -116.199 -116.801 -116.199c-64.9004 0 -111.7 44.7002 -117.3 106h17.9004c5.59961 -51.9004 45.6992 -88.4004 99.3994 -88.4004c56.7002 0 98.7998 42.0996 98.7998 98.8994
c0 55.7998 -45.9004 98.7002 -105.601 98.7002h-38.5996v7.59961l117.96 131.6h-174.56v17.2998h204.8v-6.90039l-119.63 -132.9h12.4297z" />
    <glyph glyph-name="four.dnom" horiz-adv-x="312" 
d="M284 98.5v-17.2002h-44.9004v-81.2998h-17.7998v81.2998h-194.9v11.2002l136 271.3h19l-133.28 -265.3h173.23l1.34961 135.6h16.4004v-135.6h44.9004z" />
    <glyph glyph-name="five.dnom" horiz-adv-x="297" 
d="M143.6 217.1c69.0996 0 118.8 -49.3008 118.8 -112.4c0 -65.7998 -49.7998 -112.6 -113 -112.6c-62.5 0 -109.5 42.0996 -113.1 103.3h18c4.59961 -51 42.0996 -85.7998 95.0996 -85.7998c54.7002 0 94.9004 40.2998 94.9004 95.0996
c0 54.9004 -43.0996 95.3008 -100.8 95.3008h-88.9004l-5.2002 5.5l18.2998 158.3h171.4v-17.2998h-156.16l-14.7803 -129.4h75.4404z" />
    <glyph glyph-name="six.dnom" horiz-adv-x="307" 
d="M157.7 219.4c69.0996 0 119.699 -48.1992 119.699 -112.999c0 -66.4004 -50.9004 -114.301 -121.2 -114.301c-68.7002 0 -120.5 48.7002 -120.5 114.3c0 32.2002 15.5 80 40 125.5l76.9004 140h20.7002l-78.7998 -144
c-7.16992 -13.2305 -13.4199 -26.1504 -18.7695 -39.1201c20.3799 18.75 50.2295 30.6201 81.9697 30.6201zM156.101 9.70117c58.2002 0 103.3 39.5996 103.3 96.6992c0 57 -45.0996 96.7002 -103.3 96.7002c-58.0996 0 -102.399 -39.7002 -102.399 -96.7002
c0 -57.0996 44.2998 -96.6992 102.399 -96.6992z" />
    <glyph glyph-name="seven.dnom" horiz-adv-x="277" 
d="M24 363.8h231.3v-4.59961l-147 -359.2h-19.2002l142.17 346.5h-207.27v17.2998z" />
    <glyph glyph-name="eight.dnom" horiz-adv-x="327" 
d="M210.69 197.94c46.6602 -14.5596 75.5098 -50.4492 75.5098 -100.239c0 -62.7998 -50.7002 -105.6 -122.9 -105.6s-122.8 42.7998 -122.8 105.6c0 50.2402 28.4902 86.3105 75.8506 99.8906c-35.5996 13.5898 -58.5498 44.1094 -58.5498 83.4092
c0 53.9004 43 90.8008 105.6 90.8008c62.5 0 105.5 -36.9004 105.5 -90.8008c0 -38.9199 -22.5996 -69.4004 -58.21 -83.0605zM75.7002 280.9c0 -46 35.6992 -75.9004 87.6992 -75.9004c51.9004 0 87.6006 29.9004 87.6006 75.9004
c0 44.0996 -34.7998 74.0996 -87.5996 74.0996c-52.9004 0 -87.7002 -30 -87.7002 -74.0996zM163.399 9.30078c63.4004 0 104.801 36.5 104.801 88.4004c0 54.7002 -41.4004 90.4004 -104.801 90.4004s-104.9 -35.7002 -104.9 -90.4004
c0 -51.9004 41.5 -88.4004 104.9 -88.4004z" />
    <glyph glyph-name="nine.dnom" horiz-adv-x="307" 
d="M150.7 371.7c68.7002 0 120.5 -48.7002 120.5 -114.3c0 -32.2002 -14.5996 -80 -40 -125.5l-76.9004 -140h-20.7002l78.7998 144c7.13965 13.1797 13.3701 26.0498 18.71 38.9795c-20.3701 -18.6904 -50.2002 -30.4805 -81.9102 -30.4805
c-69.0996 0 -119.699 48.2002 -119.699 113c0 66.4004 50.9004 114.301 121.2 114.301zM150.8 160.7c58.0996 0 102.399 39.5996 102.399 96.6992s-44.2998 96.6992 -102.399 96.6992c-58.2002 0 -103.3 -39.5996 -103.3 -96.6992s45.0996 -96.6992 103.3 -96.6992z" />
    <glyph glyph-name="zero.numr" horiz-adv-x="353" 
d="M176.4 328.3c-83.2998 0 -134.1 74.2998 -134.1 189.899c0 117.5 50.7998 189.8 134.1 189.8s134.1 -72.2998 134.1 -189.8c0 -115.6 -50.7998 -189.899 -134.1 -189.899zM176.4 346.399c71.5 0 115.901 64.8994 115.901 171.8c0 107.8 -43.5 171.7 -115.9 171.7
s-115.801 -63.9004 -115.801 -171.7c0 -106.8 44.2002 -171.8 115.8 -171.8z" />
    <glyph glyph-name="one.numr" horiz-adv-x="177" 
d="M20.4004 700l93.5996 -0.000976562v-363.8h-17.2998v347.4h-76.2998v16.4004z" />
    </font>
</defs>
</svg>
