<?xml version="1.0" standalone="no"?>
<!DOCTYPE svg PUBLIC "-//W3C//DTD SVG 1.1//EN" "http://www.w3.org/Graphics/SVG/1.1/DTD/svg11.dtd" >
<svg xmlns="http://www.w3.org/2000/svg" xmlns:xlink="http://www.w3.org/1999/xlink" version="1.1">
<metadata>
Created by FontForge 20201107 at Mon Jan 29 11:06:09 2018
 By Jimmy Wärting
Modern and elegant sans serif font family.
</metadata>
<defs>
<font id="Mont-Light" horiz-adv-x="0" >
  <font-face 
    font-family="Mont Light"
    font-weight="400"
    font-stretch="normal"
    units-per-em="1000"
    panose-1="0 0 5 0 0 0 0 0 0 0"
    ascent="800"
    descent="-200"
    x-height="540"
    cap-height="700"
    bbox="-800 -296.63 1101.4 975.19"
    underline-thickness="50"
    underline-position="-100"
    stemh="46"
    stemv="50"
    unicode-range="U+0020-25CA"
  />
<missing-glyph horiz-adv-x="461" 
d="M378.34 731.39v-922.78h-292.52v922.78h292.52zM307.28 669.56h-152.26v-30.4502h59.9805v-34.1504h-60.9004v-30.4502h153.18v30.4502h-60.9004v34.1504h60.9004v30.4502zM246.381 550.52h-92.2793v-95.9697h153.18v31.3799h-60.9004v64.5898zM215.002 519.149v-33.2197
h-30.4502v33.2197h30.4502zM307.282 429.64l-153.181 0.000976562v-30.4502h60.9004v-34.1504h-60.9004v-30.4502h92.2803v64.5996h60.9004v30.4502zM307.281 374.271h-30.4492v-60.9004h-122.73v-31.3799h153.18v92.2803zM307.282 261.69h-92.2793v-51.6699h31.3799
v21.2197h30.4502v-43.3701h-92.2803v73.8203h-30.4502v-104.27h153.18v104.27zM307.283 102.051h-153.18v-104.27h153.18v104.27zM276.834 71.6006v-43.3701h-92.2803v43.3701h92.2803zM307.284 -23.4395h-153.18v-30.46h64.5996l-64.5996 -43.3701v-30.4502h153.18v30.4502
h-94.1201l64.5898 43.3701h29.5303v30.46z" />
    <glyph glyph-name="f_f.liga" unicode="ff" horiz-adv-x="709" 
d="M695.67 538.15l-0.000976562 -42.04h-183.5v-496.09h-49v496.09h-285.26v-496.09h-49v496.09h-113.6v42.0596h113.6v42.9199c0 122.07 49.2402 173.07 174.08 173.07h57.96v-40.6797h-50.0996c-99.4102 0 -134.33 -34.4502 -134.33 -133.32v-42h286.65v42.9199
c0 122.07 49.2402 173.07 174.08 173.07h57.96v-40.6797h-50.0996c-99.4102 0 -134.32 -34.4502 -134.32 -133.32v-42h184.88z" />
    <glyph glyph-name="f_f_t.liga" unicode="fft" horiz-adv-x="1032" 
d="M946.96 45.7598l67.1504 0.0185547v-45.7598h-72.2402c-105.64 0 -170.04 65.4004 -170.04 172.11v323.98h-259.66v-496.09h-49v496.09h-285.26v-496.09h-49v496.09h-113.6v42.0596h113.6v42.9199c0 122.07 49.2402 173.07 174.08 173.07h57.96v-40.6797h-50.0996
c-99.4102 0 -134.33 -34.4502 -134.33 -133.32v-42h286.65v42.9199c0 122.07 49.2402 173.07 174.08 173.07h46.3496v-40.6797h-38.4902c-99.4102 0 -134.32 -34.4502 -134.32 -133.32v-42h261.04v159.54h49v-159.54h189.67v-42.0596h-189.67v-321.67
c0 -81.21 45.46 -128.66 126.13 -128.66z" />
    <glyph glyph-name="f_t.liga" unicode="ft" horiz-adv-x="720" 
d="M634.31 45.7598l67.1494 0.00976562v-45.7598h-72.2402c-105.64 0 -170.029 64.4004 -170.029 170.57v325.52h-281.28v-496.09h-49v496.09h-113.6v42.0596h113.6v42.9199c0 122.07 49.2402 173.07 174.08 173.07h57.96v-40.6797h-50.0996
c-99.4102 0 -134.33 -34.4502 -134.33 -133.32v-42h282.67v159.54h49v-159.54h190.2v-42.0596h-190.2v-323.21c0 -80.6699 45.4502 -127.12 126.12 -127.12z" />
    <glyph glyph-name="f_t_t.liga" unicode="ftt" horiz-adv-x="1078" 
d="M990.48 45.7598l67.1592 0.0107422v-45.7598h-72.7002c-105.18 0 -169.58 64.4004 -169.58 170.57v325.52h-307.65v-323.21c0 -80.6699 45.4502 -127.12 126.12 -127.12h67.1504v-45.7598h-72.2305c-105.64 0 -170.04 64.4004 -170.04 170.57v325.52h-280.8v-496.09h-49
v496.09h-113.6v42.0596h113.6v47.5498c0 122.06 49.2402 173.06 174.08 173.06h57.96v-40.6699h-50.0996c-99.4102 0 -134.33 -34.4502 -134.33 -133.33v-46.6201h282.19v159.54h49v-159.54h307.65v159.54h49v-159.54h192.28v-42.0596h-192.28v-323.21
c0 -80.6699 45.4502 -127.12 126.12 -127.12z" />
    <glyph glyph-name="r_f.liga" unicode="rf" horiz-adv-x="770" 
d="M756.89 540v-42.9805h-183.5v-497.01h-49v497.01h-113.6v42.9902h113.6v41.0703c0 122.07 49.2305 173.07 174.07 173.07h57.96v-40.6797h-50.0996c-99.4102 0 -134.32 -34.4502 -134.32 -133.32v-40.1504h184.89zM139.42 432.3
c36.0596 67.6396 99.1006 108.239 184.9 108.239h46.9297v-45.7598h-50.6299c-108.28 -0.919922 -177.41 -80.7295 -177.41 -194.64v-300.13h-49v540h36.5098z" />
    <glyph glyph-name="t_f.liga" unicode="tf" horiz-adv-x="694" 
d="M680.77 538.15l-0.000976562 -42.0518h-183.5v-496.09h-49v496.09h-296.03v-322.59c0 -81.2197 45.4502 -127.739 126.58 -127.739h59.4697v-45.7598h-65.0195c-105.64 0 -170.029 64.9404 -170.029 172.11v323.98h-91.2402v9.30957l131.46 131.63h8.78027v-98.8799
h296.03v52.9199c0 122.07 49.2402 173.07 174.08 173.07h57.96v-40.6797h-50.0996c-99.4102 0 -134.33 -34.4502 -134.33 -133.32v-52h184.89z" />
    <glyph glyph-name=".notdef" horiz-adv-x="461" 
d="M378.34 731.39v-922.78h-292.52v922.78h292.52zM307.28 669.56h-152.26v-30.4502h59.9805v-34.1504h-60.9004v-30.4502h153.18v30.4502h-60.9004v34.1504h60.9004v30.4502zM246.381 550.52h-92.2793v-95.9697h153.18v31.3799h-60.9004v64.5898zM215.002 519.149v-33.2197
h-30.4502v33.2197h30.4502zM307.282 429.64l-153.181 0.000976562v-30.4502h60.9004v-34.1504h-60.9004v-30.4502h92.2803v64.5996h60.9004v30.4502zM307.281 374.271h-30.4492v-60.9004h-122.73v-31.3799h153.18v92.2803zM307.282 261.69h-92.2793v-51.6699h31.3799
v21.2197h30.4502v-43.3701h-92.2803v73.8203h-30.4502v-104.27h153.18v104.27zM307.283 102.051h-153.18v-104.27h153.18v104.27zM276.834 71.6006v-43.3701h-92.2803v43.3701h92.2803zM307.284 -23.4395h-153.18v-30.46h64.5996l-64.5996 -43.3701v-30.4502h153.18v30.4502
h-94.1201l64.5898 43.3701h29.5303v30.46z" />
    <glyph glyph-name="A" unicode="A" horiz-adv-x="686" 
d="M608.48 0l-81.9297 191.49h-369.76l-80.6396 -191.49h-53.7002l293.6 700h45.46l301.6 -700h-54.6299zM339.561 629.2l-163.4 -391.03h330.74z" />
    <glyph glyph-name="Aacute" unicode="&#xc1;" horiz-adv-x="686" 
d="M444.05 923.22l-94.3096 -142h-40.8301l82.29 142h52.8496zM608.48 -0l-81.9297 191.49h-369.76l-80.6396 -191.49h-53.7002l293.6 700h45.46l301.6 -700h-54.6299zM339.561 629.2l-163.4 -391.03h330.74z" />
    <glyph glyph-name="Abreve" unicode="&#x102;" horiz-adv-x="686" 
d="M339.94 774.61c-88.0898 0 -146.789 54.3896 -146.789 148.609h39.75v-1.91992c0 -72.3496 43.1396 -111.569 107.04 -111.569c64.4297 0 106.109 39.2197 106.109 111.569v1.91992h40.6699c0 -94.2197 -58.7002 -148.609 -146.78 -148.609zM608.481 0l-81.9297 191.49
h-369.76l-80.6396 -191.49h-53.7002l293.6 700h45.46l301.6 -700h-54.6299zM339.562 629.2l-163.4 -391.03h330.74z" />
    <glyph glyph-name="Acircumflex" unicode="&#xc2;" horiz-adv-x="686" 
d="M339.13 893.44l-102.63 -112.22h-45.5303l120.15 142h56.6299l120.69 -142h-45.5303zM608.48 0.000976562l-81.9297 191.49h-369.76l-80.6396 -191.49h-53.7002l293.6 700h45.46l301.6 -700h-54.6299zM339.561 629.201l-163.4 -391.03h330.74z" />
    <glyph glyph-name="Adieresis" unicode="&#xc4;" horiz-adv-x="686" 
d="M203.74 808.73v69.1396h64.2197v-69.1396h-64.2197zM411.45 808.73v69.1396h64.2305v-69.1396h-64.2305zM608.49 0.00976562l-81.9395 191.49h-369.75l-80.6396 -191.49h-53.7002l293.6 700h45.46l301.6 -700h-54.6299zM339.561 629.22l-163.4 -391.03h330.74z" />
    <glyph glyph-name="Agrave" unicode="&#xc0;" horiz-adv-x="686" 
d="M324.67 781.22l-94.3096 142h52.8496l82.29 -142h-40.8301zM608.48 -0l-81.9297 191.49h-369.76l-80.6396 -191.49h-53.7002l293.6 700h45.46l301.6 -700h-54.6299zM339.561 629.2l-163.4 -391.03h330.74z" />
    <glyph glyph-name="Amacron" unicode="&#x100;" horiz-adv-x="686" 
d="M184.47 826.87v43.4502h313v-43.4502h-313zM608.479 0l-81.9297 191.49h-369.76l-80.6396 -191.49h-53.7002l293.6 700h45.46l301.6 -700h-54.6299zM339.56 629.2l-163.4 -391.03h330.74z" />
    <glyph glyph-name="Aogonek" unicode="&#x104;" horiz-adv-x="686" 
d="M629.76 -189.73c16.3896 0 32.2402 2.46973 46.7002 8.38965v-32.4199c-18.1602 -7.70996 -38.71 -11.5498 -58.2598 -11.5498c-66.1699 0 -110.87 38.8496 -110.87 95.0801c0 54.6201 39.4502 108.19 97.4004 139.011l-78.1797 182.71h-369.76l-80.6396 -191.49
h-53.7002l293.6 700h45.46l296.63 -688.46l6.96973 -11.54c-73.4902 -23.1504 -118.49 -70.3701 -118.49 -120.521c0 -41.9102 32.2998 -69.21 83.1396 -69.21zM339.561 629.199l-163.4 -391.03h330.74z" />
    <glyph glyph-name="Aring" unicode="&#xc5;" horiz-adv-x="686" 
d="M339.69 763.4c-65.7002 0 -110.97 43.7695 -110.97 106.13c0 62.8203 45.2695 105.66 110.97 105.66c65.2402 0 110.51 -42.8398 110.51 -105.66c0 -62.3604 -45.2695 -106.13 -110.51 -106.13zM339.69 795.69c45.0596 0 75.9092 29.8096 75.9092 73.8398
c0 44.4902 -30.8496 73.8398 -75.9092 73.8398c-45.5195 0 -76.3691 -29.3496 -76.3691 -73.8398c0 -44.0303 30.8496 -73.8398 76.3691 -73.8398zM608.48 0l-81.9297 191.49h-369.76l-80.6396 -191.49h-53.7002l293.6 700h45.46l301.6 -700h-54.6299zM339.561 629.2
l-163.4 -391.03h330.74z" />
    <glyph glyph-name="Atilde" unicode="&#xc3;" horiz-adv-x="686" 
d="M412.94 789.82c-38.1797 0 -62.4229 18.4785 -92.4033 51.7686c-25.6797 28.9697 -42.29 41.8896 -65.0498 41.8896c-32.4502 0 -55.2197 -29.9805 -55.2197 -77.04v-11h-32.8096v12.3799c0 67.4805 33.2402 112.181 87.5605 112.181
c36.9404 0 59.4004 -17.6299 88.9307 -51.0596c24.9902 -28.75 42.5205 -42.5996 68.5205 -42.5996c33.4502 0 54.75 28.9805 54.75 77.0508v9h33.2803v-9.92969c0 -67.9404 -34.1699 -112.641 -87.5596 -112.641zM608.478 -0.00195312l-81.9297 191.49h-369.76
l-80.6396 -191.49h-53.7002l293.6 700h45.46l301.6 -700h-54.6299zM339.558 629.198l-163.4 -391.03h330.74z" />
    <glyph glyph-name="AE" unicode="&#xc6;" horiz-adv-x="874" 
d="M481.79 48.5303l344.56 0.000976562v-48.5303h-394.95v172.96h-278.34l-105.05 -172.96h-59.79l426.53 700h400.6v-48.0801h-333.56v-267.73h306.48v-47.1504h-306.48v-288.51zM181.409 219.651h249.99v411.6z" />
    <glyph glyph-name="AEacute" unicode="&#x1fc;" horiz-adv-x="874" 
d="M589.54 923.22l-94.3193 -142h-40.8203l82.29 142h52.8496zM481.791 48.5293l344.56 0.000976562v-48.5303h-394.95v172.96h-278.34l-105.05 -172.96h-59.79l426.53 700h400.6v-48.0801h-333.56v-267.73h306.48v-47.1504h-306.48v-288.51zM181.41 219.65h249.99v411.6z
" />
    <glyph glyph-name="B" unicode="B" horiz-adv-x="644" 
d="M459.21 367.02c72.3203 -24.1797 122.271 -94.0615 122.271 -176.172c0 -106.31 -84.9404 -190.85 -207.091 -190.85h-270.71v700h268.86c111.77 0 188.779 -75.3896 188.779 -172.479c0 -69.6396 -41.6699 -134.239 -102.11 -160.499zM376.53 650.527
l-222.931 -0.0107422v-259.66h226.69c73.4404 0 129.73 60.6602 129.73 130.641c0 72.5898 -58.9004 129.03 -133.49 129.03zM378.84 49.9062c85.2695 0 150.859 63.2109 150.859 146.021c0 81.2695 -65.0498 145.47 -148.17 145.47h-227.93v-291.49h225.24z" />
    <glyph glyph-name="C" unicode="C" horiz-adv-x="778" 
d="M410.3 -10.46c-208.54 0 -357.39 150.471 -357.39 359.931s149.39 361 357.39 361c156.55 0 280.03 -88.3301 325.48 -229.51h-51.8496c-43.5195 112.44 -144.42 180.04 -273.62 180.04c-177.8 0 -306.08 -129.81 -306.08 -311.54
c0 -181.72 127.74 -310.46 306.08 -310.46c132.74 0 235.71 71.5996 278.77 191.649h51.3096c-44.9102 -149.25 -170 -241.11 -330.09 -241.11z" />
    <glyph glyph-name="Cacute" unicode="&#x106;" horiz-adv-x="778" 
d="M373.2 781.23l82.2803 142h52.8496l-94.3096 -142h-40.8203zM410.29 -10.46c-208.54 0 -357.39 150.471 -357.39 359.931s149.39 361 357.39 361c156.55 0 280.03 -88.3301 325.48 -229.51h-51.8496c-43.5195 112.44 -144.42 180.04 -273.62 180.04
c-177.8 0 -306.08 -129.81 -306.08 -311.54c0 -181.72 127.74 -310.46 306.08 -310.46c132.74 0 235.71 71.5996 278.77 191.649h51.3096c-44.9102 -149.25 -170 -241.11 -330.09 -241.11z" />
    <glyph glyph-name="Ccaron" unicode="&#x10c;" horiz-adv-x="778" 
d="M507.2 923.23h45.5312l-120.69 -142h-56.6201l-120.15 142h45.5195l102.63 -112.22zM410.302 -10.46c-208.54 0 -357.39 150.471 -357.39 359.931s149.39 361 357.39 361c156.55 0 280.03 -88.3301 325.48 -229.51h-51.8496
c-43.5195 112.44 -144.42 180.04 -273.62 180.04c-177.8 0 -306.08 -129.81 -306.08 -311.54c0 -181.72 127.74 -310.46 306.08 -310.46c132.74 0 235.71 71.5996 278.77 191.649h51.3096c-44.9102 -149.25 -170 -241.11 -330.09 -241.11z" />
    <glyph glyph-name="Ccedilla" unicode="&#xc7;" horiz-adv-x="778" 
d="M740.39 230.65c-44.0596 -146.41 -165.259 -237.59 -320.979 -241.01l-12.1396 -43.0996c56.8096 -4.5498 97.2793 -40.3096 97.2793 -89.1396c0 -52.7002 -47.7002 -90.5498 -112.79 -90.5498h-64.2402v32.3496h63.7803c42.9004 0 73.04 23.9902 73.04 58.6699
c0 33.6699 -30.6797 58.6602 -74.5801 58.6602h-18.3203l-5.7002 8.08984l17.4502 65.79c-194.21 12.46 -330.28 158.79 -330.28 359.06c0 209.46 149.39 361 357.39 361c156.55 0 280.03 -88.3301 325.48 -229.51h-51.8496c-43.5195 112.44 -144.42 180.04 -273.62 180.04
c-177.8 0 -306.08 -129.81 -306.08 -311.54c0 -181.72 127.74 -310.46 306.08 -310.46c132.74 0 235.71 71.5996 278.77 191.649h51.3096z" />
    <glyph glyph-name="Ccircumflex" unicode="&#x108;" horiz-adv-x="778" 
d="M552.73 781.23h-45.541l-103.78 112.22l-102.63 -112.22h-45.5195l120.15 142h56.6299zM410.289 -10.46c-208.54 0 -357.39 150.471 -357.39 359.931s149.39 361 357.39 361c156.55 0 280.03 -88.3301 325.48 -229.51h-51.8496
c-43.5195 112.44 -144.42 180.04 -273.62 180.04c-177.8 0 -306.08 -129.81 -306.08 -311.54c0 -181.72 127.74 -310.46 306.08 -310.46c132.74 0 235.71 71.5996 278.77 191.649h51.3096c-44.9102 -149.25 -170 -241.11 -330.09 -241.11z" />
    <glyph glyph-name="Cdotaccent" unicode="&#x10a;" horiz-adv-x="778" 
d="M372.11 808.73v69.1396h64.2197v-69.1396h-64.2197zM410.301 -10.46c-208.54 0 -357.39 150.471 -357.39 359.931s149.39 361 357.39 361c156.55 0 280.03 -88.3301 325.48 -229.51h-51.8496c-43.5195 112.44 -144.42 180.04 -273.62 180.04
c-177.8 0 -306.08 -129.81 -306.08 -311.54c0 -181.72 127.74 -310.46 306.08 -310.46c132.74 0 235.71 71.5996 278.77 191.649h51.3096c-44.9102 -149.25 -170 -241.11 -330.09 -241.11z" />
    <glyph glyph-name="D" unicode="D" horiz-adv-x="727" 
d="M318.63 700c206 0 355.01 -147.01 355.01 -349.47c0 -203 -149.54 -350.53 -355.01 -350.53h-214.96v700h214.96zM317.26 47.6006c177.19 0 305.069 127.739 305.069 302.93c0 174.65 -127.35 301.851 -305.069 301.851h-163.19v-604.78h163.19z" />
    <glyph glyph-name="Eth" unicode="&#xd0;" horiz-adv-x="742" 
d="M333.5 700c206 0 355 -147.011 355 -349.471c0 -203 -149.54 -350.53 -355 -350.53h-214.97v328.74h-103.22v42.9805h103.22v328.28h214.97zM332.11 47.5996c177.19 0 305.08 127.739 305.08 302.93c0 174.65 -127.36 301.851 -305.08 301.851h-163.19v-280.67h236.39
v-42.9805h-236.39v-281.13h163.19z" />
    <glyph glyph-name="Dcaron" unicode="&#x10e;" horiz-adv-x="727" 
d="M324.88 781.22h-56.6182l-120.15 142h45.5195l102.63 -112.22l103.79 112.22h45.5195zM318.632 700c206 0 355.01 -147.01 355.01 -349.47c0 -203 -149.54 -350.53 -355.01 -350.53h-214.96v700h214.96zM317.262 47.6006c177.19 0 305.069 127.739 305.069 302.93
c0 174.65 -127.35 301.851 -305.069 301.851h-163.19v-604.78h163.19z" />
    <glyph glyph-name="Dcroat" unicode="&#x110;" horiz-adv-x="742" 
d="M333.5 700c206 0 355 -147.011 355 -349.471c0 -203 -149.54 -350.53 -355 -350.53h-214.97v328.74h-103.22v42.9805h103.22v328.28h214.97zM332.11 47.5996c177.19 0 305.08 127.739 305.08 302.93c0 174.65 -127.36 301.851 -305.08 301.851h-163.19v-280.67h236.39
v-42.9805h-236.39v-281.13h163.19z" />
    <glyph glyph-name="E" unicode="E" horiz-adv-x="545" 
d="M154.06 48.5303l343.49 0.000976562v-48.5303h-393.88v700h382.88v-48.0801h-332.49v-264.51h306.49v-47.1504h-306.49v-291.73z" />
    <glyph glyph-name="Eacute" unicode="&#xc9;" horiz-adv-x="545" 
d="M396.65 923.22l-94.3193 -142h-40.8203l82.29 142h52.8496zM154.062 48.5293l343.49 0.000976562v-48.5303h-393.88v700h382.88v-48.0801h-332.49v-264.51h306.49v-47.1504h-306.49v-291.73z" />
    <glyph glyph-name="Ebreve" unicode="&#x114;" horiz-adv-x="545" 
d="M292.54 774.61c-88.0898 0 -146.789 54.3896 -146.789 148.609h39.75v-1.91992c0 -72.3496 43.1299 -111.569 107.04 -111.569c64.4297 0 106.109 39.2197 106.109 111.569v1.91992h40.6699c0 -94.2197 -58.7002 -148.609 -146.78 -148.609zM154.061 48.5303
l343.49 0.000976562v-48.5303h-393.88v700h382.88v-48.0801h-332.49v-264.51h306.49v-47.1504h-306.49v-291.73z" />
    <glyph glyph-name="Ecaron" unicode="&#x11a;" horiz-adv-x="545" 
d="M320.35 781.22h-56.6299l-120.15 142h45.5303l102.63 -112.22l103.78 112.22h45.5303zM154.06 48.5293l343.49 0.000976562v-48.5303h-393.88v700h382.88v-48.0801h-332.49v-264.51h306.49v-47.1504h-306.49v-291.73z" />
    <glyph glyph-name="Ecircumflex" unicode="&#xca;" horiz-adv-x="545" 
d="M291.73 893.44l-102.63 -112.22h-45.5303l120.15 142h56.6299l120.68 -142h-45.5195zM154.061 48.5303l343.49 0.000976562v-48.5303h-393.88v700h382.88v-48.0801h-332.49v-264.51h306.49v-47.1504h-306.49v-291.73z" />
    <glyph glyph-name="Edieresis" unicode="&#xcb;" horiz-adv-x="545" 
d="M156.34 808.73v69.1396h64.2305v-69.1396h-64.2305zM364.05 808.73v69.1396h64.2197v-69.1396h-64.2197zM154.06 48.54l343.49 0.0107422v-48.54h-393.88v700h382.88v-48.0801h-332.49v-264.51h306.49v-47.1504h-306.49v-291.73z" />
    <glyph glyph-name="Edotaccent" unicode="&#x116;" horiz-adv-x="545" 
d="M260.42 808.72v69.1396h64.2305v-69.1396h-64.2305zM154.06 48.5293l343.49 0.000976562v-48.5303h-393.88v700h382.88v-48.0801h-332.49v-264.51h306.49v-47.1504h-306.49v-291.73z" />
    <glyph glyph-name="Egrave" unicode="&#xc8;" horiz-adv-x="545" 
d="M277.27 781.22l-94.3096 142h52.8496l82.29 -142h-40.8301zM154.06 48.5293l343.49 0.000976562v-48.5303h-393.88v700h382.88v-48.0801h-332.49v-264.51h306.49v-47.1504h-306.49v-291.73z" />
    <glyph glyph-name="Emacron" unicode="&#x112;" horiz-adv-x="545" 
d="M137.07 826.87v43.4502h313v-43.4502h-313zM154.061 48.5303l343.49 0.000976562v-48.5303h-393.88v700h382.88v-48.0801h-332.49v-264.51h306.49v-47.1504h-306.49v-291.73z" />
    <glyph glyph-name="Eogonek" unicode="&#x118;" horiz-adv-x="545" 
d="M470.06 -189.73c16.3896 0 32.2402 2.4707 47.6299 8.39062v-31.5c-18.1699 -8.16016 -39.1797 -12.4697 -59.1895 -12.4697c-65.7002 0 -109.94 38.8496 -109.94 95.0801c0 51.0996 33.5303 100.76 84.96 130.229h-329.85v700h382.88v-48.0801h-332.49v-264.51h306.49
v-47.1504h-306.49v-291.73h343.49v-48.5303c-64.2402 -20.3799 -109.7 -70.8301 -109.7 -120.05c0 -42.3799 32.2998 -69.6797 82.21 -69.6797z" />
    <glyph glyph-name="F" unicode="F" horiz-adv-x="515" 
d="M483.01 651.92h-328.95v-278.43h302.95v-47.1602h-302.95v-326.33h-50.3896v700h379.34v-48.0801z" />
    <glyph glyph-name="G" unicode="G" horiz-adv-x="799" 
d="M373.63 334.41l376.63 0.00195312c-6.15039 -202.86 -148 -344.261 -345.62 -344.261c-205.46 0 -351.16 151.92 -351.16 359.31c0 207.46 148.92 359.92 350.229 359.92c165.24 0 304.55 -103.85 335.01 -249.01h-51.7803c-30 117.35 -145.81 199.55 -282.31 199.55
c-173.58 0 -299.85 -130.35 -299.85 -310.46c0 -182.11 123.27 -309.851 299.85 -309.851c155.78 0 272.141 99.75 291.631 246.72h-322.63v48.0801z" />
    <glyph glyph-name="Gbreve" unicode="&#x11e;" horiz-adv-x="799" 
d="M406.23 774.61c-88.0898 0 -146.79 54.3789 -146.79 148.609h39.75v-1.92969c0 -72.3496 43.1396 -111.56 107.04 -111.56c64.4404 0 106.11 39.21 106.11 111.56v1.92969h40.6797c0 -94.2197 -58.7002 -148.609 -146.79 -148.609zM373.631 334.399l376.63 0.00195312
c-6.15039 -202.86 -148 -344.261 -345.62 -344.261c-205.46 0 -351.16 151.92 -351.16 359.31c0 207.46 148.92 359.92 350.229 359.92c165.24 0 304.55 -103.85 335.01 -249.01h-51.7803c-30 117.35 -145.81 199.55 -282.31 199.55
c-173.58 0 -299.85 -130.35 -299.85 -310.46c0 -182.11 123.27 -309.851 299.85 -309.851c155.78 0 272.141 99.75 291.631 246.72h-322.63v48.0801z" />
    <glyph glyph-name="Gcircumflex" unicode="&#x11c;" horiz-adv-x="799" 
d="M405.42 893.45l-102.641 -112.22h-45.5195l120.15 142h56.6299l120.69 -142h-45.5303zM373.619 334.421l376.63 0.00195312c-6.15039 -202.86 -148 -344.261 -345.62 -344.261c-205.46 0 -351.16 151.92 -351.16 359.31c0 207.46 148.92 359.92 350.229 359.92
c165.24 0 304.55 -103.85 335.01 -249.01h-51.7803c-30 117.35 -145.81 199.55 -282.31 199.55c-173.58 0 -299.85 -130.35 -299.85 -310.46c0 -182.11 123.27 -309.851 299.85 -309.851c155.78 0 272.141 99.75 291.631 246.72h-322.63v48.0801z" />
    <glyph glyph-name="Gdotaccent" unicode="&#x120;" horiz-adv-x="799" 
d="M438.34 877.86v-69.1396h-64.2197v69.1396h64.2197zM373.63 334.411l376.63 0.00195312c-6.15039 -202.86 -148 -344.261 -345.62 -344.261c-205.46 0 -351.16 151.92 -351.16 359.31c0 207.46 148.92 359.92 350.229 359.92c165.24 0 304.55 -103.85 335.01 -249.01
h-51.7803c-30 117.35 -145.81 199.55 -282.31 199.55c-173.58 0 -299.85 -130.35 -299.85 -310.46c0 -182.11 123.27 -309.851 299.85 -309.851c155.78 0 272.141 99.75 291.631 246.72h-322.63v48.0801z" />
    <glyph glyph-name="H" unicode="H" horiz-adv-x="728" 
d="M574.4 700h50.3799v-700h-50.3799v339.26h-420.34v-339.26h-50.3896v700h50.3896v-312.2h420.34v312.2z" />
    <glyph glyph-name="Hbar" unicode="&#x126;" horiz-adv-x="742" 
d="M722.77 588.04v-40.2197h-91.75v-547.82h-50.3799v339.72h-420.34v-339.72h-50.3896v547.82h-87.1396v40.2197h87.1396v111.96h50.3896v-111.96h420.34v111.96h50.3799v-111.96h91.75zM580.64 387.33v160.49h-420.34v-160.49h420.34z" />
    <glyph glyph-name="Hcircumflex" unicode="&#x124;" horiz-adv-x="728" 
d="M369.34 893.44l-102.63 -112.22h-45.5195l120.14 142h56.6299l120.69 -142h-45.5303zM574.4 700.001h50.3799v-700h-50.3799v339.26h-420.34v-339.26h-50.3896v700h50.3896v-312.2h420.34v312.2z" />
    <glyph glyph-name="I" unicode="I" horiz-adv-x="258" 
d="M103.67 0v700h50.3896v-700h-50.3896z" />
    <glyph glyph-name="IJ" unicode="&#x132;" horiz-adv-x="792" 
d="M103.67 0v700h50.3896v-700h-50.3896zM465.54 -10.9297c-131.4 0 -233.259 101.391 -233.259 238.011v9.08984h49.9297v-7.23047c0 -108.74 79.1201 -190.4 183.33 -190.4c102.27 0 181.399 82.2002 181.399 190.4v471.06h49.9199v-472.92
c0 -136.62 -100.46 -238.01 -231.32 -238.01z" />
    <glyph glyph-name="Iacute" unicode="&#xcd;" horiz-adv-x="258" 
d="M96.9199 781.76l55.5303 142h51l-66.6299 -142h-39.9004zM103.67 -0v700h50.3896v-700h-50.3896z" />
    <glyph glyph-name="Ibreve" unicode="&#x12c;" horiz-adv-x="258" 
d="M129.1 774.61c-81.0098 0 -135.18 54.9297 -135.18 148.609h39.75v-1.91992c0 -72.3496 38.5996 -111.569 95.4297 -111.569c57.3604 0 94.5 39.2197 94.5 111.569v1.91992h40.6699c0 -93.6797 -54.1602 -148.609 -135.17 -148.609zM103.67 0v700h50.3896v-700h-50.3896z
" />
    <glyph glyph-name="Icircumflex" unicode="&#xce;" horiz-adv-x="258" 
d="M154.67 923.22l104.08 -142h-43.6797l-86.4004 111.45l-86.4004 -111.45h-43.21l104.07 142h51.54zM103.67 -0v700h50.3896v-700h-50.3896z" />
    <glyph glyph-name="Idieresis" unicode="&#xcf;" horiz-adv-x="258" 
d="M28.2197 808.72v69.1396h59.5996v-69.1396h-59.5996zM169.84 808.72v69.1396h59.5898v-69.1396h-59.5898zM103.67 -0.000976562v700h50.3896v-700h-50.3896z" />
    <glyph glyph-name="Idotaccent" unicode="&#x130;" horiz-adv-x="258" 
d="M96.5195 808.72v69.1396h64.2305v-69.1396h-64.2305zM103.67 -0.000976562v700h50.3896v-700h-50.3896z" />
    <glyph glyph-name="Igrave" unicode="&#xcc;" horiz-adv-x="258" 
d="M143.97 781.22h-41.2803l-65.6299 142h51.9199zM103.67 -0v700h50.3896v-700h-50.3896z" />
    <glyph glyph-name="Imacron" unicode="&#x12a;" horiz-adv-x="258" 
d="M5.91016 827.18v44.8799h248.31v-44.8799h-248.31zM103.67 -0v700h50.3896v-700h-50.3896z" />
    <glyph glyph-name="Iogonek" unicode="&#x12e;" horiz-adv-x="258" 
d="M139.13 -189.73c15.9297 0 31.7812 2.46875 47.1709 8.38867v-31.5c-18.1699 -8.16016 -38.7197 -12.4697 -59.1895 -12.4697c-65.7002 0 -109.48 38.8496 -109.48 95.0801c0 52.0898 33.96 104.31 86.5801 135.54v694.69h50.3896v-700
c-58.6904 -25 -98.1406 -72.6797 -98.1406 -120.05c0 -42.3799 32.2998 -69.6797 82.6699 -69.6797z" />
    <glyph glyph-name="Itilde" unicode="&#x128;" horiz-adv-x="258" 
d="M207.17 789.82c-40.5498 0 -65.4014 26.6191 -87.8613 51.3789c-19.1504 21.3701 -37.8408 42.2803 -64.2109 42.2803c-28.9902 0 -49.75 -30.9102 -49.75 -77.04v-11h-30.9697v12.3799c0 67.4805 30.3203 112.181 80.2607 112.181
c41.6201 0 64.6201 -25.7695 86.6201 -50.9893c19.1504 -21.8398 36.8408 -42.6699 65.4512 -42.6699c29.9902 0 49.29 29.9102 49.29 77.0498v9h31.4199v-9.92969c0 -67.9404 -31.2305 -112.641 -80.25 -112.641zM103.668 -0.000976562v700h50.3896v-700h-50.3896z" />
    <glyph glyph-name="J" unicode="J" horiz-adv-x="590" 
d="M264.01 -10.9297c-131.4 0 -233.25 101.391 -233.25 238.011v9.08984h49.9297v-7.23047c0 -108.74 79.1201 -190.4 183.32 -190.4c102.28 0 181.4 82.2002 181.4 190.4v471.06h49.9199v-472.92c0 -136.62 -100.46 -238.01 -231.32 -238.01z" />
    <glyph glyph-name="Jcircumflex" unicode="&#x134;" horiz-adv-x="590" 
d="M495.02 923.22l104.08 -142h-43.6797l-86.4004 111.45l-86.4004 -111.45h-43.21l104.08 142h51.5303zM445.409 228.939v471.061h49.9199v-472.92c0 -136.62 -100.46 -238.01 -231.32 -238.01c-131.4 0 -233.25 101.39 -233.25 238.01v9.08984h49.9297v-7.23047
c0 -108.74 79.1201 -190.4 183.32 -190.4c102.28 0 181.4 82.2002 181.4 190.4z" />
    <glyph glyph-name="K" unicode="K" horiz-adv-x="614" 
d="M547.02 0l-281.72 339.57h-111.24v-339.57h-50.3896v700h50.3896v-312.81h111.09l257.18 312.81h64.5703l-276.5 -335.8l301.65 -364.2h-65.0303z" />
    <glyph glyph-name="L" unicode="L" horiz-adv-x="507" 
d="M154.06 47.6104h330.95v-47.6104h-381.34v700h50.3896v-652.39z" />
    <glyph glyph-name="Lacute" unicode="&#x139;" horiz-adv-x="507" 
d="M246.44 923.22l-94.3203 -142h-40.8203l82.2803 142h52.8604zM154.061 47.6094h330.95v-47.6104h-381.34v700h50.3896v-652.39z" />
    <glyph glyph-name="Lcaron" unicode="&#x13d;" horiz-adv-x="507" 
d="M376.82 618.56c19.4004 8.15039 30.0303 29 30.0303 54.0898h-32.4102v58.7402h61.8203v-53.8896c0 -40.5596 -22.4102 -77.8096 -59.4404 -89.04v30.0996zM154.061 47.6094h330.95v-47.6104h-381.34v700h50.3896v-652.39z" />
    <glyph glyph-name="Ldot" unicode="&#x13f;" horiz-adv-x="509" 
d="M154.06 47.6104h330.95v-47.6104h-381.34v700h50.3896v-652.39zM396.979 393.551v-76.5303h-64.2197v76.5303h64.2197z" />
    <glyph glyph-name="Lslash" unicode="&#x141;" horiz-adv-x="507" 
d="M154.06 47.6104l330.95 0.000976562v-47.6104h-381.34v265.04l-90.4502 -48.1396v45.4502l90.4502 48.4697v389.18h50.3896v-362.19l245.16 131.38v-46.8398l-245.16 -130.49v-244.25z" />
    <glyph glyph-name="M" unicode="M" horiz-adv-x="947" 
d="M897.26 0h-51.2998l-105.24 608.17l-259.46 -580.88h-15.8701l-258.99 580.16l-106.17 -607.45h-51.3096l121.84 700h46.8496l255 -577.67l256.5 577.67h47.7803z" />
    <glyph glyph-name="N" unicode="N" horiz-adv-x="746" 
d="M593.1 700h49.459v-700h-42.9102l-446.52 611.16v-611.16h-49.46v700h45.6904l443.74 -608.24v608.24z" />
    <glyph glyph-name="Nacute" unicode="&#x143;" horiz-adv-x="746" 
d="M488.95 923.22l-94.3193 -142h-40.8203l82.29 142h52.8496zM593.101 700h49.459v-700h-42.9102l-446.52 611.16v-611.16h-49.46v700h45.6904l443.74 -608.24v608.24z" />
    <glyph glyph-name="Ncaron" unicode="&#x147;" horiz-adv-x="746" 
d="M412.65 781.22h-56.6299l-120.15 142h45.5303l102.63 -112.22l103.78 112.22h45.5195zM593.101 700h49.459v-700h-42.9102l-446.52 611.16v-611.16h-49.46v700h45.6904l443.74 -608.24v608.24z" />
    <glyph glyph-name="Eng" unicode="&#x14a;" horiz-adv-x="746" 
d="M429.3 -190l-0.000976562 47.1504h19.7803c88.5 0 146.79 57.8203 146.79 145.86l-442.74 608.93v-611.94h-49.46v700h45.6904l443.74 -610.85v610.85h49.46v-691.9c0 -122.79 -74.8496 -198.1 -197.18 -198.1h-16.0801z" />
    <glyph glyph-name="Ntilde" unicode="&#xd1;" horiz-adv-x="746" 
d="M245.17 806.44l-0.00195312 -11.002h-32.8096v12.3799c0 67.4805 33.2402 112.181 87.5605 112.181c36.9404 0 59.4004 -17.6299 88.9307 -51.0596c24.9805 -28.75 42.5205 -42.5996 68.5205 -42.5996c33.4502 0 54.75 28.9805 54.75 77.0508v9h33.2803v-9.92969
c0 -67.9404 -34.1699 -112.641 -87.5703 -112.641c-38.1699 0 -62.4102 18.4805 -92.3906 51.7705c-25.6797 28.9697 -42.29 41.8896 -65.0498 41.8896c-32.4502 0 -55.2197 -29.9805 -55.2197 -77.04zM593.098 699.998h49.459v-700h-42.9102l-446.52 611.16v-611.16h-49.46
v700h45.6904l443.74 -608.24v608.24z" />
    <glyph glyph-name="O" unicode="O" horiz-adv-x="831" 
d="M415.61 -10.9297c-210.93 0 -362.71 154.99 -362.71 360.38c0 205.93 151.78 361.47 362.71 361.47s362.699 -155 362.699 -361.46c0 -205.93 -151.77 -360.39 -362.699 -360.39zM415.61 38.5205c180.8 0 311.39 133.27 311.39 310.92c0 178.19 -130.59 312 -311.39 312
s-311.39 -134.81 -311.39 -312c0 -176.65 130.59 -310.92 311.39 -310.92z" />
    <glyph glyph-name="Oacute" unicode="&#xd3;" horiz-adv-x="831" 
d="M384.59 781.23l82.2803 142h52.8496l-94.3096 -142h-40.8203zM415.61 -10.9199c-210.93 0 -362.71 154.99 -362.71 360.38c0 205.93 151.78 361.47 362.71 361.47s362.699 -155 362.699 -361.46c0 -205.93 -151.77 -360.39 -362.699 -360.39zM415.61 38.5303
c180.8 0 311.39 133.27 311.39 310.92c0 178.19 -130.59 312 -311.39 312s-311.39 -134.81 -311.39 -312c0 -176.65 130.59 -310.92 311.39 -310.92z" />
    <glyph glyph-name="Obreve" unicode="&#x14e;" horiz-adv-x="831" 
d="M415.61 774.61c-88.0898 0 -146.79 54.3789 -146.79 148.609h39.75v-1.92969c0 -72.3496 43.1396 -111.56 107.04 -111.56c64.4404 0 106.11 39.21 106.11 111.56v1.92969h40.6797c0 -94.2197 -58.7002 -148.609 -146.79 -148.609zM415.61 -10.9404
c-210.93 0 -362.71 154.99 -362.71 360.38c0 205.93 151.78 361.47 362.71 361.47s362.699 -155 362.699 -361.46c0 -205.93 -151.77 -360.39 -362.699 -360.39zM415.61 38.5098c180.8 0 311.39 133.27 311.39 310.92c0 178.19 -130.59 312 -311.39 312
s-311.39 -134.81 -311.39 -312c0 -176.65 130.59 -310.92 311.39 -310.92z" />
    <glyph glyph-name="Ocircumflex" unicode="&#xd4;" horiz-adv-x="831" 
d="M564.11 781.23h-45.541l-103.78 112.22l-102.63 -112.22h-45.5195l120.15 142h56.6299zM415.6 -10.9199c-210.93 0 -362.71 154.99 -362.71 360.38c0 205.93 151.78 361.47 362.71 361.47s362.699 -155 362.699 -361.46c0 -205.93 -151.77 -360.39 -362.699 -360.39z
M415.6 38.5303c180.8 0 311.39 133.27 311.39 310.92c0 178.19 -130.59 312 -311.39 312s-311.39 -134.81 -311.39 -312c0 -176.65 130.59 -310.92 311.39 -310.92z" />
    <glyph glyph-name="Odieresis" unicode="&#xd6;" horiz-adv-x="831" 
d="M279.41 808.73v69.1396h64.2197v-69.1396h-64.2197zM487.12 808.73v69.1396h64.2305v-69.1396h-64.2305zM415.61 -10.9199c-210.93 0 -362.71 154.99 -362.71 360.38c0 205.93 151.78 361.47 362.71 361.47s362.699 -155 362.699 -361.46
c0 -205.93 -151.77 -360.39 -362.699 -360.39zM415.61 38.5303c180.8 0 311.39 133.27 311.39 310.92c0 178.19 -130.59 312 -311.39 312s-311.39 -134.81 -311.39 -312c0 -176.65 130.59 -310.92 311.39 -310.92z" />
    <glyph glyph-name="Ograve" unicode="&#xd2;" horiz-adv-x="831" 
d="M400.35 781.23l-94.3193 142h52.8496l82.29 -142h-40.8203zM415.61 -10.9199c-210.93 0 -362.71 154.99 -362.71 360.38c0 205.93 151.78 361.47 362.71 361.47s362.699 -155 362.699 -361.46c0 -205.93 -151.77 -360.39 -362.699 -360.39zM415.61 38.5303
c180.8 0 311.39 133.27 311.39 310.92c0 178.19 -130.59 312 -311.39 312s-311.39 -134.81 -311.39 -312c0 -176.65 130.59 -310.92 311.39 -310.92z" />
    <glyph glyph-name="Ohungarumlaut" unicode="&#x150;" horiz-adv-x="831" 
d="M307.58 781.23l72.291 142h47.7598l-81.0703 -142h-38.9805zM463.761 781.23l81.54 142h49.6104l-91.71 -142h-39.4404zM415.631 -10.9199c-210.93 0 -362.71 154.99 -362.71 360.38c0 205.93 151.78 361.47 362.71 361.47s362.699 -155 362.699 -361.46
c0 -205.93 -151.77 -360.39 -362.699 -360.39zM415.631 38.5303c180.8 0 311.39 133.27 311.39 310.92c0 178.19 -130.59 312 -311.39 312s-311.39 -134.81 -311.39 -312c0 -176.65 130.59 -310.92 311.39 -310.92z" />
    <glyph glyph-name="Omacron" unicode="&#x14c;" horiz-adv-x="831" 
d="M260.15 826.87v43.4502h313v-43.4502h-313zM415.61 -10.9297c-210.93 0 -362.71 154.99 -362.71 360.38c0 205.93 151.78 361.47 362.71 361.47s362.699 -155 362.699 -361.46c0 -205.93 -151.77 -360.39 -362.699 -360.39zM415.61 38.5205
c180.8 0 311.39 133.27 311.39 310.92c0 178.19 -130.59 312 -311.39 312s-311.39 -134.81 -311.39 -312c0 -176.65 130.59 -310.92 311.39 -310.92z" />
    <glyph glyph-name="Oslash" unicode="&#xd8;" horiz-adv-x="834" 
d="M628.76 644.58c93.4902 -62.75 152.788 -169.972 152.788 -296.111c0 -203.92 -153.85 -356.39 -360.63 -356.39c-59.6201 0 -114.25 12.71 -162.84 35.7402l-53.9697 -89.8096h-55.1602l67.3604 110.63c-100.04 62 -163.86 171.46 -163.86 300.9
c0 204.38 155.38 358.85 362.16 358.85c63.5801 0 122.48 -14.8203 172.891 -41.3799l57.4502 94.9902h55.1602zM103.758 350.009c0 -111.26 54.1797 -205.329 138.68 -259.189l320.44 533.74c-43.2402 21.9902 -94 34.3701 -148.27 34.3701
c-177.11 0 -310.851 -133.73 -310.851 -308.921zM419.998 41.5498c177.11 0 309.77 131.27 309.77 306.92c0 108.18 -49.0195 198.949 -127.06 253.899l-319.11 -532.09c40.6104 -18.0098 86.3301 -28.7295 136.4 -28.7295z" />
    <glyph glyph-name="Oslashacute" unicode="&#x1fe;" horiz-adv-x="834" 
d="M520.11 923.22l-94.3096 -142h-40.8301l82.29 142h52.8496zM628.761 644.58c93.4902 -62.75 152.788 -169.972 152.788 -296.111c0 -203.92 -153.85 -356.39 -360.63 -356.39c-59.6201 0 -114.25 12.71 -162.84 35.7402l-53.9697 -89.8096h-55.1602l67.3604 110.63
c-100.04 62 -163.86 171.46 -163.86 300.9c0 204.38 155.38 358.85 362.16 358.85c63.5801 0 122.48 -14.8203 172.891 -41.3799l57.4502 94.9902h55.1602zM103.759 350.009c0 -111.26 54.1797 -205.329 138.68 -259.189l320.44 533.74
c-43.2402 21.9902 -94 34.3701 -148.27 34.3701c-177.11 0 -310.851 -133.73 -310.851 -308.921zM419.999 41.5498c177.11 0 309.77 131.27 309.77 306.92c0 108.18 -49.0195 198.949 -127.06 253.899l-319.11 -532.09c40.6104 -18.0098 86.3301 -28.7295 136.4 -28.7295z
" />
    <glyph glyph-name="Otilde" unicode="&#xd5;" horiz-adv-x="831" 
d="M488.61 789.83c-38.1797 0 -62.4199 18.4912 -92.4102 51.7812c-25.6797 28.9697 -42.29 41.8896 -65.0498 41.8896c-32.4502 0 -55.21 -29.9902 -55.21 -77.0498v-11h-32.8096v12.3896c0 67.4697 33.2402 112.17 87.5703 112.17
c36.9404 0 59.4004 -17.6299 88.9199 -51.0703c24.9902 -28.75 42.5303 -42.5996 68.5303 -42.5996c33.4502 0 54.75 28.9902 54.75 77.0498v9h33.2695v-9.91992c0 -67.9404 -34.1602 -112.641 -87.5605 -112.641zM415.61 -10.8984c-210.93 0 -362.71 154.99 -362.71 360.38
c0 205.93 151.78 361.47 362.71 361.47s362.699 -155 362.699 -361.46c0 -205.93 -151.77 -360.39 -362.699 -360.39zM415.61 38.5518c180.8 0 311.39 133.27 311.39 310.92c0 178.19 -130.59 312 -311.39 312s-311.39 -134.81 -311.39 -312
c0 -176.65 130.59 -310.92 311.39 -310.92z" />
    <glyph glyph-name="OE" unicode="&#x152;" horiz-adv-x="972" 
d="M552.37 47.6104l371.83 0.00195312v-47.6104h-422.68v1.01953c-37.9902 -7.78027 -77.5303 -11.9502 -116.82 -11.9502c-185.78 0 -331.25 154.54 -331.25 360.39c0 205 143.62 361.46 331.25 361.46c39.9502 0 79.25 -3.83984 116.82 -11.7197v0.799805h411.68v-47.1504
h-360.83v-274.5h334.83v-46.2305h-334.83v-284.51zM390.25 39.002c37.7998 0 75.1504 3.27051 111.271 9.03027v603.09c-39.3701 6.62012 -75.79 10.3398 -112.66 10.3398c-160.74 0 -284.101 -134.81 -284.101 -312c0 -180.81 122.44 -310.46 285.49 -310.46z" />
    <glyph glyph-name="P" unicode="P" horiz-adv-x="602" 
d="M344.31 700c127.09 0 223.79 -91.7002 223.79 -214.71c0 -123.09 -95.7002 -215.25 -223.79 -215.25h-190.25v-270.04h-50.3896v700h240.64zM342 319.04c100.73 0 174.79 70.9688 174.79 166.249c0 94.7305 -74.0596 165.711 -174.79 165.711h-187.94v-331.96h187.94z
" />
    <glyph glyph-name="Thorn" unicode="&#xde;" horiz-adv-x="615" 
d="M344.31 565.71c129.4 0 223.79 -90.7686 223.79 -215.709c0 -125.4 -93.8496 -215.721 -223.79 -215.721h-190.25v-134.28h-50.3896v700h50.3896v-134.29h190.25zM342 182.361c100.73 0 174.79 70.5107 174.79 167.641c0 97.1201 -74.0596 167.64 -174.79 167.64h-187.94
v-335.28h187.94z" />
    <glyph glyph-name="Q" unicode="Q" horiz-adv-x="831" 
d="M788.62 -96.0498l-62.248 0.000976562l-119.92 134.55c-54.3701 -31.6104 -119.19 -49.4307 -190.841 -49.4307c-210.92 0 -362.7 155 -362.7 360.39c0 205.93 151.78 361.46 362.7 361.46c210.93 0 362.699 -155 362.699 -361.46
c0 -118.46 -50.2197 -219.88 -133.04 -284.68zM415.612 38.541c58.2598 0 111.31 13.8301 156.449 38.54l-182.65 204.93h62.25l159.69 -179.17c71.9102 55.8496 115.65 143.8 115.65 246.62c0 178.19 -130.59 312 -311.39 312s-311.39 -134.81 -311.39 -312
c0 -176.65 130.59 -310.92 311.39 -310.92z" />
    <glyph glyph-name="R" unicode="R" horiz-adv-x="636" 
d="M525.87 0l-174.792 294.19h-197.02v-294.19h-50.3896v700h257.87c125.54 0 217.63 -85.1699 217.63 -203.64c0 -102.87 -71.1699 -181.12 -173.68 -198.54l177.4 -297.82h-57.0195zM154.059 651.921v-309.661h205.16c99.6699 0 168.64 64.9004 168.64 154.561
c0 89.7402 -69.5098 155.101 -168.64 155.101h-205.16z" />
    <glyph glyph-name="Racute" unicode="&#x154;" horiz-adv-x="636" 
d="M400.89 923.22l-94.3203 -142h-40.8203l82.2803 142h52.8604zM525.869 -0l-174.792 294.19h-197.02v-294.19h-50.3896v700h257.87c125.54 0 217.63 -85.1699 217.63 -203.64c0 -102.87 -71.1699 -181.12 -173.68 -198.54l177.4 -297.82h-57.0195zM154.058 651.921
v-309.661h205.16c99.6699 0 168.64 64.9004 168.64 154.561c0 89.7402 -69.5098 155.101 -168.64 155.101h-205.16z" />
    <glyph glyph-name="Rcaron" unicode="&#x158;" horiz-adv-x="636" 
d="M324.58 781.22h-56.6182l-120.15 142h45.5195l102.63 -112.22l103.79 112.22h45.5195zM525.872 -0l-174.792 294.19h-197.02v-294.19h-50.3896v700h257.87c125.54 0 217.63 -85.1699 217.63 -203.64c0 -102.87 -71.1699 -181.12 -173.68 -198.54l177.4 -297.82h-57.0195z
M154.061 651.921v-309.661h205.16c99.6699 0 168.64 64.9004 168.64 154.561c0 89.7402 -69.5098 155.101 -168.64 155.101h-205.16z" />
    <glyph glyph-name="S" unicode="S" horiz-adv-x="587" 
d="M300.16 -8.46973c-149.63 0 -249.791 85.3916 -249.791 217.411h51.3203c0 -102.82 80.2803 -167.94 198.011 -167.94c107.11 0 184.78 60.1201 184.78 150.47c0 101.65 -93.3604 122.271 -193.65 144.881c-108.53 24.3896 -225.84 51.2295 -225.84 184.17
c0 115.01 90.2305 187.939 229.25 187.939c136.24 0 223.101 -78.3096 223.101 -198.79h-49.9297c0 92.2002 -71.1396 150.25 -174.1 150.25c-105.73 0 -177.94 -53.5898 -177.94 -137.55c0 -96.6504 93.0498 -117.261 191.8 -139.331
c110.54 -25.3896 229.09 -52.71 229.09 -191.1c0 -123.25 -99.8604 -200.41 -236.101 -200.41z" />
    <glyph glyph-name="Sacute" unicode="&#x15a;" horiz-adv-x="587" 
d="M257.29 781.22l82.2803 142h52.8496l-94.3096 -142h-40.8203zM300.16 -8.4707c-149.63 0 -249.791 85.3916 -249.791 217.411h51.3203c0 -102.82 80.2803 -167.94 198.011 -167.94c107.11 0 184.78 60.1201 184.78 150.47c0 101.65 -93.3604 122.271 -193.65 144.881
c-108.53 24.3896 -225.84 51.2295 -225.84 184.17c0 115.01 90.2305 187.939 229.25 187.939c136.24 0 223.101 -78.3096 223.101 -198.79h-49.9297c0 92.2002 -71.1396 150.25 -174.1 150.25c-105.73 0 -177.94 -53.5898 -177.94 -137.55
c0 -96.6504 93.0498 -117.261 191.8 -139.331c110.54 -25.3896 229.09 -52.71 229.09 -191.1c0 -123.25 -99.8604 -200.41 -236.101 -200.41z" />
    <glyph glyph-name="Scaron" unicode="&#x160;" horiz-adv-x="587" 
d="M391.29 923.22h45.5215l-120.69 -142h-56.6201l-120.15 142h45.5195l102.63 -112.22zM300.161 -8.4707c-149.63 0 -249.791 85.3916 -249.791 217.411h51.3203c0 -102.82 80.2803 -167.94 198.011 -167.94c107.11 0 184.78 60.1201 184.78 150.47
c0 101.65 -93.3604 122.271 -193.65 144.881c-108.53 24.3896 -225.84 51.2295 -225.84 184.17c0 115.01 90.2305 187.939 229.25 187.939c136.24 0 223.101 -78.3096 223.101 -198.79h-49.9297c0 92.2002 -71.1396 150.25 -174.1 150.25
c-105.73 0 -177.94 -53.5898 -177.94 -137.55c0 -96.6504 93.0498 -117.261 191.8 -139.331c110.54 -25.3896 229.09 -52.71 229.09 -191.1c0 -123.25 -99.8604 -200.41 -236.101 -200.41z" />
    <glyph glyph-name="Scedilla" unicode="&#x15e;" horiz-adv-x="587" 
d="M536.26 191.94c0 -118.06 -91.6191 -193.83 -219.079 -200.01l-13.4404 -47.7197c56.8096 -4.5498 97.2793 -40.3096 97.2793 -89.1396c0 -52.7002 -47.7002 -90.54 -112.78 -90.54h-64.2402v32.3496h63.7695c42.9004 0 73.04 23.9902 73.04 58.6699
c0 33.6699 -30.6699 58.6602 -74.5703 58.6602h-18.3301l-5.7002 8.08984l18.5 69.7305c-138.79 7.11035 -230.34 90.7002 -230.34 216.91h51.3203c0 -102.82 80.2803 -167.94 198.011 -167.94c107.11 0 184.78 60.1201 184.78 150.47
c0 101.65 -93.3604 122.271 -193.65 144.881c-108.53 24.3896 -225.84 51.2295 -225.84 184.17c0 115.01 90.2305 187.939 229.25 187.939c136.24 0 223.101 -78.3096 223.101 -198.79h-49.9297c0 92.2002 -71.1396 150.25 -174.1 150.25
c-105.73 0 -177.94 -53.5898 -177.94 -137.55c0 -96.6504 93.0498 -117.261 191.8 -139.331c110.54 -25.3896 229.09 -52.71 229.09 -191.1z" />
    <glyph glyph-name="Scircumflex" unicode="&#x15c;" horiz-adv-x="587" 
d="M436.81 781.22h-45.5215l-103.79 112.22l-102.63 -112.22h-45.5195l120.15 142h56.6201zM300.158 -8.4707c-149.63 0 -249.791 85.3916 -249.791 217.411h51.3203c0 -102.82 80.2803 -167.94 198.011 -167.94c107.11 0 184.78 60.1201 184.78 150.47
c0 101.65 -93.3604 122.271 -193.65 144.881c-108.53 24.3896 -225.84 51.2295 -225.84 184.17c0 115.01 90.2305 187.939 229.25 187.939c136.24 0 223.101 -78.3096 223.101 -198.79h-49.9297c0 92.2002 -71.1396 150.25 -174.1 150.25
c-105.73 0 -177.94 -53.5898 -177.94 -137.55c0 -96.6504 93.0498 -117.261 191.8 -139.331c110.54 -25.3896 229.09 -52.71 229.09 -191.1c0 -123.25 -99.8604 -200.41 -236.101 -200.41z" />
    <glyph glyph-name="uni1E9E" unicode="&#x1e9e;" horiz-adv-x="663" 
d="M400.17 441.72c130.53 -8.91016 213.969 -91.6201 213.969 -215.63c0 -131.24 -95.8604 -226.09 -250.63 -226.09h-89.7803v49h89.7803c119.73 0 199.311 71.4404 199.311 177.091c0 103.96 -79.0498 173.78 -197.7 173.78h-40.21v13.0898l151.8 238.5h-141.95
c-122.26 0 -188.77 -65.5098 -188.77 -187.77v-463.69h-50.3896v468.31c0 146.3 85.3896 231.689 232.22 231.689h228.7v-12.1699z" />
    <glyph glyph-name="T" unicode="T" horiz-adv-x="540" 
d="M518.65 700v-47.6104h-223.36v-652.39h-50.3896v652.39h-223.36v47.6104h497.11z" />
    <glyph glyph-name="Tbar" unicode="&#x166;" horiz-adv-x="540" 
d="M518.65 652.39h-223.36v-272.06h170.03v-44.8301h-170.03v-335.5h-50.3896v335.5h-169.58v44.8301h169.58v272.06h-223.36v47.6104h497.11v-47.6104z" />
    <glyph glyph-name="Tcaron" unicode="&#x164;" horiz-adv-x="540" 
d="M298.13 781.22h-56.6182l-120.15 142h45.5195l102.63 -112.22l103.79 112.22h45.5195zM518.651 700v-47.6104h-223.36v-652.39h-50.3896v652.39h-223.36v47.6104h497.11z" />
    <glyph glyph-name="U" unicode="U" horiz-adv-x="721" 
d="M360.85 -9.84961c-153.63 0 -266.248 111.92 -266.248 268.7v441.15h50.8496v-437.92c0 -130.81 89.5098 -222.47 215.399 -222.47c125.42 0 214.939 91.6602 214.939 222.47v437.92h50.8496v-441.15c0 -156.78 -112.63 -268.7 -265.79 -268.7z" />
    <glyph glyph-name="Uacute" unicode="&#xda;" horiz-adv-x="721" 
d="M329.82 781.22l82.29 142h52.8496l-94.3096 -142h-40.8301zM360.851 -9.85059c-153.63 0 -266.248 111.92 -266.248 268.7v441.15h50.8496v-437.92c0 -130.81 89.5098 -222.47 215.399 -222.47c125.42 0 214.939 91.6602 214.939 222.47v437.92h50.8496v-441.15
c0 -156.78 -112.63 -268.7 -265.79 -268.7z" />
    <glyph glyph-name="Ubreve" unicode="&#x16c;" horiz-adv-x="721" 
d="M360.85 774.61c-88.0898 0 -146.79 54.3896 -146.79 148.609h39.75v-1.91992c0 -72.3496 43.1396 -111.569 107.04 -111.569c64.4404 0 106.11 39.2197 106.11 111.569v1.91992h40.6797c0 -94.2197 -58.71 -148.609 -146.79 -148.609zM360.85 -9.84961
c-153.63 0 -266.248 111.92 -266.248 268.7v441.15h50.8496v-437.92c0 -130.81 89.5098 -222.47 215.399 -222.47c125.42 0 214.939 91.6602 214.939 222.47v437.92h50.8496v-441.15c0 -156.78 -112.63 -268.7 -265.79 -268.7z" />
    <glyph glyph-name="Ucircumflex" unicode="&#xdb;" horiz-adv-x="721" 
d="M509.35 781.22h-45.5303l-103.78 112.22l-102.63 -112.22h-45.5195l120.14 142h56.6299zM360.85 -9.85059c-153.63 0 -266.248 111.92 -266.248 268.7v441.15h50.8496v-437.92c0 -130.81 89.5098 -222.47 215.399 -222.47c125.42 0 214.939 91.6602 214.939 222.47
v437.92h50.8496v-441.15c0 -156.78 -112.63 -268.7 -265.79 -268.7z" />
    <glyph glyph-name="Udieresis" unicode="&#xdc;" horiz-adv-x="721" 
d="M224.65 808.73v69.1396h64.2197v-69.1396h-64.2197zM432.36 808.73v69.1396h64.2305v-69.1396h-64.2305zM360.851 -9.83984c-153.63 0 -266.238 111.92 -266.238 268.7v441.15h50.8496v-437.91c0 -130.81 89.5098 -222.47 215.399 -222.47
c125.42 0 214.93 91.6602 214.93 222.47v437.91h50.8496v-441.15c0 -156.78 -112.63 -268.7 -265.79 -268.7z" />
    <glyph glyph-name="Ugrave" unicode="&#xd9;" horiz-adv-x="721" 
d="M345.58 781.22l-94.3096 142h52.8496l82.29 -142h-40.8301zM360.851 -9.85059c-153.63 0 -266.248 111.92 -266.248 268.7v441.15h50.8496v-437.92c0 -130.81 89.5098 -222.47 215.399 -222.47c125.42 0 214.939 91.6602 214.939 222.47v437.92h50.8496v-441.15
c0 -156.78 -112.63 -268.7 -265.79 -268.7z" />
    <glyph glyph-name="Uhungarumlaut" unicode="&#x170;" horiz-adv-x="721" 
d="M252.81 781.22l72.291 142h47.7598l-81.0703 -142h-38.9805zM408.99 781.22l81.5293 142h49.6201l-91.7197 -142h-39.4297zM360.85 -9.85059c-153.63 0 -266.248 111.92 -266.248 268.7v441.15h50.8496v-437.92c0 -130.81 89.5098 -222.47 215.399 -222.47
c125.42 0 214.939 91.6602 214.939 222.47v437.92h50.8496v-441.15c0 -156.78 -112.63 -268.7 -265.79 -268.7z" />
    <glyph glyph-name="Umacron" unicode="&#x16a;" horiz-adv-x="721" 
d="M205.38 826.87v43.4502h313.01v-43.4502h-313.01zM360.85 -9.84961c-153.63 0 -266.248 111.92 -266.248 268.7v441.15h50.8496v-437.92c0 -130.81 89.5098 -222.47 215.399 -222.47c125.42 0 214.939 91.6602 214.939 222.47v437.92h50.8496v-441.15
c0 -156.78 -112.63 -268.7 -265.79 -268.7z" />
    <glyph glyph-name="Uogonek" unicode="&#x172;" horiz-adv-x="721" 
d="M575.79 700l50.3809 0.000976562v-440.23c0 -135.55 -80.7002 -221.45 -183.98 -256.07c-57.2998 -19.2402 -100.92 -74.0703 -100.92 -123.29c0 -43.7598 34.1504 -70.5996 83.6006 -70.5996c15.9297 0 31.3193 2.92969 46.2393 8.84961v-31.96
c-19.0898 -8.16992 -40.5596 -12.0098 -60.5693 -12.0098c-64.7803 0 -112.25 37.46 -112.25 96.0098c0 41.4502 23.9697 88.6699 62.3896 120.46c-1.65039 -0.0498047 -3.29004 -0.0898438 -4.91992 -0.0898438c-151.31 1.84961 -261.159 113.319 -261.159 268.699v440.23
h50.3896v-438.38c0 -129.88 89.5098 -220.62 215.399 -220.62c125.88 0 215.399 90.7402 215.399 220.62v438.38z" />
    <glyph glyph-name="Uring" unicode="&#x16e;" horiz-adv-x="721" 
d="M360.6 763.4c-65.7002 0 -110.96 43.7695 -110.96 106.13c0 62.8203 45.2598 105.66 110.96 105.66c65.25 0 110.51 -42.8398 110.51 -105.66c0 -62.3604 -45.2598 -106.13 -110.51 -106.13zM360.6 795.69c45.0703 0 75.9102 29.8096 75.9102 73.8398
c0 44.4902 -30.8398 73.8398 -75.9102 73.8398c-45.5195 0 -76.3691 -29.3496 -76.3691 -73.8398c0 -44.0303 30.8496 -73.8398 76.3691 -73.8398zM360.85 -9.84961c-153.63 0 -266.248 111.92 -266.248 268.7v441.15h50.8496v-437.92
c0 -130.81 89.5098 -222.47 215.399 -222.47c125.42 0 214.939 91.6602 214.939 222.47v437.92h50.8496v-441.15c0 -156.78 -112.63 -268.7 -265.79 -268.7z" />
    <glyph glyph-name="Utilde" unicode="&#x168;" horiz-adv-x="721" 
d="M433.85 789.82c-38.1797 0 -62.4102 18.4785 -92.3906 51.7686c-25.6797 28.9697 -42.29 41.8896 -65.0498 41.8896c-32.4502 0 -55.2197 -29.9805 -55.2197 -77.04v-11h-32.8203v12.3799c0 67.4805 33.2402 112.181 87.5605 112.181
c36.9404 0 59.4004 -17.6299 88.9307 -51.0596c24.9902 -28.75 42.5303 -42.5996 68.5303 -42.5996c33.4404 0 54.75 28.9805 54.75 77.0508v9h33.2695v-9.92969c0 -67.9404 -34.1602 -112.641 -87.5605 -112.641zM360.859 -9.85156
c-153.63 0 -266.248 111.92 -266.248 268.7v441.15h50.8496v-437.92c0 -130.81 89.5098 -222.47 215.399 -222.47c125.42 0 214.939 91.6602 214.939 222.47v437.92h50.8496v-441.15c0 -156.78 -112.63 -268.7 -265.79 -268.7z" />
    <glyph glyph-name="V" unicode="V" horiz-adv-x="670" 
d="M587.95 700h55.0898l-283.99 -700h-45l-290.6 700h55.5498l257.87 -623.45z" />
    <glyph glyph-name="W" unicode="W" horiz-adv-x="1018" 
d="M935.56 700l53.2412 0.000976562l-223.23 -700h-43.1504l-213.78 570.82l-209.82 -570.82h-43.1504l-228.22 700h53.7002l197.72 -614.86l217.82 592.64h22.9502l222.47 -592.87z" />
    <glyph glyph-name="Wacute" unicode="&#x1e82;" horiz-adv-x="1018" 
d="M612.27 923.22l-94.3096 -142h-40.8301l82.29 142h52.8496zM935.56 700l53.2412 0.000976562l-223.23 -700h-43.1504l-213.78 570.82l-209.82 -570.82h-43.1504l-228.22 700h53.7002l197.72 -614.86l217.82 592.64h22.9502l222.47 -592.87z" />
    <glyph glyph-name="Wcircumflex" unicode="&#x174;" horiz-adv-x="1018" 
d="M507.35 893.44l-102.632 -112.22h-45.5195l120.15 142h56.6201l120.69 -142h-45.5195zM935.558 700.001l53.2412 0.000976562l-223.23 -700h-43.1504l-213.78 570.82l-209.82 -570.82h-43.1504l-228.22 700h53.7002l197.72 -614.86l217.82 592.64h22.9502l222.47 -592.87
z" />
    <glyph glyph-name="Wdieresis" unicode="&#x1e84;" horiz-adv-x="1018" 
d="M371.96 808.73v69.1396h64.2305v-69.1396h-64.2305zM579.67 808.73v69.1396h64.2305v-69.1396h-64.2305zM935.56 700.01h53.2412l-223.22 -700h-43.1504l-213.78 570.82l-209.82 -570.82h-43.1504l-228.23 700h53.7002l197.72 -614.86l217.82 592.65h22.9502
l222.47 -592.88z" />
    <glyph glyph-name="Wgrave" unicode="&#x1e80;" horiz-adv-x="1018" 
d="M492.9 781.22l-94.3096 142h52.8496l82.2803 -142h-40.8203zM935.561 700l53.2412 0.000976562l-223.23 -700h-43.1504l-213.78 570.82l-209.82 -570.82h-43.1504l-228.22 700h53.7002l197.72 -614.86l217.82 592.64h22.9502l222.47 -592.87z" />
    <glyph glyph-name="X" unicode="X" horiz-adv-x="586" 
d="M575.04 0h-57.5586l-224.33 326.19l-223.91 -326.19h-58.0195l250.63 366.14l-229.94 333.86h57.5498l203.89 -296.04l203.52 296.04h57.5498l-229.78 -335.53z" />
    <glyph glyph-name="Y" unicode="Y" horiz-adv-x="645" 
d="M614.5 700l-266.141 -422.73v-277.27h-51.7803v276.9l-263.6 423.1h55.6299l234.23 -374.82l236.03 374.82h55.6299z" />
    <glyph glyph-name="Yacute" unicode="&#xdd;" horiz-adv-x="645" 
d="M428.12 923.22l-94.3096 -142h-40.8203l82.2803 142h52.8496zM614.501 700l-266.141 -422.73v-277.27h-51.7803v276.9l-263.6 423.1h55.6299l234.23 -374.82l236.03 374.82h55.6299z" />
    <glyph glyph-name="Ycircumflex" unicode="&#x176;" horiz-adv-x="645" 
d="M323.2 893.44l-102.632 -112.22h-45.5195l120.15 142h56.6201l120.69 -142h-45.5195zM614.498 700.001l-266.141 -422.73v-277.27h-51.7803v276.9l-263.6 423.1h55.6299l234.23 -374.82l236.03 374.82h55.6299z" />
    <glyph glyph-name="Ydieresis" unicode="&#x178;" horiz-adv-x="645" 
d="M187.81 808.73v69.1396h64.2197v-69.1396h-64.2197zM395.52 808.73v69.1396h64.2305v-69.1396h-64.2305zM614.5 700.01l-266.131 -422.73v-277.27h-51.7803v276.9l-263.6 423.1h55.6201l234.23 -374.82l236.03 374.82h55.6299z" />
    <glyph glyph-name="Ygrave" unicode="&#x1ef2;" horiz-adv-x="645" 
d="M308.75 781.22l-94.3096 142h52.8496l82.2803 -142h-40.8203zM614.5 700l-266.141 -422.73v-277.27h-51.7803v276.9l-263.6 423.1h55.6299l234.23 -374.82l236.03 374.82h55.6299z" />
    <glyph glyph-name="Z" unicode="Z" horiz-adv-x="546" 
d="M104.59 47.6104l420.43 0.000976562v-47.6104h-500.1v10.6201l405.09 641.77h-390.16v47.6104h470.34v-10.4805z" />
    <glyph glyph-name="Zacute" unicode="&#x179;" horiz-adv-x="546" 
d="M391.44 923.22l-94.3203 -142h-40.8203l82.2803 142h52.8604zM104.59 47.6094l420.43 0.000976562v-47.6104h-500.1v10.6201l405.09 641.77h-390.16v47.6104h470.34v-10.4805z" />
    <glyph glyph-name="Zcaron" unicode="&#x17d;" horiz-adv-x="546" 
d="M315.13 781.22h-56.6182l-120.15 142h45.5195l102.63 -112.22l103.79 112.22h45.5195zM104.592 47.6094l420.43 0.000976562v-47.6104h-500.1v10.6201l405.09 641.77h-390.16v47.6104h470.34v-10.4805z" />
    <glyph glyph-name="Zdotaccent" unicode="&#x17b;" horiz-adv-x="546" 
d="M319.44 877.86v-69.1396h-64.2305v69.1396h64.2305zM104.591 47.6104l420.43 0.000976562v-47.6104h-500.1v10.6201l405.09 641.77h-390.16v47.6104h470.34v-10.4805z" />
    <glyph glyph-name="uni0122" unicode="&#x122;" horiz-adv-x="799" 
d="M373.63 334.41l376.63 0.00195312c-6.15039 -202.86 -148 -344.261 -345.62 -344.261c-205.46 0 -351.16 151.92 -351.16 359.31c0 207.46 148.92 359.92 350.229 359.92c165.24 0 304.55 -103.85 335.01 -249.01h-51.7803c-30 117.35 -145.81 199.55 -282.31 199.55
c-173.58 0 -299.85 -130.35 -299.85 -310.46c0 -182.11 123.27 -309.851 299.85 -309.851c155.78 0 272.141 99.75 291.631 246.72h-322.63v48.0801zM376.22 -123.488l-0.000976562 58.7402h61.8203v-53.8896c0 -43.79 -22.9502 -78.3496 -56.21 -90.1094l-3.75977 25.7998
c21.0098 10.2998 32.71 30.6094 32.71 59.459h-34.5596z" />
    <glyph glyph-name="uni0136" unicode="&#x136;" horiz-adv-x="614" 
d="M310.4 364.2l301.65 -364.2h-65.0303l-281.72 339.57h-111.24v-339.57h-50.3896v700h50.3896v-312.81h111.09l257.18 312.81h64.5703zM307.971 -123.49l-0.000976562 58.7402h61.8301v-53.8896c0 -43.79 -22.9502 -78.3496 -56.2197 -90.1094l-3.75977 25.7998
c21.0195 10.2998 32.71 30.6094 32.71 59.459h-34.5596z" />
    <glyph glyph-name="uni013B" unicode="&#x13b;" horiz-adv-x="507" 
d="M154.06 47.6104h330.95v-47.6104h-381.34v700h50.3896v-652.39zM252.21 -123.489l-0.000976562 58.7402h61.8203v-53.8896c0 -43.79 -22.9502 -78.3496 -56.21 -90.1094l-3.75977 25.7998c21.0098 10.2998 32.71 30.6094 32.71 59.459h-34.5596z" />
    <glyph glyph-name="uni0145" unicode="&#x145;" horiz-adv-x="746" 
d="M593.1 700h49.459v-700h-42.9102l-446.52 611.16v-611.16h-49.46v700h45.6904l443.74 -608.24v608.24zM337.519 -123.49l-0.000976562 58.7402h61.8301v-53.8896c0 -43.79 -22.9502 -78.3496 -56.2197 -90.1094l-3.75977 25.7998
c21.0195 10.2998 32.71 30.6094 32.71 59.459h-34.5596z" />
    <glyph glyph-name="uni0156" unicode="&#x156;" horiz-adv-x="636" 
d="M405.49 297.82l177.398 -297.82h-57.0195l-174.79 294.19h-197.02v-294.19h-50.3896v700h257.87c125.54 0 217.63 -85.1699 217.63 -203.64c0 -102.87 -71.1699 -181.12 -173.68 -198.54zM154.059 651.92v-309.661h205.16c99.6699 0 168.64 64.9004 168.64 154.561
c0 89.7402 -69.5098 155.101 -168.64 155.101h-205.16zM297.669 -123.491l-0.000976562 58.7402h61.8301v-53.8896c0 -43.79 -22.9502 -78.3496 -56.2197 -90.1094l-3.75977 25.7998c21.0195 10.2998 32.71 30.6094 32.71 59.459h-34.5596z" />
    <glyph glyph-name="uni0162" unicode="&#x162;" horiz-adv-x="540" 
d="M295.29 0l-8.02051 0.00195312l-15.0195 -53.3301c57.2803 -4.08008 97.4004 -40.6602 97.4004 -89.2705c0 -52.7002 -47.7002 -90.5498 -112.79 -90.5498h-64.2402v32.3496h63.7803c42.9004 0 73.04 24.5195 73.04 58.6592c0 33.6699 -30.6797 58.6602 -74.5801 58.6602
h-17.8604l-6.62988 8.08984l20.4004 75.3896h-5.87012v652.39h-223.36v47.6104h497.11v-47.6104h-223.36v-652.39z" />
    <glyph glyph-name="uni0218" unicode="&#x218;" horiz-adv-x="587" 
d="M300.16 -8.46973c-149.63 0 -249.791 85.3916 -249.791 217.411h51.3203c0 -102.82 80.2803 -167.94 198.011 -167.94c107.11 0 184.78 60.1201 184.78 150.47c0 101.65 -93.3604 122.271 -193.65 144.881c-108.53 24.3896 -225.84 51.2295 -225.84 184.17
c0 115.01 90.2305 187.939 229.25 187.939c136.24 0 223.101 -78.3096 223.101 -198.79h-49.9297c0 92.2002 -71.1396 150.25 -174.1 150.25c-105.73 0 -177.94 -53.5898 -177.94 -137.55c0 -96.6504 93.0498 -117.261 191.8 -139.331
c110.54 -25.3896 229.09 -52.71 229.09 -191.1c0 -123.25 -99.8604 -200.41 -236.101 -200.41zM279.52 -211.058l-3.76074 25.7998c21.0098 10.2998 32.71 30.6094 32.71 59.459h-34.5596v58.7402h61.8203v-53.8896c0 -43.79 -22.9404 -78.3496 -56.21 -90.1094z" />
    <glyph glyph-name="uni021A" unicode="&#x21a;" horiz-adv-x="540" 
d="M21.54 700h497.11v-47.6104h-223.36v-652.39h-50.3896v652.39h-223.36v47.6104zM238.91 -123.49l-0.000976562 58.7402h61.8203v-53.8896c0 -43.79 -22.9404 -78.3496 -56.21 -90.1094l-3.75977 25.7998c21.0098 10.2998 32.71 30.6094 32.71 59.459h-34.5596z" />
    <glyph glyph-name="K.ss01" horiz-adv-x="600" 
d="M103.67 0v700h50.3896v-700h-50.3896zM248.8 364.03l353.78 -364.03h-68.79l-349.54 359.22v8.32031l325.31 332.46h66.4902z" />
    <glyph glyph-name="K.ss03" horiz-adv-x="600" 
d="M103.67 0v700h50.3896v-700h-50.3896zM248.8 364.03l353.78 -364.03h-68.79l-349.54 359.22v8.32031l325.31 332.46h66.4902z" />
    <glyph glyph-name="K.ss04" horiz-adv-x="600" 
d="M103.67 0v700h50.3896v-700h-50.3896zM248.8 364.03l353.78 -364.03h-68.79l-349.54 359.22v8.32031l325.31 332.46h66.4902z" />
    <glyph glyph-name="a" unicode="a" horiz-adv-x="701" 
d="M566.73 540l40.2207 0.00195312v-540h-41.5996l-5.75 117.18c-47.1104 -78.1504 -131.49 -128.11 -234.9 -128.11c-157.85 0 -276.779 121 -276.779 280.93c0 160.39 118.93 280.93 276.779 280.93c103.67 0 188.22 -50.0303 235.26 -128.511zM327.941 36.6924
c132.5 0 229.09 98.6699 229.09 233.32s-96.5898 233.311 -229.09 233.311c-131.42 0 -230.08 -100.74 -230.08 -233.32c0 -133.11 98.6602 -233.311 230.08 -233.311z" />
    <glyph glyph-name="aacute" unicode="&#xe1;" horiz-adv-x="701" 
d="M423.51 757.69l-86.6289 -152h-40.8203l74.5996 152h52.8496zM566.721 540l40.2207 0.00195312v-540h-41.5996l-5.75 117.18c-47.1104 -78.1504 -131.49 -128.11 -234.9 -128.11c-157.85 0 -276.779 121 -276.779 280.93c0 160.39 118.93 280.93 276.779 280.93
c103.67 0 188.22 -50.0303 235.26 -128.511zM327.932 36.6924c132.5 0 229.09 98.6699 229.09 233.32s-96.5898 233.311 -229.09 233.311c-131.42 0 -230.08 -100.74 -230.08 -233.32c0 -133.11 98.6602 -233.311 230.08 -233.311z" />
    <glyph glyph-name="abreve" unicode="&#x103;" horiz-adv-x="701" 
d="M334.16 600.15c-89.4805 0 -149.099 57.8496 -149.099 157.54h39.75v-1.91992c0 -77.8096 44.0596 -120.479 109.35 -120.479c65.8301 0 108.43 42.6699 108.43 120.479v1.91992h40.6797c0 -99.6904 -59.6299 -157.54 -149.11 -157.54zM566.722 540l40.2207 0.00195312
v-540h-41.5996l-5.75 117.18c-47.1104 -78.1504 -131.49 -128.11 -234.9 -128.11c-157.85 0 -276.779 121 -276.779 280.93c0 160.39 118.93 280.93 276.779 280.93c103.67 0 188.22 -50.0303 235.26 -128.511zM327.933 36.6924c132.5 0 229.09 98.6699 229.09 233.32
s-96.5898 233.311 -229.09 233.311c-131.42 0 -230.08 -100.74 -230.08 -233.32c0 -133.11 98.6602 -233.311 230.08 -233.311z" />
    <glyph glyph-name="acircumflex" unicode="&#xe2;" horiz-adv-x="701" 
d="M334.23 725.87l-103.041 -120.18h-45.5303l120.15 152h56.6201l121.15 -152h-45.5195zM566.729 540l40.2207 0.00195312v-540h-41.5996l-5.75 117.18c-47.1104 -78.1504 -131.49 -128.11 -234.9 -128.11c-157.85 0 -276.779 121 -276.779 280.93
c0 160.39 118.93 280.93 276.779 280.93c103.67 0 188.22 -50.0303 235.26 -128.511zM327.94 36.6924c132.5 0 229.09 98.6699 229.09 233.32s-96.5898 233.311 -229.09 233.311c-131.42 0 -230.08 -100.74 -230.08 -233.32c0 -133.11 98.6602 -233.311 230.08 -233.311z
" />
    <glyph glyph-name="adieresis" unicode="&#xe4;" horiz-adv-x="701" 
d="M277.64 720.64v-69.1396h-64.2197v69.1396h64.2197zM454.449 720.64v-69.1396h-64.2197v69.1396h64.2197zM566.729 540l40.2207 0.00195312v-540h-41.5996l-5.75 117.18c-47.1104 -78.1504 -131.49 -128.11 -234.9 -128.11c-157.85 0 -276.779 121 -276.779 280.93
c0 160.39 118.93 280.93 276.779 280.93c103.67 0 188.22 -50.0303 235.26 -128.511zM327.94 36.6924c132.5 0 229.09 98.6699 229.09 233.32s-96.5898 233.311 -229.09 233.311c-131.42 0 -230.08 -100.74 -230.08 -233.32c0 -133.11 98.6602 -233.311 230.08 -233.311z
" />
    <glyph glyph-name="agrave" unicode="&#xe0;" horiz-adv-x="701" 
d="M362.04 605.69h-40.8291l-86.6201 152h52.8496zM566.721 540l40.2207 0.00195312v-540h-41.5996l-5.75 117.18c-47.1104 -78.1504 -131.49 -128.11 -234.9 -128.11c-157.85 0 -276.779 121 -276.779 280.93c0 160.39 118.93 280.93 276.779 280.93
c103.67 0 188.22 -50.0303 235.26 -128.511zM327.932 36.6924c132.5 0 229.09 98.6699 229.09 233.32s-96.5898 233.311 -229.09 233.311c-131.42 0 -230.08 -100.74 -230.08 -233.32c0 -133.11 98.6602 -233.311 230.08 -233.311z" />
    <glyph glyph-name="amacron" unicode="&#x101;" horiz-adv-x="701" 
d="M490.16 707.25v-40.21h-313v40.21h313zM566.72 540l40.2207 0.00195312v-540h-41.5996l-5.75 117.18c-47.1104 -78.1504 -131.49 -128.11 -234.9 -128.11c-157.85 0 -276.779 121 -276.779 280.93c0 160.39 118.93 280.93 276.779 280.93
c103.67 0 188.22 -50.0303 235.26 -128.511zM327.931 36.6924c132.5 0 229.09 98.6699 229.09 233.32s-96.5898 233.311 -229.09 233.311c-131.42 0 -230.08 -100.74 -230.08 -233.32c0 -133.11 98.6602 -233.311 230.08 -233.311z" />
    <glyph glyph-name="aogonek" unicode="&#x105;" horiz-adv-x="701" 
d="M582.69 -189.73c16.3799 0 31.7715 2.4707 47.6211 8.39062v-31.5c-18.6201 -8.62988 -39.6396 -12.4697 -59.1895 -12.4697c-63.8496 0 -109.93 37.46 -109.93 95.0801c0 59.8398 40.9297 112.68 103.399 145.41l-5 102
c-47.1104 -78.1504 -131.5 -128.11 -234.9 -128.11c-157.86 0 -276.78 121 -276.78 280.93c0 160.38 118.92 280.92 276.78 280.92c103.67 0 188.22 -50.0303 235.26 -128.511l6.76953 117.59h40.2197v-540c-63.3203 -22.6904 -106.471 -71.75 -106.471 -120.05
c0 -43.2998 33.2305 -69.6797 82.2207 -69.6797zM327.923 36.6904c132.5 0 229.09 98.6602 229.09 233.311s-96.5898 233.311 -229.09 233.311c-131.42 0 -230.08 -100.74 -230.08 -233.311c0 -133.12 98.6602 -233.311 230.08 -233.311z" />
    <glyph glyph-name="aring" unicode="&#xe5;" horiz-adv-x="701" 
d="M334.16 592.76c-61.5498 0 -104.18 41.1602 -104.18 99.8604c0 59.1602 42.6299 99.8604 104.18 99.8604s104.18 -40.7002 104.18 -99.8604c0 -58.7002 -42.6299 -99.8604 -104.18 -99.8604zM334.16 762.45c-42.5195 0 -71.8193 -27.8398 -71.8193 -69.8301
c0 -41.5303 29.2998 -69.3701 71.8193 -69.3701s71.8193 27.8398 71.8193 69.3701c0 41.9902 -29.2998 69.8301 -71.8193 69.8301zM566.72 540l40.2207 0.00195312v-540h-41.5996l-5.75 117.18c-47.1104 -78.1504 -131.49 -128.11 -234.9 -128.11
c-157.85 0 -276.779 121 -276.779 280.93c0 160.39 118.93 280.93 276.779 280.93c103.67 0 188.22 -50.0303 235.26 -128.511zM327.931 36.6924c132.5 0 229.09 98.6699 229.09 233.32s-96.5898 233.311 -229.09 233.311c-131.42 0 -230.08 -100.74 -230.08 -233.32
c0 -133.11 98.6602 -233.311 230.08 -233.311z" />
    <glyph glyph-name="atilde" unicode="&#xe3;" horiz-adv-x="701" 
d="M196.96 633.67v-10.9795h-32.3496v11.9199c0 67.0098 33.2402 111.25 86.6406 111.25c36.9404 0 59.8701 -17.6299 88.9297 -51.5303c24.5303 -28.29 41.6006 -41.6797 67.1406 -41.6797c32.9902 0 54.29 29.9102 54.29 76.5801v9h32.8096v-9.91992
c0 -67.0098 -33.7002 -111.25 -86.6406 -111.25c-37.25 0 -61.0195 18.0098 -90.5498 50.8398c-26.1396 28.9697 -42.29 41.8896 -65.5205 41.8896c-31.9902 0 -54.75 -30.4502 -54.75 -76.1201zM566.72 540.021l40.2207 0.00195312v-540h-41.5996l-5.75 117.18
c-47.1104 -78.1504 -131.49 -128.11 -234.9 -128.11c-157.85 0 -276.779 121 -276.779 280.93c0 160.39 118.93 280.93 276.779 280.93c103.67 0 188.22 -50.0303 235.26 -128.511zM327.931 36.7129c132.5 0 229.09 98.6699 229.09 233.32s-96.5898 233.311 -229.09 233.311
c-131.42 0 -230.08 -100.74 -230.08 -233.32c0 -133.11 98.6602 -233.311 230.08 -233.311z" />
    <glyph glyph-name="ae" unicode="&#xe6;" horiz-adv-x="1138" 
d="M1092.25 272.22c0 -6.62012 -0.470703 -13.3193 -0.930664 -19.9492h-490.77c7.91992 -125.22 99.5996 -214.66 224.069 -214.66c88.2002 0 159.57 43.9004 199.63 119.25h51.8496c-49.2998 -107.7 -138.85 -167.79 -251.479 -167.79c-98 0 -180.74 50.7598 -227 129.729
l-3.16992 -119.73h-37.4404l-2.70996 112.03c-47.2695 -74.4297 -128.869 -121.569 -227.759 -121.569c-158.78 0 -278.63 121 -278.63 280.47c0 159.46 119.39 280.46 278.63 280.46c99 0 180.67 -47.2402 227.91 -121.8l3.01953 112.26h37.4404l2.79004 -120.12
c46.2695 78.6104 128.97 129.12 226.92 129.12c154.78 0 267.63 -120.38 267.63 -277.7zM824.619 503.701c-120.79 0 -211.28 -85.5596 -223.271 -206.13h442.99c-9.26953 122.97 -102 206.13 -219.72 206.13zM326.539 37.1514c130.88 0 228.16 101.499 228.16 232.849
c0 135.11 -95.6602 232.851 -228.16 232.851c-130.97 0 -228.7 -99.8096 -228.7 -232.85c0 -133.58 97.7305 -232.85 228.7 -232.85z" />
    <glyph glyph-name="aeacute" unicode="&#x1fd;" horiz-adv-x="1138" 
d="M667.55 757.69l-86.6289 -152h-40.8203l74.5996 152h52.8496zM1092.25 272.221c0 -6.62012 -0.470703 -13.3193 -0.930664 -19.9492h-490.77c7.91992 -125.22 99.5996 -214.66 224.069 -214.66c88.2002 0 159.57 43.9004 199.63 119.25h51.8496
c-49.2998 -107.7 -138.85 -167.79 -251.479 -167.79c-98 0 -180.74 50.7598 -227 129.729l-3.16992 -119.73h-37.4404l-2.70996 112.03c-47.2695 -74.4297 -128.869 -121.569 -227.759 -121.569c-158.78 0 -278.63 121 -278.63 280.47c0 159.46 119.39 280.46 278.63 280.46
c99 0 180.67 -47.2402 227.91 -121.8l3.01953 112.26h37.4404l2.79004 -120.12c46.2695 78.6104 128.97 129.12 226.92 129.12c154.78 0 267.63 -120.38 267.63 -277.7zM824.62 503.702c-120.79 0 -211.28 -85.5596 -223.271 -206.13h442.99
c-9.26953 122.97 -102 206.13 -219.72 206.13zM326.54 37.1523c130.88 0 228.16 101.499 228.16 232.849c0 135.11 -95.6602 232.851 -228.16 232.851c-130.97 0 -228.7 -99.8096 -228.7 -232.85c0 -133.58 97.7305 -232.85 228.7 -232.85z" />
    <glyph glyph-name="b" unicode="b" horiz-adv-x="698" 
d="M373.76 550.92c161.39 0 275.77 -120.521 275.77 -280.91c0 -159.93 -114.39 -280.93 -275.779 -280.93c-100.21 0 -184.45 48.4805 -232.79 124.62l-7.46973 -113.7h-39.29v731.39h49v-301.42c48.6797 74.1201 131.88 120.95 230.56 120.95zM370.51 36.6992
c132.5 0 229.09 98.6602 229.09 233.311s-96.5898 233.311 -229.09 233.311c-131.42 0 -230.08 -100.2 -230.08 -233.311c0 -132.11 98.6602 -233.311 230.08 -233.311z" />
    <glyph glyph-name="c" unicode="c" horiz-adv-x="619" 
d="M326.23 -10.9297c-157.85 0 -278.329 120.991 -278.329 280.921c0 161 119.93 280.92 278.319 280.92c122.48 0 218.57 -70.4697 254.87 -177.649h-49.0703c-35.8398 80.9805 -113.2 130.04 -205.79 130.04c-130.65 0 -228.391 -100.66 -228.391 -233.311
c0 -132.11 98.7402 -233.311 228.391 -233.311c92.0498 0 168.49 48.5195 206.4 131.96h50c-37.9102 -109.71 -136 -179.57 -256.4 -179.57z" />
    <glyph glyph-name="cacute" unicode="&#x107;" horiz-adv-x="619" 
d="M286.05 605.69l74.6006 152h52.8496l-86.6299 -152h-40.8203zM326.23 -10.9199c-157.85 0 -278.329 120.991 -278.329 280.921c0 161 119.93 280.92 278.319 280.92c122.48 0 218.57 -70.4697 254.87 -177.649h-49.0703c-35.8398 80.9805 -113.2 130.04 -205.79 130.04
c-130.65 0 -228.391 -100.66 -228.391 -233.311c0 -132.11 98.7402 -233.311 228.391 -233.311c92.0498 0 168.49 48.5195 206.4 131.96h50c-37.9102 -109.71 -136 -179.57 -256.4 -179.57z" />
    <glyph glyph-name="ccaron" unicode="&#x10d;" horiz-adv-x="619" 
d="M427.59 757.69h45.5312l-121.15 -152h-56.6201l-120.15 152h45.5195l103.04 -120.18zM326.231 -10.9199c-157.85 0 -278.329 120.991 -278.329 280.921c0 161 119.93 280.92 278.319 280.92c122.48 0 218.57 -70.4697 254.87 -177.649h-49.0703
c-35.8398 80.9805 -113.2 130.04 -205.79 130.04c-130.65 0 -228.391 -100.66 -228.391 -233.311c0 -132.11 98.7402 -233.311 228.391 -233.311c92.0498 0 168.49 48.5195 206.4 131.96h50c-37.9102 -109.71 -136 -179.57 -256.4 -179.57z" />
    <glyph glyph-name="ccedilla" unicode="&#xe7;" horiz-adv-x="619" 
d="M582.63 168.65c-36.7197 -106.26 -129.896 -175.139 -245.106 -179.369l-12.2002 -42.6396c58.4199 -4.04004 99.0596 -39.6201 99.0596 -89.7002c0 -52.7002 -44 -90.0898 -107.7 -90.0898h-67.4805v30.96h62.3896c44.29 0 74.8896 24.9102 74.8896 60.5098
c0 35.0596 -31.1396 60.0498 -75.9697 60.0498h-17.8604l-5.7002 6.24023l17.5195 65.2402c-147.04 10.5498 -256.57 127.649 -256.57 280.149c0 161 119.93 280.92 278.319 280.92c122.48 0 218.57 -70.4697 254.87 -177.649h-49.0703
c-35.8398 80.9805 -113.2 130.04 -205.79 130.04c-130.65 0 -228.391 -100.66 -228.391 -233.311c0 -132.11 98.7402 -233.311 228.391 -233.311c92.0498 0 168.49 48.5195 206.4 131.96h50z" />
    <glyph glyph-name="ccircumflex" unicode="&#x109;" horiz-adv-x="619" 
d="M473.58 605.69h-45.5303l-103.83 120.18l-103.04 -120.18h-45.5303l120.15 152h56.6299zM326.229 -10.9199c-157.85 0 -278.329 120.991 -278.329 280.921c0 161 119.93 280.92 278.319 280.92c122.48 0 218.57 -70.4697 254.87 -177.649h-49.0703
c-35.8398 80.9805 -113.2 130.04 -205.79 130.04c-130.65 0 -228.391 -100.66 -228.391 -233.311c0 -132.11 98.7402 -233.311 228.391 -233.311c92.0498 0 168.49 48.5195 206.4 131.96h50c-37.9102 -109.71 -136 -179.57 -256.4 -179.57z" />
    <glyph glyph-name="cdotaccent" unicode="&#x10b;" horiz-adv-x="619" 
d="M293.43 651.5v69.1396h61.4502v-69.1396h-61.4502zM326.229 -10.9199c-157.85 0 -278.329 120.991 -278.329 280.921c0 161 119.93 280.92 278.319 280.92c122.48 0 218.57 -70.4697 254.87 -177.649h-49.0703c-35.8398 80.9805 -113.2 130.04 -205.79 130.04
c-130.65 0 -228.391 -100.66 -228.391 -233.311c0 -132.11 98.7402 -233.311 228.391 -233.311c92.0498 0 168.49 48.5195 206.4 131.96h50c-37.9102 -109.71 -136 -179.57 -256.4 -179.57z" />
    <glyph glyph-name="d" unicode="d" horiz-adv-x="697" 
d="M554.24 731.39l49 -0.00976562v-731.39h-39.29l-7.2998 112.84c-47.8203 -75.6504 -131.24 -123.771 -232.431 -123.771c-159.24 0 -276.32 121 -276.32 280.93c0 160.39 117.08 280.93 276.32 280.93c99.5098 0 181.83 -46.3496 230.021 -119.81v300.28z
M327.471 36.6797c132.5 0 229.55 99.5889 229.55 233.319c0 134.19 -97.0498 233.311 -229.55 233.311c-131.42 0 -229.62 -99.7402 -229.62 -233.32c0 -133.04 98.2002 -233.31 229.62 -233.31z" />
    <glyph glyph-name="eth" unicode="&#xf0;" horiz-adv-x="644" 
d="M372.87 712.34c135.33 -82.6602 211.752 -238.819 212.752 -445.229c0 -161.8 -111.68 -277.58 -268.55 -277.58c-155.08 0 -268.16 110.62 -268.16 262.32c0 150.31 114.46 260 263.07 260c87.8398 0 167.77 -40.7695 214.319 -107.149
c-23.2197 126.2 -89.96 221.49 -187.69 276.62l-129.9 -117.66l-22.7998 22.8799l121.85 110.38c-55.5098 25.0195 -119.49 38.3193 -190.05 38.4795v42.9902c85.6396 -0.160156 161.229 -17.3506 225.329 -49.5107l75.6299 68.5195l22.3398 -23.3398zM317.082 35.3008
c125.43 0 219.55 94.1201 219.55 217.01c-1 125.96 -97.2002 217.01 -219.55 217.01c-126.96 0 -220.55 -94.1201 -220.55 -217.01s94.1299 -217.01 220.55 -217.01z" />
    <glyph glyph-name="dcaron" unicode="&#x10f;" horiz-adv-x="697" 
d="M554.24 431.11v300.271h49v-731.39h-39.29l-7.2998 112.84c-47.8203 -75.6504 -131.24 -123.771 -232.431 -123.771c-159.24 0 -276.32 121 -276.32 280.93c0 160.39 117.08 280.93 276.32 280.93c99.5098 0 181.83 -46.3496 230.021 -119.81zM670.53 731.381
l61.8096 -0.0107422v-53.8896c0 -40.5596 -22.4102 -77.8096 -59.4297 -89.0293v30.0996c19.4004 8.15039 30.0303 29 30.0303 54.0898h-32.4102v58.7402zM327.45 36.6699c132.5 0 229.55 99.5889 229.55 233.319c0 134.19 -97.0498 233.311 -229.55 233.311
c-131.42 0 -229.62 -99.7402 -229.62 -233.32c0 -133.04 98.2002 -233.31 229.62 -233.31z" />
    <glyph glyph-name="dcroat" unicode="&#x111;" horiz-adv-x="697" 
d="M687.08 646.42v-42.0684h-83.8398v-604.36h-39.29l-7.2998 112.84c-47.8203 -75.6504 -131.24 -123.771 -232.431 -123.771c-159.24 0 -276.32 121 -276.32 280.93c0 160.39 117.08 280.93 276.32 280.93c99.5098 0 181.83 -46.3496 230.021 -119.81v173.25h-214.2
v42.0596h214.2v84.96h49v-84.96h83.8398zM327.47 36.6816c132.5 0 229.55 99.5889 229.55 233.319c0 134.19 -97.0498 233.311 -229.55 233.311c-131.42 0 -229.62 -99.7402 -229.62 -233.32c0 -133.04 98.2002 -233.31 229.62 -233.31z" />
    <glyph glyph-name="e" unicode="e" horiz-adv-x="634" 
d="M588.31 271.84c0 -6.16016 -0.460938 -12.8594 -0.920898 -19.0195h-490.31c7.90039 -126.16 99.9805 -215.66 223.61 -215.66c88.6602 0 159.561 44.8203 199.62 120.25h51.8496c-49.2998 -108.24 -138.85 -168.33 -251.47 -168.33
c-154.85 0 -272.239 121 -272.239 281.46c0 159.39 117.39 280.39 272.239 280.39c158.01 0 267.62 -122.7 267.62 -279.09zM320.688 504.241c-120.24 0 -210.631 -84.9795 -222.771 -205.659h442.05c-11.8096 123.85 -102.369 205.659 -219.279 205.659z" />
    <glyph glyph-name="eacute" unicode="&#xe9;" horiz-adv-x="634" 
d="M407.5 757.69l-86.6289 -152h-40.8203l74.5996 152h52.8496zM588.312 271.841c0 -6.16016 -0.460938 -12.8594 -0.920898 -19.0195h-490.31c7.90039 -126.16 99.9805 -215.66 223.61 -215.66c88.6602 0 159.561 44.8203 199.62 120.25h51.8496
c-49.2998 -108.24 -138.85 -168.33 -251.47 -168.33c-154.85 0 -272.239 121 -272.239 281.46c0 159.39 117.39 280.39 272.239 280.39c158.01 0 267.62 -122.7 267.62 -279.09zM320.69 504.242c-120.24 0 -210.631 -84.9795 -222.771 -205.659h442.05
c-11.8096 123.85 -102.369 205.659 -219.279 205.659z" />
    <glyph glyph-name="ebreve" unicode="&#x115;" horiz-adv-x="634" 
d="M318.15 600.15c-89.4697 0 -149.099 57.8496 -149.099 157.54h39.75v-1.91992c0 -77.8096 44.0596 -120.479 109.35 -120.479c65.8301 0 108.43 42.6699 108.43 120.479v1.91992h40.6797c0 -99.6904 -59.6299 -157.54 -149.11 -157.54zM588.312 271.841
c0 -6.16016 -0.460938 -12.8594 -0.920898 -19.0195h-490.31c7.90039 -126.16 99.9805 -215.66 223.61 -215.66c88.6602 0 159.561 44.8203 199.62 120.25h51.8496c-49.2998 -108.24 -138.85 -168.33 -251.47 -168.33c-154.85 0 -272.239 121 -272.239 281.46
c0 159.39 117.39 280.39 272.239 280.39c158.01 0 267.62 -122.7 267.62 -279.09zM320.69 504.242c-120.24 0 -210.631 -84.9795 -222.771 -205.659h442.05c-11.8096 123.85 -102.369 205.659 -219.279 205.659z" />
    <glyph glyph-name="ecaron" unicode="&#x11b;" horiz-adv-x="634" 
d="M345.96 605.69h-56.6084l-120.15 152h45.5195l103.04 -120.18l103.83 120.18h45.5195zM588.321 271.841c0 -6.16016 -0.460938 -12.8594 -0.920898 -19.0195h-490.31c7.90039 -126.16 99.9805 -215.66 223.61 -215.66c88.6602 0 159.561 44.8203 199.62 120.25h51.8496
c-49.2998 -108.24 -138.85 -168.33 -251.47 -168.33c-154.85 0 -272.239 121 -272.239 281.46c0 159.39 117.39 280.39 272.239 280.39c158.01 0 267.62 -122.7 267.62 -279.09zM320.7 504.242c-120.24 0 -210.631 -84.9795 -222.771 -205.659h442.05
c-11.8096 123.85 -102.369 205.659 -219.279 205.659z" />
    <glyph glyph-name="ecircumflex" unicode="&#xea;" horiz-adv-x="634" 
d="M318.22 725.87l-103.051 -120.18h-45.5303l120.15 152h56.6299l121.15 -152h-45.5195zM588.309 271.841c0 -6.16016 -0.460938 -12.8594 -0.920898 -19.0195h-490.31c7.90039 -126.16 99.9805 -215.66 223.61 -215.66c88.6602 0 159.561 44.8203 199.62 120.25h51.8496
c-49.2998 -108.24 -138.85 -168.33 -251.47 -168.33c-154.85 0 -272.239 121 -272.239 281.46c0 159.39 117.39 280.39 272.239 280.39c158.01 0 267.62 -122.7 267.62 -279.09zM320.688 504.242c-120.24 0 -210.631 -84.9795 -222.771 -205.659h442.05
c-11.8096 123.85 -102.369 205.659 -219.279 205.659z" />
    <glyph glyph-name="edieresis" unicode="&#xeb;" horiz-adv-x="634" 
d="M261.63 720.64v-69.1396h-64.2197v69.1396h64.2197zM438.439 720.64v-69.1396h-64.2197v69.1396h64.2197zM588.31 271.84c0 -6.16016 -0.460938 -12.8594 -0.920898 -19.0195h-490.31c7.90039 -126.16 99.9805 -215.66 223.61 -215.66
c88.6602 0 159.561 44.8203 199.62 120.25h51.8496c-49.2998 -108.24 -138.85 -168.33 -251.47 -168.33c-154.85 0 -272.239 121 -272.239 281.46c0 159.39 117.39 280.39 272.239 280.39c158.01 0 267.62 -122.7 267.62 -279.09zM320.688 504.241
c-120.24 0 -210.631 -84.9795 -222.771 -205.659h442.05c-11.8096 123.85 -102.369 205.659 -219.279 205.659z" />
    <glyph glyph-name="edotaccent" unicode="&#x117;" horiz-adv-x="634" 
d="M348.88 720.64v-69.1396h-61.4502v69.1396h61.4502zM588.32 271.84c0 -6.16016 -0.460938 -12.8594 -0.920898 -19.0195h-490.31c7.90039 -126.16 99.9805 -215.66 223.61 -215.66c88.6602 0 159.561 44.8203 199.62 120.25h51.8496
c-49.2998 -108.24 -138.85 -168.33 -251.47 -168.33c-154.85 0 -272.239 121 -272.239 281.46c0 159.39 117.39 280.39 272.239 280.39c158.01 0 267.62 -122.7 267.62 -279.09zM320.699 504.241c-120.24 0 -210.631 -84.9795 -222.771 -205.659h442.05
c-11.8096 123.85 -102.369 205.659 -219.279 205.659z" />
    <glyph glyph-name="egrave" unicode="&#xe8;" horiz-adv-x="634" 
d="M346.03 605.69h-40.8193l-86.6299 152h52.8496zM588.321 271.841c0 -6.16016 -0.460938 -12.8594 -0.920898 -19.0195h-490.31c7.90039 -126.16 99.9805 -215.66 223.61 -215.66c88.6602 0 159.561 44.8203 199.62 120.25h51.8496
c-49.2998 -108.24 -138.85 -168.33 -251.47 -168.33c-154.85 0 -272.239 121 -272.239 281.46c0 159.39 117.39 280.39 272.239 280.39c158.01 0 267.62 -122.7 267.62 -279.09zM320.7 504.242c-120.24 0 -210.631 -84.9795 -222.771 -205.659h442.05
c-11.8096 123.85 -102.369 205.659 -219.279 205.659z" />
    <glyph glyph-name="emacron" unicode="&#x113;" horiz-adv-x="634" 
d="M474.15 707.25v-40.21h-313v40.21h313zM588.311 271.84c0 -6.16016 -0.460938 -12.8594 -0.920898 -19.0195h-490.31c7.90039 -126.16 99.9805 -215.66 223.61 -215.66c88.6602 0 159.561 44.8203 199.62 120.25h51.8496
c-49.2998 -108.24 -138.85 -168.33 -251.47 -168.33c-154.85 0 -272.239 121 -272.239 281.46c0 159.39 117.39 280.39 272.239 280.39c158.01 0 267.62 -122.7 267.62 -279.09zM320.689 504.241c-120.24 0 -210.631 -84.9795 -222.771 -205.659h442.05
c-11.8096 123.85 -102.369 205.659 -219.279 205.659z" />
    <glyph glyph-name="eogonek" unicode="&#x119;" horiz-adv-x="635" 
d="M589.23 276c0 -7.5498 -0.458984 -15.6387 -1.37891 -23.1885h-490.35c7.95996 -125.18 100.3 -215.66 224.109 -215.66c88.2002 0 158.641 44.3604 199.16 120.25h51.8496c-34.0596 -74.0596 -88.5098 -124.529 -157.43 -151.85
c-60.0801 -27.7803 -98.1396 -78.6904 -98.1396 -124.681c0 -43.2998 31.8398 -70.5996 82.21 -70.5996c16.3896 0 32.2393 2.46973 47.6191 8.38965v-31.04c-17.6904 -8.16016 -38.71 -12.9297 -58.7197 -12.9297c-65.7002 0 -109.94 38.8496 -109.94 94.6191
c0 42.5098 26.6396 89.3301 66.5498 120.66c-6.84961 -0.330078 -14.3301 -0.44043 -23.1602 -0.44043c-155.31 0 -272.699 121.47 -272.699 281.47c0 158.46 117.39 279.46 272.699 279.46c157.09 0 267.62 -123.16 267.62 -274.46zM321.611 504.241
c-120.93 0 -214.829 -86.3799 -223.179 -205.67h442.09c-11.5303 123.18 -101.471 205.67 -218.911 205.67z" />
    <glyph glyph-name="f" unicode="f" horiz-adv-x="374" 
d="M361.41 538.15l-0.00976562 -42.0586h-183.5v-496.09h-49v496.09h-113.6v42.0596h113.6v42.9297c0 122.06 49.2402 173.069 174.08 173.069h57.96v-40.6699h-50.0996c-99.4102 0 -134.32 -34.4502 -134.32 -133.33v-42h184.89z" />
    <glyph glyph-name="g" unicode="g" horiz-adv-x="676" 
d="M546.74 540l34.6611 0.0302734v-461.78c0 -174.54 -97.7803 -280.54 -258.48 -280.54c-124.32 0 -212.33 63.5498 -244.55 170.95h49c29.4502 -80.5898 102.9 -125.649 195.561 -125.649c128.73 0 210.41 85.6602 210.41 229.68v61.7197
c-46.2305 -71.0596 -126.04 -115.779 -221.021 -115.779c-149.46 0 -263.85 114.92 -263.85 265.92c0 150.46 114.92 266.38 263.84 266.38c98.4199 0 181.189 -49.3203 226.579 -125.931zM316.921 65.79c124.89 0 215.939 92.6699 215.939 218.78
c0 126.04 -91.5898 219.24 -215.939 219.24c-124.89 0 -218.55 -94.7402 -218.55 -219.24c0 -124.58 93.6602 -218.78 218.55 -218.78z" />
    <glyph glyph-name="gbreve" unicode="&#x11f;" horiz-adv-x="676" 
d="M321.54 600.15c-89.4805 0 -149.099 57.8496 -149.099 157.54h39.75v-1.91992c0 -77.8096 44.0596 -120.479 109.35 -120.479c65.8301 0 108.43 42.6699 108.43 120.479v1.91992h40.6797c0 -99.6904 -59.6299 -157.54 -149.11 -157.54zM546.742 540l34.6611 0.0302734
v-461.78c0 -174.54 -97.7803 -280.54 -258.48 -280.54c-124.32 0 -212.33 63.5498 -244.55 170.95h49c29.4502 -80.5898 102.9 -125.649 195.561 -125.649c128.73 0 210.41 85.6602 210.41 229.68v61.7197c-46.2305 -71.0596 -126.04 -115.779 -221.021 -115.779
c-149.46 0 -263.85 114.92 -263.85 265.92c0 150.46 114.92 266.38 263.84 266.38c98.4199 0 181.189 -49.3203 226.579 -125.931zM316.923 65.79c124.89 0 215.939 92.6699 215.939 218.78c0 126.04 -91.5898 219.24 -215.939 219.24
c-124.89 0 -218.55 -94.7402 -218.55 -219.24c0 -124.58 93.6602 -218.78 218.55 -218.78z" />
    <glyph glyph-name="gcircumflex" unicode="&#x11d;" horiz-adv-x="676" 
d="M321.6 725.87l-103.041 -120.18h-45.5303l120.15 152h56.6201l121.15 -152h-45.5195zM546.729 540l34.6611 0.0302734v-461.78c0 -174.54 -97.7803 -280.54 -258.48 -280.54c-124.32 0 -212.33 63.5498 -244.55 170.95h49
c29.4502 -80.5898 102.9 -125.649 195.561 -125.649c128.73 0 210.41 85.6602 210.41 229.68v61.7197c-46.2305 -71.0596 -126.04 -115.779 -221.021 -115.779c-149.46 0 -263.85 114.92 -263.85 265.92c0 150.46 114.92 266.38 263.84 266.38
c98.4199 0 181.189 -49.3203 226.579 -125.931zM316.909 65.79c124.89 0 215.939 92.6699 215.939 218.78c0 126.04 -91.5898 219.24 -215.939 219.24c-124.89 0 -218.55 -94.7402 -218.55 -219.24c0 -124.58 93.6602 -218.78 218.55 -218.78z" />
    <glyph glyph-name="gdotaccent" unicode="&#x121;" horiz-adv-x="676" 
d="M352.26 720.64v-69.1396h-61.4502v69.1396h61.4502zM546.729 540l34.6611 0.0302734v-461.78c0 -174.54 -97.7803 -280.54 -258.48 -280.54c-124.32 0 -212.33 63.5498 -244.55 170.95h49c29.4502 -80.5898 102.9 -125.649 195.561 -125.649
c128.73 0 210.41 85.6602 210.41 229.68v61.7197c-46.2305 -71.0596 -126.04 -115.779 -221.021 -115.779c-149.46 0 -263.85 114.92 -263.85 265.92c0 150.46 114.92 266.38 263.84 266.38c98.4199 0 181.189 -49.3203 226.579 -125.931zM316.91 65.79
c124.89 0 215.939 92.6699 215.939 218.78c0 126.04 -91.5898 219.24 -215.939 219.24c-124.89 0 -218.55 -94.7402 -218.55 -219.24c0 -124.58 93.6602 -218.78 218.55 -218.78z" />
    <glyph glyph-name="h" unicode="h" horiz-adv-x="641" 
d="M345.64 550.92c129.61 0 210.679 -89.0693 210.679 -230.149v-320.77h-49v310.6c0 122.59 -64.0498 195.02 -172.78 195.02c-104.52 0 -191.329 -89.4297 -191.329 -197.5v-308.12h-49v731.39h49v-295.72c39.8203 69.5703 115.221 115.25 202.431 115.25z" />
    <glyph glyph-name="hbar" unicode="&#x127;" horiz-adv-x="641" 
d="M345.64 550.92c129.61 0 210.679 -89.0693 210.679 -230.149v-320.77h-49v310.6c0 122.59 -64.0498 195.02 -172.78 195.02c-104.52 0 -191.329 -89.4297 -191.329 -197.5v-308.12h-49v604.36h-98.3799v42.0596h98.3799v84.9697h49v-84.9697h199.66v-42.0596h-199.66
v-168.69c39.8203 69.5703 115.221 115.25 202.431 115.25z" />
    <glyph glyph-name="hcircumflex" unicode="&#x125;" horiz-adv-x="641" 
d="M221.69 790.01l-103.792 112.22l-102.63 -112.22h-45.5195l120.15 142h56.6201l120.69 -142h-45.5195zM345.639 550.92c129.61 0 210.679 -89.0693 210.679 -230.149v-320.77h-49v310.6c0 122.59 -64.0498 195.02 -172.78 195.02
c-104.52 0 -191.329 -89.4297 -191.329 -197.5v-308.12h-49v731.39h49v-295.72c39.8203 69.5703 115.221 115.25 202.431 115.25z" />
    <glyph glyph-name="i" unicode="i" horiz-adv-x="237" 
d="M87.9902 651.5v69.1396h61.4502v-69.1396h-61.4502zM94.2207 -0v540h49v-540h-49z" />
    <glyph glyph-name="dotlessi" unicode="&#x131;" horiz-adv-x="237" 
d="M94.21 0v540h49v-540h-49z" />
    <glyph glyph-name="iacute" unicode="&#xed;" horiz-adv-x="237" 
d="M94.8301 605.69l54.9902 152h51.9297l-65.6299 -152h-41.29zM94.21 0v540h49v-540h-49z" />
    <glyph glyph-name="ibreve" unicode="&#x12d;" horiz-adv-x="237" 
d="M119.17 600.15c-83.4697 0 -139.099 57.8496 -139.099 157.54h39.75v-1.92969c0 -77.8096 40.0596 -120.489 99.3496 -120.489c59.8301 0 98.4297 42.6797 98.4297 120.489v1.92969h40.6699c0 -99.6904 -55.6201 -157.54 -139.101 -157.54zM94.2109 0v540h49v-540h-49z
" />
    <glyph glyph-name="icircumflex" unicode="&#xee;" horiz-adv-x="237" 
d="M144.75 757.69l106.76 -152h-43.6699l-89.0898 120.07l-89.0898 -120.07h-43.21l106.76 152h51.54zM94.21 0v540h49v-540h-49z" />
    <glyph glyph-name="idieresis" unicode="&#xef;" horiz-adv-x="237" 
d="M28.1104 650.96v69.1396h57.8701v-69.1396h-57.8701zM151.25 650.5v69.1396h57.8701v-69.1396h-57.8701zM94.21 -0v540h49v-540h-49z" />
    <glyph glyph-name="igrave" unicode="&#xec;" horiz-adv-x="237" 
d="M139.74 605.69h-41.29l-65.6299 152h51.9297zM94.21 0v540h49v-540h-49z" />
    <glyph glyph-name="ij" unicode="&#x133;" horiz-adv-x="558" 
d="M87.9902 651.5v69.1396h61.4502v-69.1396h-61.4502zM408.53 651.5v69.1396h61.4502v-69.1396h-61.4502zM94.2207 -0v540h49v-540h-49zM266.621 -191.39l0.0107422 45.3008h23.25c78.8203 0 124.42 46.0596 124.42 124.35v561.74h49v-564.98
c0 -101.47 -65.4805 -166.41 -167.421 -166.41h-29.2598z" />
    <glyph glyph-name="imacron" unicode="&#x12b;" horiz-adv-x="237" 
d="M-4.20996 667.03v40.2197h245.84v-40.2197h-245.84zM94.21 0v540h49v-540h-49z" />
    <glyph glyph-name="iogonek" unicode="&#x12f;" horiz-adv-x="238" 
d="M149.97 720.64v-69.1396h-61.4502v69.1396h61.4502zM119.96 -189.73c16.3896 0 31.7793 2.46875 47.6191 8.38867v-31.5c-18.6201 -8.62988 -39.6299 -12.4697 -59.1797 -12.4697c-63.8496 0 -109.939 37.46 -109.939 95.0801c0 51.5703 37.8398 102.98 96.29 135.551
v534.68h49v-537.14l0.459961 -2.86035c-63.3096 -22.6904 -106.46 -71.75 -106.46 -120.05c0 -43.2998 33.2197 -69.6797 82.21 -69.6797z" />
    <glyph glyph-name="itilde" unicode="&#x129;" horiz-adv-x="237" 
d="M192.4 615.67c-38.7002 0 -62.1709 27.0801 -83.7109 52.2998c-18.6904 21.3799 -35.9902 42.29 -61.4404 42.29c-28.5195 0 -47.4395 -26.75 -47.4395 -68.2598v-17.9404h-34.2002v15.6299c0 65.1602 27.54 108.93 78.8701 108.93
c40.7002 0 63.7002 -27.6104 84.7705 -52.8301c18.2305 -21.8398 35.4502 -42.2197 60.3604 -42.2197c28.5996 0 46.9795 26.21 46.9795 69.1904v15.4697h34.2002v-13.6201c0 -67.4697 -29.3896 -108.939 -78.3896 -108.939zM94.1992 -0v540h49v-540h-49z" />
    <glyph glyph-name="j" unicode="j" horiz-adv-x="249" 
d="M100.45 651.5v69.1396h61.4502v-69.1396h-61.4502zM-41.46 -191.391l0.0107422 45.3008h23.25c78.8203 0 124.42 46.0596 124.42 124.35v561.74h49v-564.98c0 -101.47 -65.4805 -166.41 -167.421 -166.41h-29.2598z" />
    <glyph glyph-name="jcircumflex" unicode="&#x135;" horiz-adv-x="249" 
d="M155.82 757.69l106.76 -152h-43.6699l-89.0898 120.07l-89.0801 -120.07h-43.2197l106.76 152h51.54zM106.21 -18.5l0.000976562 558.501h49v-560.81c0 -101.94 -65.9404 -166.881 -167.41 -166.881h-27.1904v45.2998h20.71c78.8301 0 124.89 46.0596 124.89 123.89z" />
    <glyph glyph-name="k" unicode="k" horiz-adv-x="524" 
d="M457.27 0l-215.511 258.881h-93.9199v-258.88h-49v731.39h49v-426.74h94.71l196.11 235.35h60.4004l-214.91 -258.49l234.91 -281.51h-61.79z" />
    <glyph glyph-name="kgreenlandic" unicode="&#x138;" horiz-adv-x="517" 
d="M452.65 0l-215.512 258.88h-93.9297v-258.88h-49v540h49v-235.35h94.75l196.61 235.35h60.4004l-215.43 -258.5l234.9 -281.5h-61.79z" />
    <glyph glyph-name="l" unicode="l" horiz-adv-x="237" 
d="M94.21 0v731.39h49v-731.39h-49z" />
    <glyph glyph-name="lacute" unicode="&#x13a;" horiz-adv-x="237" 
d="M88.1504 812.61l82.2803 142h52.8604l-94.3203 -142h-40.8203zM94.2109 0v731.39h49v-731.39h-49z" />
    <glyph glyph-name="lcaron" unicode="&#x13e;" horiz-adv-x="237" 
d="M94.21 0v731.39h49v-731.39h-49zM214.74 588.46v30.0996c19.3896 8.15039 30.0195 29 30.0195 54.0898h-32.4102v58.7402h61.8203v-53.8896c0 -40.5596 -22.4102 -77.8096 -59.4297 -89.04z" />
    <glyph glyph-name="ldot" unicode="&#x140;" horiz-adv-x="292" 
d="M94.21 0v731.39h49v-731.39h-49zM232.35 325.42v76.5303h64.2197v-76.5303h-64.2197z" />
    <glyph glyph-name="lslash" unicode="&#x142;" horiz-adv-x="237" 
d="M254.57 509.66v-47.2998l-111.36 -68.3096v-394.05h-49v364l-111.9 -68.6396v47.2998l111.9 68.6396v320.09h49v-290.04z" />
    <glyph glyph-name="m" unicode="m" horiz-adv-x="954" 
d="M684.69 550.92c110.7 0 184.011 -84.9219 184.011 -208.682v-342.24h-48.4697l-0.530273 328.82c0 107.9 -55.9004 176.801 -143.801 176.801c-98.1201 0 -169.64 -80.9102 -170.18 -195.18v-310.44h-48.0703v328.82c0 108.98 -55.3604 176.801 -144.271 176.801
c-98.1104 0 -169.63 -80.9102 -170.17 -195.18v-310.44h-49v540h36.9805l8.38965 -95.5801c37.0703 66.29 104.16 106.5 183.521 106.5c82.75 0 144.51 -47.9902 169.91 -124.44c34.3096 76.9102 105.739 124.44 191.68 124.44z" />
    <glyph glyph-name="n" unicode="n" horiz-adv-x="641" 
d="M345.64 550.92c129.61 0 210.69 -93.2295 210.69 -230.149v-320.77h-49v310.6c0 122.59 -64.0498 195.02 -172.78 195.02c-104.52 0 -191.329 -89.4297 -191.329 -197.5v-308.12h-49v540h36.5098l9.66992 -109.4c39 72.4102 115.93 120.32 205.239 120.32z" />
    <glyph glyph-name="nacute" unicode="&#x144;" horiz-adv-x="641" 
d="M415.12 757.69l-86.6191 -152h-40.8301l74.5996 152h52.8496zM345.641 550.921c129.61 0 210.69 -93.2295 210.69 -230.149v-320.77h-49v310.6c0 122.59 -64.0498 195.02 -172.78 195.02c-104.52 0 -191.329 -89.4297 -191.329 -197.5v-308.12h-49v540h36.5098
l9.66992 -109.4c39 72.4102 115.93 120.32 205.239 120.32z" />
    <glyph glyph-name="ncaron" unicode="&#x148;" horiz-adv-x="641" 
d="M353.58 605.69h-56.6182l-120.15 152h45.5195l103.05 -120.18l103.83 120.18h45.5195zM345.642 550.921c129.61 0 210.69 -93.2295 210.69 -230.149v-320.77h-49v310.6c0 122.59 -64.0498 195.02 -172.78 195.02c-104.52 0 -191.329 -89.4297 -191.329 -197.5v-308.12
h-49v540h36.5098l9.66992 -109.4c39 72.4102 115.93 120.32 205.239 120.32z" />
    <glyph glyph-name="eng" unicode="&#x14b;" horiz-adv-x="641" 
d="M345.64 550.46c129.61 0 210.678 -89.0674 210.678 -230.147v-321.46c0 -116.32 -73.46 -190.24 -189.77 -190.24h-21.1797v45.2998h15.1699c90.3398 0 146.78 56.9004 146.78 147.25v308.97c0 123.06 -64.0498 195.489 -172.78 195.489
c-104.52 0 -191.329 -89.9004 -191.329 -197.96v-307.66h-49v540h36.5098l10.0996 -109.07c39.1504 71.9697 115.841 119.529 204.821 119.529z" />
    <glyph glyph-name="ntilde" unicode="&#xf1;" horiz-adv-x="641" 
d="M188.57 633.67l0.000976562 -10.999h-32.3496v11.9297c0 67.0098 33.2402 111.25 86.6406 111.25c36.9404 0 59.8604 -17.6299 88.9307 -51.5303c24.5195 -28.2803 41.5898 -41.6699 67.1299 -41.6699c32.9902 0 54.29 29.9102 54.29 76.5801v9h32.8096v-9.91992
c0 -67.0098 -33.7002 -111.25 -86.6406 -111.25c-37.2402 0 -61.0205 18.0098 -90.5508 50.8398c-26.1299 28.9697 -42.2803 41.8994 -65.5107 41.8994c-31.9805 0 -54.75 -30.4502 -54.75 -76.1299zM345.642 550.921c129.61 0 210.69 -93.2295 210.69 -230.149v-320.77h-49
v310.6c0 122.59 -64.0498 195.02 -172.78 195.02c-104.52 0 -191.329 -89.4297 -191.329 -197.5v-308.12h-49v540h36.5098l9.66992 -109.4c39 72.4102 115.93 120.32 205.239 120.32z" />
    <glyph glyph-name="o" unicode="o" horiz-adv-x="661" 
d="M330.61 -10.9297c-161.31 0 -282.699 120 -282.699 280.93c0 161.92 121.39 280.92 282.699 280.92c161.85 0 282.699 -120 282.699 -280.92c0 -160.93 -120.85 -280.93 -282.699 -280.93zM330.61 36.6807c134.04 0 232.78 99.2803 232.78 233.32
s-98.7402 233.31 -232.78 233.31s-232.78 -98.7402 -232.78 -233.32c0 -134.04 99.2803 -233.31 232.78 -233.31z" />
    <glyph glyph-name="oacute" unicode="&#xf3;" horiz-adv-x="661" 
d="M292.51 605.69l74.6006 152h52.8496l-86.6299 -152h-40.8203zM330.61 -10.9199c-161.31 0 -282.699 120 -282.699 280.93c0 161.92 121.39 280.92 282.699 280.92c161.85 0 282.699 -120 282.699 -280.92c0 -160.93 -120.85 -280.93 -282.699 -280.93zM330.61 36.6904
c134.04 0 232.78 99.2803 232.78 233.32s-98.7402 233.31 -232.78 233.31s-232.78 -98.7402 -232.78 -233.32c0 -134.04 99.2803 -233.31 232.78 -233.31z" />
    <glyph glyph-name="obreve" unicode="&#x14f;" horiz-adv-x="661" 
d="M330.61 600.15c-89.4805 0 -149.089 57.8496 -149.089 157.54h39.75v-1.91992c0 -77.8096 44.0596 -120.479 109.35 -120.479c65.8203 0 108.42 42.6699 108.42 120.479v1.91992h40.6797c0 -99.6904 -59.6299 -157.54 -149.11 -157.54zM330.622 -10.9297
c-161.31 0 -282.699 120 -282.699 280.93c0 161.92 121.39 280.92 282.699 280.92c161.85 0 282.699 -120 282.699 -280.92c0 -160.93 -120.85 -280.93 -282.699 -280.93zM330.622 36.6807c134.04 0 232.78 99.2803 232.78 233.32s-98.7402 233.31 -232.78 233.31
s-232.78 -98.7402 -232.78 -233.32c0 -134.04 99.2803 -233.31 232.78 -233.31z" />
    <glyph glyph-name="ocircumflex" unicode="&#xf4;" horiz-adv-x="661" 
d="M480.04 605.69h-45.5205l-103.83 120.18l-103.04 -120.18h-45.5303l120.15 152h56.6201zM330.619 -10.9199c-161.31 0 -282.699 120 -282.699 280.93c0 161.92 121.39 280.92 282.699 280.92c161.85 0 282.699 -120 282.699 -280.92
c0 -160.93 -120.85 -280.93 -282.699 -280.93zM330.619 36.6904c134.04 0 232.78 99.2803 232.78 233.32s-98.7402 233.31 -232.78 233.31s-232.78 -98.7402 -232.78 -233.32c0 -134.04 99.2803 -233.31 232.78 -233.31z" />
    <glyph glyph-name="odieresis" unicode="&#xf6;" horiz-adv-x="661" 
d="M209.86 651.5v69.1396h64.2197v-69.1396h-64.2197zM386.67 651.5v69.1396h64.2197v-69.1396h-64.2197zM330.61 -10.9199c-161.31 0 -282.699 120 -282.699 280.93c0 161.92 121.39 280.92 282.699 280.92c161.85 0 282.699 -120 282.699 -280.92
c0 -160.93 -120.85 -280.93 -282.699 -280.93zM330.61 36.6904c134.04 0 232.78 99.2803 232.78 233.32s-98.7402 233.31 -232.78 233.31s-232.78 -98.7402 -232.78 -233.32c0 -134.04 99.2803 -233.31 232.78 -233.31z" />
    <glyph glyph-name="ograve" unicode="&#xf2;" horiz-adv-x="661" 
d="M358.49 605.69h-40.8193l-86.6299 152h52.8496zM330.621 -10.9199c-161.31 0 -282.699 120 -282.699 280.93c0 161.92 121.39 280.92 282.699 280.92c161.85 0 282.699 -120 282.699 -280.92c0 -160.93 -120.85 -280.93 -282.699 -280.93zM330.621 36.6904
c134.04 0 232.78 99.2803 232.78 233.32s-98.7402 233.31 -232.78 233.31s-232.78 -98.7402 -232.78 -233.32c0 -134.04 99.2803 -233.31 232.78 -233.31z" />
    <glyph glyph-name="ohungarumlaut" unicode="&#x151;" horiz-adv-x="661" 
d="M222.73 605.69l72.29 152h50.54l-82.9297 -152h-39.9004zM383.53 605.69l79.2305 152h49.1504l-89.4004 -152h-38.9805zM330.621 -10.9199c-161.31 0 -282.699 120 -282.699 280.93c0 161.92 121.39 280.92 282.699 280.92c161.85 0 282.699 -120 282.699 -280.92
c0 -160.93 -120.85 -280.93 -282.699 -280.93zM330.621 36.6904c134.04 0 232.78 99.2803 232.78 233.32s-98.7402 233.31 -232.78 233.31s-232.78 -98.7402 -232.78 -233.32c0 -134.04 99.2803 -233.31 232.78 -233.31z" />
    <glyph glyph-name="omacron" unicode="&#x14d;" horiz-adv-x="661" 
d="M173.61 667.04v40.21h313v-40.21h-313zM330.61 -10.9297c-161.31 0 -282.699 120 -282.699 280.93c0 161.92 121.39 280.92 282.699 280.92c161.85 0 282.699 -120 282.699 -280.92c0 -160.93 -120.85 -280.93 -282.699 -280.93zM330.61 36.6807
c134.04 0 232.78 99.2803 232.78 233.32s-98.7402 233.31 -232.78 233.31s-232.78 -98.7402 -232.78 -233.32c0 -134.04 99.2803 -233.31 232.78 -233.31z" />
    <glyph glyph-name="oslash" unicode="&#xf8;" horiz-adv-x="657" 
d="M476.07 509.74c80.9697 -47.6504 133.33 -135.2 133.33 -239.74c0 -158.93 -118.39 -277.39 -276.699 -277.39c-45.9502 0 -88.21 9.59961 -125.5 27.8301l-44.8496 -81.4404h-45.7598l54.6602 98.2197c-76.0801 48.3203 -124.34 132.61 -124.34 233.32
c0 158.92 119.85 277.85 278.699 277.85c40.4004 0 78.96 -8.12988 113.13 -22.79l40.8496 75.4004h45.7598zM94.9902 270.54c0 -82.8799 36.501 -152.789 98.6006 -193.979l223.77 408.46c-27.54 11.25 -58.9297 18.0596 -91.75 18.0596
c-133.42 0 -230.62 -99.1201 -230.62 -232.54zM332.701 37.9111c131.96 0 229.089 98.6602 229.089 232.09c0 87.3799 -41.9697 159.41 -108.51 199l-224.3 -407.84c30.79 -14.71 65.4902 -23.25 103.721 -23.25z" />
    <glyph glyph-name="oslashacute" unicode="&#x1ff;" horiz-adv-x="657" 
d="M417.74 757.69l-86.6289 -152h-40.8203l74.5996 152h52.8496zM476.071 509.74c80.9697 -47.6504 133.33 -135.2 133.33 -239.74c0 -158.93 -118.39 -277.39 -276.699 -277.39c-45.9502 0 -88.21 9.59961 -125.5 27.8301l-44.8496 -81.4404h-45.7598l54.6602 98.2197
c-76.0801 48.3203 -124.34 132.61 -124.34 233.32c0 158.92 119.85 277.85 278.699 277.85c40.4004 0 78.96 -8.12988 113.13 -22.79l40.8496 75.4004h45.7598zM94.9912 270.54c0 -82.8799 36.501 -152.789 98.6006 -193.979l223.77 408.46
c-27.54 11.25 -58.9297 18.0596 -91.75 18.0596c-133.42 0 -230.62 -99.1201 -230.62 -232.54zM332.702 37.9111c131.96 0 229.089 98.6602 229.089 232.09c0 87.3799 -41.9697 159.41 -108.51 199l-224.3 -407.84c30.79 -14.71 65.4902 -23.25 103.721 -23.25z" />
    <glyph glyph-name="otilde" unicode="&#xf5;" horiz-adv-x="661" 
d="M404.22 617.06c-37.25 0 -60.999 18.0303 -90.5293 50.8604c-26.1396 28.9697 -42.29 41.8896 -65.5205 41.8896c-31.9902 0 -54.75 -30.4502 -54.75 -76.1201v-11h-32.3496v11.9199c0 67.0098 33.2402 111.25 86.6406 111.25
c36.9404 0 59.8604 -17.6299 88.9199 -51.5303c24.5195 -28.29 41.5898 -41.6797 67.1299 -41.6797c32.9902 0 54.29 29.9102 54.29 76.5801v9h32.8096v-9.91992c0 -67.0098 -33.7002 -111.25 -86.6406 -111.25zM330.641 -10.9102c-161.31 0 -282.699 120 -282.699 280.93
c0 161.92 121.39 280.92 282.699 280.92c161.85 0 282.699 -120 282.699 -280.92c0 -160.93 -120.85 -280.93 -282.699 -280.93zM330.641 36.7002c134.04 0 232.78 99.2803 232.78 233.32s-98.7402 233.31 -232.78 233.31s-232.78 -98.7402 -232.78 -233.32
c0 -134.04 99.2803 -233.31 232.78 -233.31z" />
    <glyph glyph-name="oe" unicode="&#x153;" horiz-adv-x="1147" 
d="M1101.4 272.76c0 -6.62012 -0.458984 -13.3184 -0.928711 -19.9482h-490.31c7.87988 -125.73 99.5498 -215.2 223.609 -215.2c88.2002 0 159.561 43.9004 199.631 119.79h51.8496c-49.2998 -108.24 -138.85 -168.33 -251.479 -168.33
c-113.3 0 -206.55 65.8096 -247.88 164.359c-42.2305 -98.6299 -138.091 -163.899 -255.741 -163.899c-160.85 0 -282.239 120 -282.239 280.47c0 161.92 121.39 280.92 282.239 280.92c117.59 0 213.399 -65.1904 255.659 -163.91
c41.2998 98.2695 134.59 163.909 247.96 163.909c154.78 0 267.63 -120.38 267.63 -278.16zM833.771 504.702c-120.39 0 -210.859 -85.6006 -222.819 -206.591h442.28c-10.9404 123.4 -101.721 206.591 -219.461 206.591zM330.151 36.6914
c133.11 0 231.852 99.2705 231.852 233.311s-98.7402 233.31 -231.851 233.31c-133.58 0 -232.311 -98.7402 -232.311 -233.311c0 -134.04 99.2695 -233.31 232.31 -233.31z" />
    <glyph glyph-name="p" unicode="p" horiz-adv-x="698" 
d="M374.69 550.92c160.46 0 275.3 -120.53 275.3 -280.92c0 -159.93 -114.85 -280.93 -275.31 -280.93c-99.3203 0 -183.141 48.1904 -231.471 123.94v-304.4h-49v731.39h35.5898l10.46 -117.55c47.8203 78.46 133.051 128.47 234.431 128.47zM371.44 36.6895
c132.5 0 229.09 98.6602 229.09 233.311s-96.5898 233.311 -229.09 233.311c-131.43 0 -230.09 -100.2 -230.09 -233.311c0 -132.57 98.6602 -233.311 230.09 -233.311z" />
    <glyph glyph-name="thorn" unicode="&#xfe;" horiz-adv-x="699" 
d="M374.69 550.46c160.46 0 275.31 -120.531 275.31 -280.451c0 -159.93 -114.85 -280.93 -275.31 -280.93c-99.3301 0 -183.15 48.1904 -231.48 123.94v-304.4h-49v922.78h49v-304.55c48.3301 75.6104 132.15 123.61 231.48 123.61zM371.45 36.6992
c132.5 0 229.09 98.6602 229.09 233.311c0 134.19 -96.5898 232.851 -229.09 232.851c-131.43 0 -230.09 -100.2 -230.09 -232.851c0 -132.58 98.6602 -233.311 230.09 -233.311z" />
    <glyph glyph-name="q" unicode="q" horiz-adv-x="698" 
d="M568.11 540l35.5889 -0.00976562v-731.39h-49v303.27c-47.8398 -75.0996 -130.76 -122.81 -230.939 -122.81c-158.31 0 -275.85 121 -275.85 280.93c0 160.39 117.54 280.93 275.85 280.93c102.13 0 186.32 -49.3896 233.69 -127.01zM326.999 36.6807
c132.5 0 229.55 99.1289 229.55 233.319s-97.0498 233.311 -229.55 233.311c-131.43 0 -229.63 -99.7402 -229.63 -233.32c0 -133.04 98.2002 -233.31 229.63 -233.31z" />
    <glyph glyph-name="r" unicode="r" horiz-adv-x="382" 
d="M324.32 541.92h46.9307v-46.6904h-50.6299c-108.28 0 -177.41 -79.8096 -177.41 -194.63v-300.6h-49v540h36.5098l8.59961 -106.51c36.0498 67.7598 99.1201 108.43 185 108.43z" />
    <glyph glyph-name="racute" unicode="&#x155;" horiz-adv-x="382" 
d="M318.73 758.15l-86.6191 -152h-40.8301l74.5996 152h52.8496zM324.321 541.92h46.9307v-46.6904h-50.6299c-108.28 0 -177.41 -79.8096 -177.41 -194.63v-300.6h-49v540h36.5098l8.59961 -106.51c36.0498 67.7598 99.1201 108.43 185 108.43z" />
    <glyph glyph-name="rcaron" unicode="&#x159;" horiz-adv-x="382" 
d="M257.2 606.15h-56.6299l-120.15 152h45.5303l103.04 -120.18l103.83 120.18h45.5303zM139.32 433.49c36.0498 67.7598 99.1211 108.43 185.001 108.43h46.9297v-46.6904h-50.6299c-108.28 0 -177.41 -79.8096 -177.41 -194.63v-300.6h-49v540h36.5098z" />
    <glyph glyph-name="s" unicode="s" horiz-adv-x="508" 
d="M254.31 -10.9297c-123.62 0 -201.722 62.4707 -208.941 163.871h48.0703c7.23047 -75.4404 68.75 -118.11 162.25 -118.11c93.6504 0 157.011 42.9697 157.011 110.71c0 83.7197 -81.2002 98.9502 -165.101 113.101c-93.0801 16 -191.7 33.3896 -191.7 144.489
c0 88.0898 78.7803 147.79 195.33 147.79c117.09 0 191.79 -60.0898 196.4 -156.1h-46.6904c-4.61035 70.5098 -59.9004 111.72 -150.641 111.72c-88.8096 0 -146.779 -40.8203 -146.779 -102.021c0 -73.3496 72.9004 -85.5 155.801 -99.1904
c94.0703 -15.54 201.92 -34.1504 201.92 -157.94c0 -95.5498 -82.7695 -158.319 -206.93 -158.319z" />
    <glyph glyph-name="sacute" unicode="&#x15b;" horiz-adv-x="508" 
d="M215.21 605.69l74.6006 152h52.8496l-86.6299 -152h-40.8203zM254.311 -10.9199c-123.62 0 -201.722 62.4707 -208.941 163.871h48.0703c7.23047 -75.4404 68.75 -118.11 162.25 -118.11c93.6504 0 157.011 42.9697 157.011 110.71
c0 83.7197 -81.2002 98.9502 -165.101 113.101c-93.0801 16 -191.7 33.3896 -191.7 144.489c0 88.0898 78.7803 147.79 195.33 147.79c117.09 0 191.79 -60.0898 196.4 -156.1h-46.6904c-4.61035 70.5098 -59.9004 111.72 -150.641 111.72
c-88.8096 0 -146.779 -40.8203 -146.779 -102.021c0 -73.3496 72.9004 -85.5 155.801 -99.1904c94.0703 -15.54 201.92 -34.1504 201.92 -157.94c0 -95.5498 -82.7695 -158.319 -206.93 -158.319z" />
    <glyph glyph-name="scaron" unicode="&#x161;" horiz-adv-x="508" 
d="M356.75 757.69h45.5303l-121.15 -152h-56.6299l-120.15 152h45.5303l103.04 -120.18zM254.32 -10.9199c-123.62 0 -201.722 62.4707 -208.941 163.871h48.0703c7.23047 -75.4404 68.75 -118.11 162.25 -118.11c93.6504 0 157.011 42.9697 157.011 110.71
c0 83.7197 -81.2002 98.9502 -165.101 113.101c-93.0801 16 -191.7 33.3896 -191.7 144.489c0 88.0898 78.7803 147.79 195.33 147.79c117.09 0 191.79 -60.0898 196.4 -156.1h-46.6904c-4.61035 70.5098 -59.9004 111.72 -150.641 111.72
c-88.8096 0 -146.779 -40.8203 -146.779 -102.021c0 -73.3496 72.9004 -85.5 155.801 -99.1904c94.0703 -15.54 201.92 -34.1504 201.92 -157.94c0 -95.5498 -82.7695 -158.319 -206.93 -158.319z" />
    <glyph glyph-name="scedilla" unicode="&#x15f;" horiz-adv-x="508" 
d="M461.25 147.4c0 -90.3096 -73.958 -151.348 -186.908 -157.768l-13.2305 -46.2305c58.4199 -4.04004 99.0596 -39.6201 99.0596 -89.7002c0 -52.7002 -44 -90.0898 -107.7 -90.0898h-67.4805v30.96h62.3896c44.29 0 74.8896 24.9102 74.8896 60.5098
c0 35.0596 -31.1396 60.0498 -75.96 60.0498h-17.8604l-5.7002 6.24023l18.25 67.9502c-115.9 4.34961 -188.66 65.9199 -195.62 163.63h48.0703c7.23047 -75.4404 68.75 -118.11 162.25 -118.11c93.6504 0 157.011 42.9697 157.011 110.71
c0 83.7197 -81.2002 98.9502 -165.101 113.101c-93.0801 16 -191.7 33.3896 -191.7 144.489c0 88.0898 78.7803 147.79 195.33 147.79c117.09 0 191.79 -60.0898 196.4 -156.1h-46.6904c-4.61035 70.5098 -59.9004 111.72 -150.641 111.72
c-88.8096 0 -146.779 -40.8203 -146.779 -102.021c0 -73.3496 72.9004 -85.5 155.801 -99.1904c94.0703 -15.54 201.92 -34.1504 201.92 -157.94z" />
    <glyph glyph-name="scircumflex" unicode="&#x15d;" horiz-adv-x="508" 
d="M402.74 605.69h-45.5312l-103.83 120.18l-103.04 -120.18h-45.5195l120.15 152h56.6201zM254.309 -10.9199c-123.62 0 -201.722 62.4707 -208.941 163.871h48.0703c7.23047 -75.4404 68.75 -118.11 162.25 -118.11c93.6504 0 157.011 42.9697 157.011 110.71
c0 83.7197 -81.2002 98.9502 -165.101 113.101c-93.0801 16 -191.7 33.3896 -191.7 144.489c0 88.0898 78.7803 147.79 195.33 147.79c117.09 0 191.79 -60.0898 196.4 -156.1h-46.6904c-4.61035 70.5098 -59.9004 111.72 -150.641 111.72
c-88.8096 0 -146.779 -40.8203 -146.779 -102.021c0 -73.3496 72.9004 -85.5 155.801 -99.1904c94.0703 -15.54 201.92 -34.1504 201.92 -157.94c0 -95.5498 -82.7695 -158.319 -206.93 -158.319z" />
    <glyph glyph-name="germandbls" unicode="&#xdf;" horiz-adv-x="603" 
d="M435.77 385.18c71.7197 -23.0195 118.251 -91.8428 118.251 -179.803c0 -122.99 -97.1504 -205.38 -242.98 -205.38h-64.9404v47.6104h64.9404c117.1 0 194.909 64.4404 194.909 161.471c0 86.4404 -62.7598 150.341 -150.3 150.341h-100.02v46.2305h94.9297
c71.5498 0 129.16 63.5898 129.16 142.18c0 87.4297 -67.8203 150.56 -160.87 150.56c-111.97 0 -175.64 -74.1299 -175.64 -204.92v-493.47h-49v493.47c0 159.99 82.0898 252.061 224.64 252.061c118.47 0 206.17 -83.46 206.17 -195.38
c0 -72.3896 -36.7598 -137.72 -89.25 -164.97z" />
    <glyph glyph-name="longs" unicode="&#x17f;" horiz-adv-x="257" 
d="M94.21 0v593.981c0 90.8496 47.0898 137.409 139.399 137.409h78.1904v-45.2998h-65.7002c-71.5098 0 -102.89 -31.3799 -102.89 -101.36v-584.73h-49z" />
    <glyph glyph-name="t" unicode="t" horiz-adv-x="383" 
d="M295.87 45.7598l59 -0.000976562v-45.7598h-64.5498c-105.63 0 -170.04 64.9404 -170.04 172.11v323.05h-90.0801v11.1602l129.38 129.1h9.70996v-95.4199h181.51v-44.8398h-181.51v-321.66c0 -81.2197 45.4502 -127.739 126.58 -127.739z" />
    <glyph glyph-name="tbar" unicode="&#x167;" horiz-adv-x="383" 
d="M298.12 45.7598l59 -0.000976562v-45.7598h-64.5498c-105.63 0 -170.04 64.9404 -170.04 172.11v97.29h-91.8604v44.8398h91.8604v180.92h-90.0801v11.1602l129.38 129.1h9.70996v-95.4199h181.51v-44.8398h-181.51v-180.92h182.85v-44.8398h-182.85v-95.9004
c0 -81.2197 45.4502 -127.739 126.58 -127.739z" />
    <glyph glyph-name="tcaron" unicode="&#x165;" horiz-adv-x="364" 
d="M350.05 731.39l61.8193 -0.000976562v-53.8896c0 -43.79 -22.9502 -78.3496 -56.21 -90.1094l-3.75977 25.7998c21.0098 10.29 32.71 30.6104 32.71 59.46h-34.5596v58.7402zM152.619 173.499c0 -81.2197 45.4502 -127.74 126.59 -127.74h59v-45.7598h-64.5498
c-105.64 0 -170.04 64.9404 -170.04 172.11v323.05h-90.0898v10.2402l130.32 130.02h8.76953v-95.4199h175.96v-44.8398h-175.96v-321.66z" />
    <glyph glyph-name="u" unicode="u" horiz-adv-x="631" 
d="M315.46 -10.9297c-141.16 0 -231.319 93.3896 -231.319 237.85v313.08h49v-306.14c0 -121.81 69.9102 -197.17 182.33 -197.17c112.89 0 182.319 75.8203 182.319 197.17v306.14h49v-313.08c0 -144.46 -89.71 -237.85 -231.33 -237.85z" />
    <glyph glyph-name="uacute" unicode="&#xfa;" horiz-adv-x="631" 
d="M277.36 605.69l74.6006 152h52.8496l-86.6201 -152h-40.8301zM315.461 -10.9297c-141.16 0 -231.319 93.3896 -231.319 237.85v313.08h49v-306.14c0 -121.81 69.9102 -197.17 182.33 -197.17c112.89 0 182.319 75.8203 182.319 197.17v306.14h49v-313.08
c0 -144.46 -89.71 -237.85 -231.33 -237.85z" />
    <glyph glyph-name="ubreve" unicode="&#x16d;" horiz-adv-x="631" 
d="M315.46 600.15c-89.4805 0 -149.099 57.8496 -149.099 157.54h39.75v-1.92969c0 -77.8096 44.0596 -120.489 109.35 -120.489c65.8301 0 108.42 42.6797 108.42 120.489v1.92969h40.6797c0 -99.6904 -59.6201 -157.54 -149.101 -157.54zM315.462 -10.9297
c-141.16 0 -231.319 93.3896 -231.319 237.85v313.08h49v-306.14c0 -121.81 69.9102 -197.17 182.33 -197.17c112.89 0 182.319 75.8203 182.319 197.17v306.14h49v-313.08c0 -144.46 -89.71 -237.85 -231.33 -237.85z" />
    <glyph glyph-name="ucircumflex" unicode="&#xfb;" horiz-adv-x="631" 
d="M464.88 605.69h-45.5215l-103.83 120.18l-103.05 -120.18h-45.5195l120.15 152h56.6201zM315.458 -10.9297c-141.16 0 -231.319 93.3896 -231.319 237.85v313.08h49v-306.14c0 -121.81 69.9102 -197.17 182.33 -197.17c112.89 0 182.319 75.8203 182.319 197.17v306.14
h49v-313.08c0 -144.46 -89.71 -237.85 -231.33 -237.85z" />
    <glyph glyph-name="udieresis" unicode="&#xfc;" horiz-adv-x="631" 
d="M194.71 651.5v69.1396h64.2197v-69.1396h-64.2197zM371.52 651.5v69.1396h64.2305v-69.1396h-64.2305zM315.46 -10.9199c-141.16 0 -231.32 93.3701 -231.32 237.83v313.08h49v-306.14c0 -121.81 69.9004 -197.17 182.32 -197.17c112.89 0 182.33 75.8301 182.33 197.18
v306.14h49v-313.07c0 -144.46 -89.7002 -237.85 -231.33 -237.85z" />
    <glyph glyph-name="ugrave" unicode="&#xf9;" horiz-adv-x="631" 
d="M343.33 605.69h-40.8193l-86.6299 152h52.8496zM315.461 -10.9297c-141.16 0 -231.319 93.3896 -231.319 237.85v313.08h49v-306.14c0 -121.81 69.9102 -197.17 182.33 -197.17c112.89 0 182.319 75.8203 182.319 197.17v306.14h49v-313.08
c0 -144.46 -89.71 -237.85 -231.33 -237.85z" />
    <glyph glyph-name="uhungarumlaut" unicode="&#x171;" horiz-adv-x="631" 
d="M207.57 605.69l72.29 152h50.54l-82.9297 -152h-39.9004zM368.37 605.69l79.2305 152h49.1504l-89.4004 -152h-38.9805zM315.461 -10.9297c-141.16 0 -231.319 93.3896 -231.319 237.85v313.08h49v-306.14c0 -121.81 69.9102 -197.17 182.33 -197.17
c112.89 0 182.319 75.8203 182.319 197.17v306.14h49v-313.08c0 -144.46 -89.71 -237.85 -231.33 -237.85z" />
    <glyph glyph-name="umacron" unicode="&#x16b;" horiz-adv-x="631" 
d="M158.46 667.03v40.2197h313v-40.2197h-313zM315.46 -10.9297c-141.16 0 -231.319 93.3896 -231.319 237.85v313.08h49v-306.14c0 -121.81 69.9102 -197.17 182.33 -197.17c112.89 0 182.319 75.8203 182.319 197.17v306.14h49v-313.08
c0 -144.46 -89.71 -237.85 -231.33 -237.85z" />
    <glyph glyph-name="uni0123" unicode="&#x123;" horiz-adv-x="676" 
d="M351.95 707.09v-58.7393h-61.8203v53.8896c0 43.79 22.9502 78.3496 56.21 90.1094l3.75977 -25.7998c-21.25 -10.0596 -32.8496 -30.6299 -32.7998 -59.46h34.6504zM546.74 540.001l34.6611 0.0302734v-461.78c0 -174.54 -97.7803 -280.54 -258.48 -280.54
c-124.32 0 -212.33 63.5498 -244.55 170.95h49c29.4502 -80.5898 102.9 -125.649 195.561 -125.649c128.73 0 210.41 85.6602 210.41 229.68v61.7197c-46.2305 -71.0596 -126.04 -115.779 -221.021 -115.779c-149.46 0 -263.85 114.92 -263.85 265.92
c0 150.46 114.92 266.38 263.84 266.38c98.4199 0 181.189 -49.3203 226.579 -125.931zM316.921 65.791c124.89 0 215.939 92.6699 215.939 218.78c0 126.04 -91.5898 219.24 -215.939 219.24c-124.89 0 -218.55 -94.7402 -218.55 -219.24
c0 -124.58 93.6602 -218.78 218.55 -218.78z" />
    <glyph glyph-name="uni0137" unicode="&#x137;" horiz-adv-x="524" 
d="M284.15 281.51l234.909 -281.509h-61.79l-215.51 258.88h-93.9199v-258.88h-49v731.39h49v-426.74h94.71l196.11 235.35h60.4004zM235.47 -123.489l-0.00976562 58.7402h61.8301v-53.8896c0 -40.5596 -22.4102 -77.8096 -59.4404 -89.04v30.0996
c19.4004 8.15039 30.0303 29 30.0303 54.0898h-32.4102z" />
    <glyph glyph-name="uni013C" unicode="&#x13c;" horiz-adv-x="237" 
d="M94.21 0v731.39h49v-731.39h-49zM89.6904 -207.681v30.0996c19.3896 8.15039 30.0195 29 30.0195 54.0898h-32.4102v58.7402h61.8203v-53.8896c0 -40.5596 -22.4102 -77.8096 -59.4297 -89.04z" />
    <glyph glyph-name="uni0146" unicode="&#x146;" horiz-adv-x="641" 
d="M345.64 550.92c129.61 0 210.69 -93.2295 210.69 -230.149v-320.77h-49v310.6c0 122.59 -64.0498 195.02 -172.78 195.02c-104.52 0 -191.329 -89.4297 -191.329 -197.5v-308.12h-49v540h36.5098l9.66992 -109.4c39 72.4102 115.93 120.32 205.239 120.32z
M291.669 -123.489l-0.000976562 58.7402h61.8301v-53.8896c0 -40.5596 -22.4199 -77.8096 -59.4395 -89.04v30.0996c19.4004 8.15039 30.0205 29 30.0205 54.0898h-32.4102z" />
    <glyph glyph-name="uni0157" unicode="&#x157;" horiz-adv-x="382" 
d="M324.32 541.92h46.9307v-46.6904h-50.6299c-108.28 0 -177.41 -79.8096 -177.41 -194.63v-300.6h-49v540h36.5098l8.59961 -106.51c36.0498 67.7598 99.1201 108.43 185 108.43zM87.7607 -123.49l-0.000976562 58.7402h61.8301v-53.8896
c0 -40.5596 -22.4199 -77.8096 -59.4395 -89.04v30.0996c19.4004 8.15039 30.0205 29 30.0205 54.0898h-32.4102z" />
    <glyph glyph-name="uni0163" unicode="&#x163;" horiz-adv-x="362" 
d="M250.98 -53.3604c58.4199 -4.0498 99.0615 -39.6221 99.0615 -89.7021c0 -52.7002 -44 -90.0898 -107.7 -90.0898h-67.4805v30.96h62.3896c44.29 0 74.8896 24.9102 74.8896 60.5098c0 35.0703 -31.1396 60.0508 -75.9697 60.0508h-17.8604l-5.7002 6.24023
l21.1504 78.7803c-81.7197 14.6201 -130.14 75.7998 -130.14 168.72v323.05h-90.0898v10.2402l130.32 130.02h8.76953v-95.4199h181.98v-44.8398h-181.98v-321.66c0 -81.2197 45.4502 -127.739 126.59 -127.739h59.46v-45.7598h-65.0098
c-2.48047 0 -4.94043 0.0302734 -7.38086 0.100586z" />
    <glyph glyph-name="uni0219" unicode="&#x219;" horiz-adv-x="508" 
d="M254.31 -10.9297c-123.62 0 -201.722 62.4707 -208.941 163.871h48.0703c7.23047 -75.4404 68.75 -118.11 162.25 -118.11c93.6504 0 157.011 42.9697 157.011 110.71c0 83.7197 -81.2002 98.9502 -165.101 113.101c-93.0801 16 -191.7 33.3896 -191.7 144.489
c0 88.0898 78.7803 147.79 195.33 147.79c117.09 0 191.79 -60.0898 196.4 -156.1h-46.6904c-4.61035 70.5098 -59.9004 111.72 -150.641 111.72c-88.8096 0 -146.779 -40.8203 -146.779 -102.021c0 -73.3496 72.9004 -85.5 155.801 -99.1904
c94.0703 -15.54 201.92 -34.1504 201.92 -157.94c0 -95.5498 -82.7695 -158.319 -206.93 -158.319zM237.048 -210.919v30.0996c19.4004 8.15039 30.0303 29 30.0303 54.0898h-32.4102v58.7402h61.8203v-53.8896c0 -40.5596 -22.4102 -77.8096 -59.4404 -89.04z" />
    <glyph glyph-name="uni021B" unicode="&#x21b;" horiz-adv-x="383" 
d="M295.87 45.7598l59 -0.000976562v-45.7598h-64.5498c-105.63 0 -170.04 64.9404 -170.04 172.11v323.05h-90.0801v11.1602l129.38 129.1h9.70996v-95.4199h181.51v-44.8398h-181.51v-321.66c0 -81.2197 45.4502 -127.739 126.58 -127.739zM230.55 -123.491
l0.0107422 58.7402h61.8203v-53.8896c0 -40.5596 -22.4102 -77.8096 -59.4404 -89.04v30.0996c19.3896 8.15039 30.0195 29 30.0195 54.0898h-32.4102z" />
    <glyph glyph-name="uogonek" unicode="&#x173;" horiz-adv-x="630" 
d="M497.32 540l48.998 -0.00195312v-312.62c0 -108.21 -49.5195 -184.729 -142.67 -221.369c-55.2305 -21.5498 -95.75 -73.2295 -95.75 -122.819c0 -43.7695 33.2197 -70.5996 82.6699 -70.5996c16.4697 0 31.8496 2.91992 47.1699 8.37988v-31.96
c-18.6299 -8.16016 -39.1797 -12.0098 -58.2695 -12.0098c-62.8496 0 -109.93 36.9199 -109.93 96.4697c0 45.2998 24.7305 90.6797 57.0205 116.649c-5.83984 -0.370117 -11.6602 -0.589844 -17.1104 -0.589844c-133.3 0 -225.319 96.6299 -225.319 238.78v311.69h49
v-306.6c0 -121.35 69.4404 -196.25 181.87 -196.25c112.42 0 182.32 74.9004 182.32 196.25v306.6z" />
    <glyph glyph-name="uring" unicode="&#x16f;" horiz-adv-x="631" 
d="M315.46 592.76c-61.5498 0 -104.18 41.1602 -104.18 99.8604c0 59.1699 42.6299 99.8604 104.18 99.8604s104.17 -40.6904 104.17 -99.8604c0 -58.7002 -42.6201 -99.8604 -104.17 -99.8604zM315.46 623.26c42.5195 0 71.8291 27.8398 71.8291 69.3594
c0 41.9902 -29.3096 69.8301 -71.8291 69.8301s-71.8193 -27.8398 -71.8193 -69.8301c0 -41.5195 29.2998 -69.3594 71.8193 -69.3594zM315.46 -10.9307c-141.16 0 -231.319 93.3896 -231.319 237.85v313.08h49v-306.14c0 -121.81 69.9102 -197.17 182.33 -197.17
c112.89 0 182.319 75.8203 182.319 197.17v306.14h49v-313.08c0 -144.46 -89.71 -237.85 -231.33 -237.85z" />
    <glyph glyph-name="utilde" unicode="&#x169;" horiz-adv-x="631" 
d="M389.07 617.06c-37.25 0 -61.0195 18.0107 -90.5498 50.8408c-26.1299 28.9697 -42.2803 41.8994 -65.5107 41.8994c-31.9902 0 -54.75 -30.4502 -54.75 -76.1299v-11h-32.3496v11.9297c0 67.0098 33.2402 111.25 86.6406 111.25
c36.9404 0 59.8604 -17.6299 88.9199 -51.5303c24.5303 -28.2803 41.6006 -41.6699 67.1406 -41.6699c32.9902 0 54.29 29.9102 54.29 76.5801v9h32.8096v-9.91992c0 -67.0098 -33.7002 -111.25 -86.6406 -111.25zM315.46 -10.9297
c-141.16 0 -231.319 93.3896 -231.319 237.85v313.08h49v-306.14c0 -121.81 69.9102 -197.17 182.33 -197.17c112.89 0 182.319 75.8203 182.319 197.17v306.14h49v-313.08c0 -144.46 -89.71 -237.85 -231.33 -237.85z" />
    <glyph glyph-name="v" unicode="v" horiz-adv-x="567" 
d="M492.1 540h50.4609l-236.21 -540h-43.1504l-241.68 540h51.3896l211.76 -473.96z" />
    <glyph glyph-name="w" unicode="w" horiz-adv-x="848" 
d="M774.55 540l49.9922 0.000976562l-188.91 -540h-38.9902l-174 430.61l-172.98 -430.61h-38.9902l-184.69 540h51.3896l155.7 -456.2l179.76 441.67h19.5703l181.35 -443.61z" />
    <glyph glyph-name="wacute" unicode="&#x1e83;" horiz-adv-x="848" 
d="M510.81 757.69l-86.6191 -152h-40.8301l74.5996 152h52.8496zM774.551 540l49.9922 0.000976562l-188.91 -540h-38.9902l-174 430.61l-172.98 -430.61h-38.9902l-184.69 540h51.3896l155.7 -456.2l179.76 441.67h19.5703l181.35 -443.61z" />
    <glyph glyph-name="wcircumflex" unicode="&#x175;" horiz-adv-x="848" 
d="M421.53 725.87l-103.052 -120.18h-45.5195l120.15 152h56.6201l121.15 -152h-45.5195zM774.549 540l49.9922 0.000976562l-188.91 -540h-38.9902l-174 430.61l-172.98 -430.61h-38.9902l-184.69 540h51.3896l155.7 -456.2l179.76 441.67h19.5703l181.35 -443.61z" />
    <glyph glyph-name="wdieresis" unicode="&#x1e85;" horiz-adv-x="848" 
d="M300.71 651.5v69.1396h64.2305v-69.1396h-64.2305zM477.52 651.5v69.1396h64.2305v-69.1396h-64.2305zM774.539 540l50.0029 -0.00878906l-188.91 -540h-38.9902l-174 430.61l-172.98 -430.61h-38.9902l-184.69 540h51.3896l155.69 -456.2l179.77 441.68h19.5596
l181.35 -443.61z" />
    <glyph glyph-name="wgrave" unicode="&#x1e81;" horiz-adv-x="848" 
d="M449.33 605.69h-40.8193l-86.6201 152h52.8496zM774.551 540l49.9922 0.000976562l-188.91 -540h-38.9902l-174 430.61l-172.98 -430.61h-38.9902l-184.69 540h51.3896l155.7 -456.2l179.76 441.67h19.5703l181.35 -443.61z" />
    <glyph glyph-name="x" unicode="x" horiz-adv-x="495" 
d="M484.66 0h-55.7021l-181.59 249.8l-181.84 -249.8h-54.7695l206.91 282.46l-187.69 257.54h55.71l162.11 -223.02l163.32 223.02h54.7803l-188.68 -255.87z" />
    <glyph glyph-name="y" unicode="y" horiz-adv-x="577" 
d="M503.41 540l52.2988 -0.000976562l-269.51 -579.43c-54.1602 -117.1 -102.4 -151.96 -193.5 -151.96h-45v44.8398h41.3096c73.6104 0 106.75 22.5303 152.44 119.061l28.4004 59.5898l-248.33 507.9h53.7803l220.23 -453.35z" />
    <glyph glyph-name="yacute" unicode="&#xfd;" horiz-adv-x="577" 
d="M382.12 757.69l-86.6191 -152h-40.8301l74.5996 152h52.8496zM503.411 540l52.2988 -0.000976562l-269.51 -579.43c-54.1602 -117.1 -102.4 -151.96 -193.5 -151.96h-45v44.8398h41.3096c73.6104 0 106.75 22.5303 152.44 119.061l28.4004 59.5898l-248.33 507.9h53.7803
l220.23 -453.35z" />
    <glyph glyph-name="ycircumflex" unicode="&#x177;" horiz-adv-x="577" 
d="M292.84 725.87l-103.04 -120.18h-45.5303l120.15 152h56.6299l121.15 -152h-45.5303zM503.41 540l52.2988 -0.000976562l-269.51 -579.43c-54.1602 -117.1 -102.4 -151.96 -193.5 -151.96h-45v44.8398h41.3096c73.6104 0 106.75 22.5303 152.44 119.061l28.4004 59.5898
l-248.33 507.9h53.7803l220.23 -453.35z" />
    <glyph glyph-name="ydieresis" unicode="&#xff;" horiz-adv-x="577" 
d="M172.03 651.5v69.1396h64.2197v-69.1396h-64.2197zM348.84 651.5v69.1396h64.2197v-69.1396h-64.2197zM503.41 540l52.2988 -0.0195312l-269.51 -579.42c-54.1602 -117.1 -102.4 -151.96 -193.5 -151.96h-45.0098v44.8398h41.3096c73.6104 0 106.75 22.54 152.44 119.07
l28.4004 59.5996l-248.33 507.89h53.7803l220.24 -453.35z" />
    <glyph glyph-name="ygrave" unicode="&#x1ef3;" horiz-adv-x="577" 
d="M320.65 605.69h-40.8291l-86.6201 152h52.8496zM503.411 540l52.2988 -0.000976562l-269.51 -579.43c-54.1602 -117.1 -102.4 -151.96 -193.5 -151.96h-45v44.8398h41.3096c73.6104 0 106.75 22.5303 152.44 119.061l28.4004 59.5898l-248.33 507.9h53.7803
l220.23 -453.35z" />
    <glyph glyph-name="z" unicode="z" horiz-adv-x="464" 
d="M104.24 46.2197l331.17 0.000976562v-46.2197h-409.87v10.3096l326.61 483.93h-309.23v45.7598h387.19v-10.7002z" />
    <glyph glyph-name="zacute" unicode="&#x17a;" horiz-adv-x="464" 
d="M332.36 757.69l-86.6289 -152h-40.8203l74.5996 152h52.8496zM104.241 46.2207l331.17 0.000976562v-46.2197h-409.87v10.3096l326.61 483.93h-309.23v45.7598h387.19v-10.7002z" />
    <glyph glyph-name="zcaron" unicode="&#x17e;" horiz-adv-x="464" 
d="M270.82 605.69h-56.6182l-120.15 152h45.5195l103.04 -120.18l103.84 120.18h45.5195zM104.242 46.2207l331.17 0.000976562v-46.2197h-409.87v10.3096l326.61 483.93h-309.23v45.7598h387.19v-10.7002z" />
    <glyph glyph-name="zdotaccent" unicode="&#x17c;" horiz-adv-x="464" 
d="M273.74 720.64v-69.1396h-61.4502v69.1396h61.4502zM104.24 46.2197l331.17 0.000976562v-46.2197h-409.87v10.3096l326.61 483.93h-309.23v45.7598h387.19v-10.7002z" />
    <glyph glyph-name="germandbls.calt" horiz-adv-x="663" 
d="M400.17 441.72c130.53 -8.91016 213.969 -91.6201 213.969 -215.63c0 -131.24 -95.8604 -226.09 -250.63 -226.09h-89.7803v49h89.7803c119.73 0 199.311 71.4404 199.311 177.091c0 103.96 -79.0498 173.78 -197.7 173.78h-40.21v13.0898l151.8 238.5h-141.95
c-122.26 0 -188.77 -65.5098 -188.77 -187.77v-463.69h-50.3896v468.31c0 146.3 85.3896 231.689 232.22 231.689h228.7v-12.1699z" />
    <glyph glyph-name="i.loclTRK" horiz-adv-x="237" 
d="M87.9805 651.5v69.1396h61.46v-69.1396h-61.46zM94.2109 -0v540h49v-540h-49z" />
    <glyph glyph-name="k.ss01" horiz-adv-x="500" 
d="M94.21 0v731.39h49v-731.39h-49zM239.81 281.79l262.851 -281.79h-63.71l-256.4 277.07v8.46973l239.17 254.46h62.3301z" />
    <glyph glyph-name="k.ss03" horiz-adv-x="500" 
d="M94.21 0v731.39h49v-731.39h-49zM239.81 281.79l262.851 -281.79h-63.71l-256.4 277.07v8.46973l239.17 254.46h62.3301z" />
    <glyph glyph-name="k.ss04" horiz-adv-x="500" 
d="M94.21 0v731.39h49v-731.39h-49zM239.81 281.79l262.851 -281.79h-63.71l-256.4 277.07v8.46973l239.17 254.46h62.3301z" />
    <glyph glyph-name="ordfeminine" unicode="&#xaa;" horiz-adv-x="468" 
d="M359.09 705.7l32.0205 0.000976562v-331.7h-33.0703l-4.54004 67.71c-29.0898 -44.5596 -78.5303 -73.0898 -138.221 -73.0898c-93.9004 0 -166.511 74.8701 -166.511 171.46c0 96.1299 72.6104 171 166.511 171c59.9004 0 109.471 -28.7305 138.53 -73.4609z
M219.271 405.821c74.54 0 129.569 56.7119 129.569 134.262c0 77.2197 -55.0303 134.26 -129.57 134.26c-74.4297 0 -130.229 -58.2803 -130.229 -134.261c0 -76.4404 56.25 -134.261 130.23 -134.261z" />
    <glyph glyph-name="ordmasculine" unicode="&#xba;" horiz-adv-x="448" 
d="M224.53 368.63c-98.6904 0 -173.2 73.1396 -173.2 170.96c0 98.1602 74.5098 170.97 173.2 170.97c98.9004 0 172.74 -73.1396 172.74 -170.97c0 -97.8203 -73.8398 -170.96 -172.74 -170.96zM224.53 406.33c76.8799 0 133.03 56.2803 133.03 133.261
c0 76.8604 -56.1504 133.271 -133.03 133.271c-77 0 -133.14 -56.4102 -133.14 -133.271c0 -76.6904 56.3096 -133.261 133.14 -133.261z" />
    <glyph glyph-name="uni0410" unicode="&#x410;" horiz-adv-x="686" 
d="M608.48 0l-81.9297 191.49h-369.76l-80.6396 -191.49h-53.7002l293.6 700h45.46l301.6 -700h-54.6299zM339.561 629.2l-163.4 -391.03h330.74z" />
    <glyph glyph-name="uni0411" unicode="&#x411;" horiz-adv-x="610" 
d="M348.24 417.72c128.84 0 220.77 -87.2393 220.77 -207.859c0 -121.62 -93.9297 -209.86 -223.31 -209.86h-242.03v700h417.03v-48.0801h-366.64v-234.2h194.18zM342.46 49.4609c101.58 0 175.24 67.5107 175.24 160.4s-72.1299 158.399 -173.16 158.399h-190.48v-318.8
h188.4z" />
    <glyph glyph-name="uni0412" unicode="&#x412;" horiz-adv-x="644" 
d="M459.21 367.02c72.3203 -24.1797 122.271 -94.0615 122.271 -176.172c0 -106.31 -84.9404 -190.85 -207.091 -190.85h-270.71v700h268.86c111.77 0 188.779 -75.3896 188.779 -172.479c0 -69.6396 -41.6699 -134.239 -102.11 -160.499zM376.53 650.527
l-222.931 -0.0107422v-259.66h226.69c73.4404 0 129.73 60.6602 129.73 130.641c0 72.5898 -58.9004 129.03 -133.49 129.03zM378.84 49.9062c85.2695 0 150.859 63.2109 150.859 146.021c0 81.2695 -65.0498 145.47 -148.17 145.47h-227.93v-291.49h225.24z" />
    <glyph glyph-name="uni0413" unicode="&#x413;" horiz-adv-x="488" 
d="M466.62 700l-0.000976562 -47.6104h-312.56v-652.39h-50.3896v700h362.95z" />
    <glyph glyph-name="uni0403" unicode="&#x403;" horiz-adv-x="488" 
d="M362.65 923.22l-94.3193 -142h-40.8203l82.29 142h52.8496zM466.621 700l-0.000976562 -47.6104h-312.56v-652.39h-50.3896v700h362.95z" />
    <glyph glyph-name="uni0490" unicode="&#x490;" horiz-adv-x="488" 
d="M419.01 805h47.6094v-152.61h-312.56v-652.39h-50.3896v700h315.34v105z" />
    <glyph glyph-name="uni0414" unicode="&#x414;" horiz-adv-x="743" 
d="M626.41 47.6104l76.3008 -0.000976562v-196.6h-47.1504v148.99h-593.01v-148.99h-47.1504v196.6h52.2305c74.1797 38.9902 92.2695 131.32 138.739 652.391h420.04v-652.39zM252.411 652.39c-36.1699 -431.92 -56.8799 -553.9 -123.27 -604.78h446.42v604.78h-323.15z
" />
    <glyph glyph-name="uni0415" unicode="&#x415;" horiz-adv-x="545" 
d="M154.06 48.5303l343.49 0.000976562v-48.5303h-393.88v700h382.88v-48.0801h-332.49v-264.51h306.49v-47.1504h-306.49v-291.73z" />
    <glyph glyph-name="uni0401" unicode="&#x401;" horiz-adv-x="545" 
d="M156.34 808.73v69.1396h64.2305v-69.1396h-64.2305zM364.05 808.73v69.1396h64.2197v-69.1396h-64.2197zM154.06 48.54l343.49 0.0107422v-48.54h-393.88v700h382.88v-48.0801h-332.49v-264.51h306.49v-47.1504h-306.49v-291.73z" />
    <glyph glyph-name="uni0416" unicode="&#x416;" horiz-adv-x="918" 
d="M849.3 0l-268.142 339.57h-96.9297v-339.57h-50.8496v339.57h-96.9199l-268.14 -339.57h-64.0996l287.83 364.78l-261.29 335.22h62.25l243.66 -312.81h96.71v312.81h50.8496v-312.81h96.7197l243.66 312.81h61.79l-260.84 -335.2l287.84 -364.8h-64.0996z" />
    <glyph glyph-name="uni0417" unicode="&#x417;" horiz-adv-x="569" 
d="M391.91 372.68c67.4502 -25.9297 113.368 -95.4609 113.368 -177.841c0 -118.39 -97.6299 -204.779 -230.64 -204.779c-126.4 0 -219.03 79.5498 -229.33 196.1h49.46c11.2998 -88.6602 82.1201 -148.49 179.86 -148.49c104.74 0 180.721 66.0498 180.721 159.01
c0 87.5098 -62.5996 152.49 -146.659 152.49h-91.3604v44.8398h91.3604c76.5996 0 132.659 55.6797 132.659 131.04c0 82.2002 -67.9004 139.101 -166.71 139.101c-85.5098 0 -152.8 -54.21 -166.64 -131.8h-48.54c13.3701 105.55 103.53 178.02 215.17 178.02
c125.01 0 215.71 -75.1602 215.71 -183.93c0 -70.2998 -39.75 -130.17 -98.4297 -153.76z" />
    <glyph glyph-name="uni0418" unicode="&#x418;" horiz-adv-x="736" 
d="M595.89 700h36.21v-700h-50.3896v602l-443.21 -602h-34.8301v700h50.3896v-599.99z" />
    <glyph glyph-name="uni0419" unicode="&#x419;" horiz-adv-x="736" 
d="M226.3 826.13v39.75h274.18v-39.75h-274.18zM595.89 700h36.21v-700h-50.3896v602l-443.21 -602h-34.8301v700h50.3896v-599.99z" />
    <glyph glyph-name="uni041A" unicode="&#x41a;" horiz-adv-x="614" 
d="M547.02 0l-281.72 339.57h-111.24v-339.57h-50.3896v700h50.3896v-312.81h111.09l257.18 312.81h64.5703l-276.5 -335.8l301.65 -364.2h-65.0303z" />
    <glyph glyph-name="uni041B" unicode="&#x41b;" horiz-adv-x="727" 
d="M212.22 700l411.199 0.000976562v-700h-50.3799v652.39h-314.49l-33.7197 -452.12c-10.3096 -133.26 -74.7793 -200.74 -190.81 -200.74h-20.3203v49.9297h19.8604c85.4404 0 131.96 49.5195 139.96 149.96z" />
    <glyph glyph-name="uni041C" unicode="&#x41c;" horiz-adv-x="947" 
d="M897.26 0h-51.2998l-105.24 608.17l-259.46 -580.88h-15.8701l-258.99 580.16l-106.17 -607.45h-51.3096l121.84 700h46.8496l255 -577.67l256.5 577.67h47.7803z" />
    <glyph glyph-name="uni041D" unicode="&#x41d;" horiz-adv-x="728" 
d="M574.4 700h50.3799v-700h-50.3799v339.26h-420.34v-339.26h-50.3896v700h50.3896v-312.2h420.34v312.2z" />
    <glyph glyph-name="uni041E" unicode="&#x41e;" horiz-adv-x="831" 
d="M415.61 -10.9297c-210.93 0 -362.71 154.99 -362.71 360.38c0 205.93 151.78 361.47 362.71 361.47s362.699 -155 362.699 -361.46c0 -205.93 -151.77 -360.39 -362.699 -360.39zM415.61 38.5205c180.8 0 311.39 133.27 311.39 310.92c0 178.19 -130.59 312 -311.39 312
s-311.39 -134.81 -311.39 -312c0 -176.65 130.59 -310.92 311.39 -310.92z" />
    <glyph glyph-name="uni041F" unicode="&#x41f;" horiz-adv-x="697" 
d="M103.67 700h489.279v-700h-50.8496v652.39h-388.04v-652.39h-50.3896v700z" />
    <glyph glyph-name="uni0420" unicode="&#x420;" horiz-adv-x="602" 
d="M344.31 700c127.09 0 223.79 -91.7002 223.79 -214.71c0 -123.09 -95.7002 -215.25 -223.79 -215.25h-190.25v-270.04h-50.3896v700h240.64zM342 319.04c100.73 0 174.79 70.9688 174.79 166.249c0 94.7305 -74.0596 165.711 -174.79 165.711h-187.94v-331.96h187.94z
" />
    <glyph glyph-name="uni0421" unicode="&#x421;" horiz-adv-x="778" 
d="M410.3 -10.46c-208.54 0 -357.39 150.471 -357.39 359.931s149.39 361 357.39 361c156.55 0 280.03 -88.3301 325.48 -229.51h-51.8496c-43.5195 112.44 -144.42 180.04 -273.62 180.04c-177.8 0 -306.08 -129.81 -306.08 -311.54
c0 -181.72 127.74 -310.46 306.08 -310.46c132.74 0 235.71 71.5996 278.77 191.649h51.3096c-44.9102 -149.25 -170 -241.11 -330.09 -241.11z" />
    <glyph glyph-name="uni0422" unicode="&#x422;" horiz-adv-x="540" 
d="M518.65 700v-47.6104h-223.36v-652.39h-50.3896v652.39h-223.36v47.6104h497.11z" />
    <glyph glyph-name="uni0423" unicode="&#x423;" horiz-adv-x="590" 
d="M523.8 700l54.1602 -0.000976562l-226.9 -491.06c-78.2305 -170.47 -124.86 -210.939 -237.12 -210.939h-35.2305v47.6104h38.9199c81.8398 0 112.16 26.0498 172.71 148.229l-272.97 506.16h57.9404l241.34 -449.14z" />
    <glyph glyph-name="uni040E" unicode="&#x40e;" horiz-adv-x="590" 
d="M173 826.13v39.75h274.18v-39.75h-274.18zM523.8 700l54.1699 -0.0107422l-226.9 -491.06c-78.2305 -170.46 -124.87 -210.93 -237.13 -210.93h-35.2305v47.6104h38.9199c81.8398 0 112.16 26.0498 172.71 148.229l-272.97 506.16h57.9404l241.34 -449.14z" />
    <glyph glyph-name="uni0424" unicode="&#x424;" horiz-adv-x="857" 
d="M803.42 349.92c0 -196.26 -140.54 -355.239 -349.98 -360.259v-106.59h-49.4697v106.6c-208.8 5.28027 -351.06 164.65 -351.06 359.33c0 195.66 142.26 356.01 351.06 361.319v96.2197h49.4697v-96.2002c209.44 -5.03027 349.98 -164.08 349.98 -360.42z
M453.439 38.2207c175.81 5.08984 298.67 141.04 298.67 311.24c0 170.27 -122.86 306.739 -298.67 311.85v-623.09zM104.22 349.461c0 -169.53 123.62 -305.9 299.75 -311.23v623.07c-175.63 -5.36035 -299.75 -142.24 -299.75 -311.84z" />
    <glyph glyph-name="uni0425" unicode="&#x425;" horiz-adv-x="586" 
d="M575.04 0h-57.5586l-224.33 326.19l-223.91 -326.19h-58.0195l250.63 366.14l-229.94 333.86h57.5498l203.89 -296.04l203.52 296.04h57.5498l-229.78 -335.53z" />
    <glyph glyph-name="uni0427" unicode="&#x427;" horiz-adv-x="628" 
d="M473.04 700h50.8584v-700h-50.8496v295.4c-65 -25.4297 -126.43 -37.8896 -181.189 -37.8896c-144.54 0 -240.55 85.0898 -240.55 238.02v204.47h50.8496v-201.23c0 -122.58 69.9004 -191.8 193.86 -191.8c51.3203 0 110.32 13.0996 177.021 38.8398v354.19z" />
    <glyph glyph-name="uni0426" unicode="&#x426;" horiz-adv-x="706" 
d="M588.56 47.6104l75.8408 -0.000976562v-196.6h-47.1504v148.99h-513.58v700h50.3896v-652.39h384.11v652.39h50.3896v-652.39z" />
    <glyph glyph-name="uni0428" unicode="&#x428;" horiz-adv-x="969" 
d="M814.71 700h50.3896v-700h-761.43v700h50.3896v-652.39h305.36v652.39h49.46v-652.39h305.83v652.39z" />
    <glyph glyph-name="uni0429" unicode="&#x429;" horiz-adv-x="983" 
d="M865.1 47.6104l77.2207 -0.000976562v-196.6h-47.1504v148.99h-791.5v700h50.3896v-652.39h305.36v652.39h49.46v-652.39h305.83v652.39h50.3896v-652.39z" />
    <glyph glyph-name="uni040F" unicode="&#x40f;" horiz-adv-x="727" 
d="M623 700l0.000976562 -700h-235.74v-147.6h-48.8496v147.6h-234.74v700h50.3896v-652.39h418.09v652.39h50.8496z" />
    <glyph glyph-name="uni042C" unicode="&#x42c;" horiz-adv-x="611" 
d="M350.92 431.35c129.94 0 225.181 -91.2393 225.181 -216.18c0 -123.47 -96.2402 -215.17 -225.181 -215.17h-247.25v700h50.3896v-268.65h196.86zM347.689 47.6104c102.12 0 177.101 71.8994 177.101 168.02c0 97.1299 -74.9805 168.57 -177.101 168.57h-193.63v-336.59
h193.63z" />
    <glyph glyph-name="uni042A" unicode="&#x42a;" horiz-adv-x="696" 
d="M436.15 431.35c129.93 0 225.171 -91.2393 225.171 -216.18c0 -123.47 -96.2305 -215.17 -225.171 -215.17h-247.25v652.39h-169.75v47.6104h220.13v-268.65h196.87zM432.911 47.6104c102.13 0 177.1 71.8994 177.1 168.02c0 97.1299 -74.9697 168.57 -177.1 168.57
h-193.63v-336.59h193.63z" />
    <glyph glyph-name="uni042B" unicode="&#x42b;" horiz-adv-x="854" 
d="M350.92 431.35c129.94 0 225.181 -91.2393 225.181 -216.18c0 -123.47 -96.2402 -215.17 -225.181 -215.17h-247.25v700h50.3896v-268.65h196.86zM699.67 700.001h50.3896v-700h-50.3896v700zM347.689 47.6113c102.12 0 177.101 71.8994 177.101 168.02
c0 97.1299 -74.9805 168.57 -177.101 168.57h-193.63v-336.59h193.63z" />
    <glyph glyph-name="uni0409" unicode="&#x409;" horiz-adv-x="1080" 
d="M819.82 431.35c129.94 0 225.181 -91.2383 225.181 -216.179c0 -123.47 -96.2402 -215.17 -225.181 -215.17h-247.71v652.39h-314.48l-33.7197 -452.12c-10.7803 -133.26 -74.79 -200.74 -190.81 -200.74h-19.4004v49.9297h19.8604
c85.4404 0 131.96 49.5195 139.96 149.96l39.6299 500.58h409.81v-268.65h196.86zM816.59 47.6113c101.66 0 177.101 71.8994 177.101 168.02c0 97.1299 -75.4404 168.57 -177.101 168.57h-193.63v-336.59h193.63z" />
    <glyph glyph-name="uni040A" unicode="&#x40a;" horiz-adv-x="1015" 
d="M760.84 402.57c136.38 0 219.93 -83.7002 219.93 -200.78c0 -117.55 -83.0098 -201.79 -219.93 -201.79h-240.42v352.19h-366.36v-352.19h-50.3896v700h50.3896v-299.74h366.36v299.74h50.3896v-297.43h190.03zM758.52 48.0703c104.96 0 170.94 59.8301 170.94 153.72
c0 93.3398 -65.9805 152.71 -170.94 152.71h-187.71v-306.43h187.71z" />
    <glyph glyph-name="uni0405" unicode="&#x405;" horiz-adv-x="587" 
d="M300.16 -8.46973c-149.63 0 -249.791 85.3916 -249.791 217.411h51.3203c0 -102.82 80.2803 -167.94 198.011 -167.94c107.11 0 184.78 60.1201 184.78 150.47c0 101.65 -93.3604 122.271 -193.65 144.881c-108.53 24.3896 -225.84 51.2295 -225.84 184.17
c0 115.01 90.2305 187.939 229.25 187.939c136.24 0 223.101 -78.3096 223.101 -198.79h-49.9297c0 92.2002 -71.1396 150.25 -174.1 150.25c-105.73 0 -177.94 -53.5898 -177.94 -137.55c0 -96.6504 93.0498 -117.261 191.8 -139.331
c110.54 -25.3896 229.09 -52.71 229.09 -191.1c0 -123.25 -99.8604 -200.41 -236.101 -200.41z" />
    <glyph glyph-name="uni0404" unicode="&#x404;" horiz-adv-x="784" 
d="M698.22 231.19l50.3896 0.00195312c-46.9902 -150.25 -175.221 -242.12 -336.78 -242.12c-206.46 0 -358.92 154.46 -358.92 360.93c0 206.92 153.93 360.92 358.92 360.92c157.02 0 279.25 -84.8604 332.17 -230.57h-51.3896
c-50.0596 115.12 -151.04 180.65 -280.78 180.65c-167.55 0 -294.939 -119.61 -307.119 -284.891h375.66v-47.1504h-376c9.80957 -168.37 137.21 -289.96 307.46 -289.96c134.28 0 240.87 71.5996 286.39 192.189z" />
    <glyph glyph-name="uni042D" unicode="&#x42d;" horiz-adv-x="784" 
d="M372.54 710.92c205 0 358.919 -153.991 358.919 -360.911c0 -206.46 -152.46 -360.92 -358.92 -360.92c-161.55 0 -289.79 91.8604 -336.78 242.11h50.3896c45.5303 -121.05 152.12 -192.649 286.4 -192.649c169.82 0 297.21 121.61 307 290.42h-375.54v47.1504h375.2
c-12.1396 165.71 -139.52 285.35 -306.659 285.35c-129.74 0 -230.721 -65.5303 -280.78 -181.12h-51.3896c52.9102 145.71 175.15 230.57 332.16 230.57z" />
    <glyph glyph-name="uni0406" unicode="&#x406;" horiz-adv-x="258" 
d="M103.67 0v700h50.3896v-700h-50.3896z" />
    <glyph glyph-name="uni0407" unicode="&#x407;" horiz-adv-x="258" 
d="M28.2197 808.72v69.1396h59.5996v-69.1396h-59.5996zM169.84 808.72v69.1396h59.5898v-69.1396h-59.5898zM103.67 -0.000976562v700h50.3896v-700h-50.3896z" />
    <glyph glyph-name="uni0408" unicode="&#x408;" horiz-adv-x="590" 
d="M264.01 -10.9297c-131.4 0 -233.25 101.391 -233.25 238.011v9.08984h49.9297v-7.23047c0 -108.74 79.1201 -190.4 183.32 -190.4c102.28 0 181.4 82.2002 181.4 190.4v471.06h49.9199v-472.92c0 -136.62 -100.46 -238.01 -231.32 -238.01z" />
    <glyph glyph-name="uni040B" unicode="&#x40b;" horiz-adv-x="754" 
d="M467.62 455.08c139.61 0 233.479 -81.3789 233.479 -235.249v-219.83h-50.8496v215.21c0 126.83 -71.0596 191.8 -188.18 191.8c-48.7002 0 -104.99 -11.8896 -166.32 -34.1699v-372.84h-50.8496v652.39h-223.36v47.6104h497.11v-47.6104h-222.9v-232.32
c61.3301 23.3398 119.72 35.0098 171.87 35.0098z" />
    <glyph glyph-name="uni042E" unicode="&#x42e;" horiz-adv-x="1035" 
d="M625.5 711.46c205.08 0 356.69 -153.53 356.69 -361.45c0 -208.39 -151.15 -360.93 -356.69 -360.93c-195.36 0 -342.53 140.6 -353.431 337.35h-118.01v-326.43h-50.3896v700h50.3896v-325.96h118.04c11.0703 196.55 157.75 337.42 353.4 337.42zM624.11 39.0098
c177.34 0 306.749 131.81 306.749 311s-129.96 312 -306.76 312c-174.34 0 -304.609 -132.2 -304.609 -312s129.74 -311 304.62 -311z" />
    <glyph glyph-name="uni042F" unicode="&#x42f;" horiz-adv-x="639" 
d="M275.86 700h259.111v-700h-50.8496v293.26h-191.41l-180.7 -293.26h-59.3301l184.68 297.93c-107.41 15.5 -180.061 94.5703 -180.061 198.431c0 117.09 92.5498 203.64 218.56 203.64zM277.722 340.87l206.4 0.000976562v311.05h-206.4
c-98.2002 0 -169.101 -64.9004 -169.101 -155.561c0 -90.1299 70.3604 -155.49 169.101 -155.49z" />
    <glyph glyph-name="uni0402" unicode="&#x402;" horiz-adv-x="735" 
d="M454.4 470.38c143.54 0 239.999 -96.4609 239.999 -240.461c0 -143.46 -96.9297 -239.46 -242.779 -239.46h-5.38965v49.46h5.38965c116.65 -0.459961 191.931 77.5205 191.931 190.001c0 112.95 -75.7402 191 -192.391 191c-57.29 0 -119.69 -24.4805 -158.19 -63.2002
v-357.72h-50.3799v652.39h-221.05v47.6104h494.33v-47.6104h-222.9v-237.71c44.4502 34.3301 102.86 55.7002 161.431 55.7002z" />
    <glyph glyph-name="uni0414.loclBGR" horiz-adv-x="762" 
d="M667.37 47.6104h60.1699v-193.83h-47.1504v146.22h-598.02v-146.22h-47.1504v193.83h61l258.2 652.39h44.54zM376.86 624.66l-227.869 -577.05h465.1z" />
    <glyph glyph-name="uni041B.loclBGR" horiz-adv-x="657" 
d="M633.04 0h-54.6299l-250.47 624.7l-248.18 -624.7h-53.2402l278.38 700h45.46z" />
    <glyph glyph-name="uni0416.ss01" horiz-adv-x="879" 
d="M26.1504 700l65.9492 -0.000976562l292.02 -331.93v-8.30957l-315.17 -359.76h-68.2695l320.57 365.18zM414.31 -0.000976562v700h50.3896v-700h-50.3896zM557.659 365.209l320.66 -365.209h-68.2598l-315.17 359.76v8.30957l292.02 331.93h65.9502z" />
    <glyph glyph-name="uni041A.ss01" horiz-adv-x="600" 
d="M103.67 0v700h50.3896v-700h-50.3896zM248.8 364.03l353.78 -364.03h-68.79l-349.54 359.22v8.32031l325.31 332.46h66.4902z" />
    <glyph glyph-name="uni0424.ss01" horiz-adv-x="857" 
d="M803.42 349.92c0 -196.26 -140.54 -355.239 -349.98 -360.259v-106.59h-49.4697v106.6c-208.8 5.28027 -351.06 164.65 -351.06 359.33c0 195.66 142.26 356.01 351.06 361.319v96.2197h49.4697v-96.2002c209.44 -5.03027 349.98 -164.08 349.98 -360.42z
M453.439 38.2207c175.81 5.08984 298.67 141.04 298.67 311.24c0 170.27 -122.86 306.739 -298.67 311.85v-623.09zM104.22 349.461c0 -169.53 123.62 -305.9 299.75 -311.23v623.07c-175.63 -5.36035 -299.75 -142.24 -299.75 -311.84z" />
    <glyph glyph-name="uni0414.ss02" horiz-adv-x="762" 
d="M667.37 47.6104h60.1699v-193.83h-47.1504v146.22h-598.02v-146.22h-47.1504v193.83h61l258.2 652.39h44.54zM376.86 624.66l-227.869 -577.05h465.1z" />
    <glyph glyph-name="uni041B.ss02" horiz-adv-x="657" 
d="M633.04 0h-54.6299l-250.47 624.7l-248.18 -624.7h-53.2402l278.38 700h45.46z" />
    <glyph glyph-name="uni0414.ss03" horiz-adv-x="762" 
d="M667.37 47.6104h60.1699v-193.83h-47.1504v146.22h-598.02v-146.22h-47.1504v193.83h61l258.2 652.39h44.54zM376.86 624.66l-227.869 -577.05h465.1z" />
    <glyph glyph-name="uni0416.ss03" horiz-adv-x="879" 
d="M26.1504 700l65.9492 -0.000976562l292.02 -331.93v-8.30957l-315.17 -359.76h-68.2695l320.57 365.18zM414.31 -0.000976562v700h50.3896v-700h-50.3896zM557.659 365.209l320.66 -365.209h-68.2598l-315.17 359.76v8.30957l292.02 331.93h65.9502z" />
    <glyph glyph-name="uni041A.ss03" horiz-adv-x="600" 
d="M103.67 0v700h50.3896v-700h-50.3896zM248.8 364.03l353.78 -364.03h-68.79l-349.54 359.22v8.32031l325.31 332.46h66.4902z" />
    <glyph glyph-name="uni041B.ss03" horiz-adv-x="657" 
d="M633.04 0h-54.6299l-250.47 624.7l-248.18 -624.7h-53.2402l278.38 700h45.46z" />
    <glyph glyph-name="uni0416.ss04" horiz-adv-x="879" 
d="M26.1504 700l65.9492 -0.000976562l292.02 -331.93v-8.30957l-315.17 -359.76h-68.2695l320.57 365.18zM414.31 -0.000976562v700h50.3896v-700h-50.3896zM557.659 365.209l320.66 -365.209h-68.2598l-315.17 359.76v8.30957l292.02 331.93h65.9502z" />
    <glyph glyph-name="uni041A.ss04" horiz-adv-x="600" 
d="M103.67 0v700h50.3896v-700h-50.3896zM248.8 364.03l353.78 -364.03h-68.79l-349.54 359.22v8.32031l325.31 332.46h66.4902z" />
    <glyph glyph-name="uni0424.ss04" horiz-adv-x="796" 
d="M423.82 675.76c192.63 -4.16016 322.91 -148.01 322.91 -325.84c0 -176.82 -130.28 -319.21 -322.91 -323.84v-83.6797h-50.3799v83.6797c-192.17 4.62988 -323.99 148.02 -323.99 323.84c0 177.83 131.82 321.68 323.99 325.84v77.7598h50.3799v-77.7598z
M100.761 349.92c0 -153.65 114.13 -274.129 273.13 -276.669v556.26c-159 -3.45996 -273.13 -125.4 -273.13 -279.591zM423.36 73.252c159.45 2.53027 271.601 122.479 271.601 276.669c0 155.19 -112.15 276.141 -271.601 279.591v-556.26z" />
    <glyph glyph-name="uni0424.ss05" horiz-adv-x="796" 
d="M423.82 675.76c192.63 -4.16016 322.91 -148.01 322.91 -325.84c0 -176.82 -130.28 -319.21 -322.91 -323.84v-83.6797h-50.3799v83.6797c-192.17 4.62988 -323.99 148.02 -323.99 323.84c0 177.83 131.82 321.68 323.99 325.84v77.7598h50.3799v-77.7598z
M100.761 349.92c0 -153.65 114.13 -274.129 273.13 -276.669v556.26c-159 -3.45996 -273.13 -125.4 -273.13 -279.591zM423.36 73.252c159.45 2.53027 271.601 122.479 271.601 276.669c0 155.19 -112.15 276.141 -271.601 279.591v-556.26z" />
    <glyph glyph-name="uni0430" unicode="&#x430;" horiz-adv-x="701" 
d="M566.73 540l40.2207 0.00195312v-540h-41.5996l-5.75 117.18c-47.1104 -78.1504 -131.49 -128.11 -234.9 -128.11c-157.85 0 -276.779 121 -276.779 280.93c0 160.39 118.93 280.93 276.779 280.93c103.67 0 188.22 -50.0303 235.26 -128.511zM327.941 36.6924
c132.5 0 229.09 98.6699 229.09 233.32s-96.5898 233.311 -229.09 233.311c-131.42 0 -230.08 -100.74 -230.08 -233.32c0 -133.11 98.6602 -233.311 230.08 -233.311z" />
    <glyph glyph-name="uni0431" unicode="&#x431;" horiz-adv-x="656" 
d="M343.94 510.92c151.77 0 263.003 -110.219 263.003 -259.068c0 -151.16 -113.54 -262.78 -269.021 -262.78c-159.71 0 -270.94 113.85 -270.94 278.04c0 291.12 91.7695 418.04 345.909 478.11l146.94 34.7002v-49.0703l-144.41 -33.7002
c-181.36 -41.8604 -269.79 -129.44 -291.98 -300.421c47.0498 72.5498 124.109 114.189 220.499 114.189zM337.924 36.6904c124.97 0 219.09 93.1904 219.09 215.16c0 121.96 -94.1201 215.62 -219.09 215.62c-126.5 0 -220.08 -93.2002 -220.08 -215.62
c0 -121.97 94.1201 -215.16 220.08 -215.16z" />
    <glyph glyph-name="uni0432" unicode="&#x432;" horiz-adv-x="571" 
d="M411.72 282.82c61.1797 -18.25 101.449 -69.5908 101.449 -134.521c0 -85.46 -69.3096 -148.31 -162.159 -148.31h-256.8v540h254.87c87.3203 0 146.09 -54.8496 146.09 -133.699c0 -58 -32.7598 -104.49 -83.4502 -123.471zM446.63 398.89
c0 57.1201 -41.2803 94.8701 -103.561 94.8701h-200.78v-189.29h200.78c62.2002 0 103.561 38.29 103.561 94.4199zM345.92 46.6797c67.8896 0 116.859 44.4297 116.859 106.25c0 61.8096 -48.9697 106.25 -117.859 106.25h-202.63v-212.5h203.63z" />
    <glyph glyph-name="uni0433" unicode="&#x433;" horiz-adv-x="436" 
d="M419.24 540v-44.3799h-276.95v-495.62h-48.0801v540h325.03z" />
    <glyph glyph-name="uni0453" unicode="&#x453;" horiz-adv-x="436" 
d="M349.79 757.69l-86.6289 -152h-40.8203l74.5996 152h52.8496zM419.241 540v-44.3799h-276.95v-495.62h-48.0801v540h325.03z" />
    <glyph glyph-name="uni0491" unicode="&#x491;" horiz-adv-x="436" 
d="M372.08 663.37h47.1602v-167.75h-276.95v-495.62h-48.0801v540h277.87v123.37z" />
    <glyph glyph-name="uni0434" unicode="&#x434;" horiz-adv-x="635" 
d="M522.19 46.6904h76.29v-195.68h-45.29v148.99h-493.34v-148.99h-45.2998v195.68h59.6299c49.2598 44.4199 59.4902 106.67 88.7402 493.84h359.27v-493.84zM207.311 496.62c-22.4697 -324.72 -36.5205 -402.43 -78.4502 -449.93h345.25v449.93h-266.8z" />
    <glyph glyph-name="uni0435" unicode="&#x435;" horiz-adv-x="634" 
d="M588.31 271.84c0 -6.16016 -0.460938 -12.8594 -0.920898 -19.0195h-490.31c7.90039 -126.16 99.9805 -215.66 223.61 -215.66c88.6602 0 159.561 44.8203 199.62 120.25h51.8496c-49.2998 -108.24 -138.85 -168.33 -251.47 -168.33
c-154.85 0 -272.239 121 -272.239 281.46c0 159.39 117.39 280.39 272.239 280.39c158.01 0 267.62 -122.7 267.62 -279.09zM320.688 504.241c-120.24 0 -210.631 -84.9795 -222.771 -205.659h442.05c-11.8096 123.85 -102.369 205.659 -219.279 205.659z" />
    <glyph glyph-name="uni0451" unicode="&#x451;" horiz-adv-x="634" 
d="M261.63 720.64v-69.1396h-64.2197v69.1396h64.2197zM438.439 720.64v-69.1396h-64.2197v69.1396h64.2197zM588.31 271.84c0 -6.16016 -0.460938 -12.8594 -0.920898 -19.0195h-490.31c7.90039 -126.16 99.9805 -215.66 223.61 -215.66
c88.6602 0 159.561 44.8203 199.62 120.25h51.8496c-49.2998 -108.24 -138.85 -168.33 -251.47 -168.33c-154.85 0 -272.239 121 -272.239 281.46c0 159.39 117.39 280.39 272.239 280.39c158.01 0 267.62 -122.7 267.62 -279.09zM320.688 504.241
c-120.24 0 -210.631 -84.9795 -222.771 -205.659h442.05c-11.8096 123.85 -102.369 205.659 -219.279 205.659z" />
    <glyph glyph-name="uni0436" unicode="&#x436;" horiz-adv-x="769" 
d="M701.37 0l-207.177 258.88h-86.1201v-258.88h-47.6104v258.88h-86.1504l-207.69 -258.88h-60.8604l227.34 283.59l-207.34 256.41h58.0898l190.77 -236.74h85.8398v236.74h47.6104v-236.74h85.8096l190.27 236.74h58.0801l-206.83 -256.41l226.83 -283.59h-60.8604z" />
    <glyph glyph-name="uni0437" unicode="&#x437;" horiz-adv-x="481" 
d="M337.88 285.17c53.3096 -22.1904 87.8418 -72.2617 87.8418 -134.932c0 -94.2402 -83.2402 -161.17 -199.33 -161.17c-102.56 0 -179.26 56.4004 -194.17 142.431h45.2998c15.3799 -58.1396 72.1299 -95.7393 148.88 -95.7393c88.2695 0 151.25 48.9697 151.25 117.71
c0 60.29 -48.9902 109.8 -118.74 109.8h-92.5898v41.1396h92.0498c65.29 0 108.81 40.8203 108.81 95.5703c0 62.0498 -57.5098 107.03 -138.1 107.03c-69.8301 0 -122.65 -35.0596 -136.49 -89.8096h-45.2998c13.3799 80.25 87.0098 133.72 182.72 133.72
c105.55 0 183.859 -62.9199 183.859 -147.689c0 -54.6104 -29.2402 -97.5801 -75.9902 -118.061z" />
    <glyph glyph-name="uni0438" unicode="&#x438;" horiz-adv-x="617" 
d="M494.44 540h27.8799v-540h-46.6904v449.85l-352.61 -449.85h-28.8096v540h47.1504v-447.87z" />
    <glyph glyph-name="uni0439" unicode="&#x439;" horiz-adv-x="617" 
d="M436.16 705.4v-38.3701h-254.32v38.3701h254.32zM494.44 540h27.8799v-540h-46.6904v449.85l-352.61 -449.85h-28.8096v540h47.1504v-447.87z" />
    <glyph glyph-name="uni045D" unicode="&#x45d;" horiz-adv-x="617" 
d="M336.87 605.69h-40.8193l-86.6299 152h52.8496zM494.44 540h27.8799v-540h-46.6904v449.85l-352.61 -449.85h-28.8096v540h47.1504v-447.87z" />
    <glyph glyph-name="uni043A" unicode="&#x43a;" horiz-adv-x="517" 
d="M452.65 0l-215.512 258.88h-93.9297v-258.88h-49v540h49v-235.35h94.75l196.61 235.35h60.4004l-215.43 -258.5l234.9 -281.5h-61.79z" />
    <glyph glyph-name="uni045C" unicode="&#x45c;" horiz-adv-x="517" 
d="M380.51 757.69l-86.6289 -152h-40.8203l74.5996 152h52.8496zM452.65 0l-215.512 258.88h-93.9297v-258.88h-49v540h49v-235.35h94.75l196.61 235.35h60.4004l-215.43 -258.5l234.9 -281.5h-61.79z" />
    <glyph glyph-name="uni043B" unicode="&#x43b;" horiz-adv-x="608" 
d="M180.22 540l333.279 0.000976562v-540h-48.54v496.55h-243.05l-34.6904 -319.9c-13.9199 -130.88 -60.71 -178.04 -165.2 -178.04h-9.00977v46.2305h11.3301c73.04 0 105.12 35.7598 115.271 130.029z" />
    <glyph glyph-name="uni043C" unicode="&#x43c;" horiz-adv-x="790" 
d="M746.64 0h-47.6104l-95.25 456.03l-202.22 -437.43h-13.5498l-201.43 437.52l-95.5801 -456.12h-47.6201l111.68 540h39.9102l200.08 -433.85l200 433.85h39.9102z" />
    <glyph glyph-name="uni043D" unicode="&#x43d;" horiz-adv-x="626" 
d="M483.64 540h48.0703v-540h-48.0703v256.42h-341.35v-256.42h-48.0801v540h48.0801v-237.35h341.35v237.35z" />
    <glyph glyph-name="uni043E" unicode="&#x43e;" horiz-adv-x="661" 
d="M330.61 -10.9297c-161.31 0 -282.699 120 -282.699 280.93c0 161.92 121.39 280.92 282.699 280.92c161.85 0 282.699 -120 282.699 -280.92c0 -160.93 -120.85 -280.93 -282.699 -280.93zM330.61 36.6807c134.04 0 232.78 99.2803 232.78 233.32
s-98.7402 233.31 -232.78 233.31s-232.78 -98.7402 -232.78 -233.32c0 -134.04 99.2803 -233.31 232.78 -233.31z" />
    <glyph glyph-name="uni043F" unicode="&#x43f;" horiz-adv-x="630" 
d="M94.21 540h441.58v-540h-48.54v494.7h-344.04v-494.7h-49v540z" />
    <glyph glyph-name="uni0440" unicode="&#x440;" horiz-adv-x="698" 
d="M374.69 550.92c160.46 0 275.3 -120.53 275.3 -280.92c0 -159.93 -114.85 -280.93 -275.31 -280.93c-99.3203 0 -183.141 48.1904 -231.471 123.94v-304.4h-49v731.39h35.5898l10.46 -117.55c47.8203 78.46 133.051 128.47 234.431 128.47zM371.44 36.6895
c132.5 0 229.09 98.6602 229.09 233.311s-96.5898 233.311 -229.09 233.311c-131.43 0 -230.09 -100.2 -230.09 -233.311c0 -132.57 98.6602 -233.311 230.09 -233.311z" />
    <glyph glyph-name="uni0441" unicode="&#x441;" horiz-adv-x="619" 
d="M326.23 -10.9297c-157.85 0 -278.329 120.991 -278.329 280.921c0 161 119.93 280.92 278.319 280.92c122.48 0 218.57 -70.4697 254.87 -177.649h-49.0703c-35.8398 80.9805 -113.2 130.04 -205.79 130.04c-130.65 0 -228.391 -100.66 -228.391 -233.311
c0 -132.11 98.7402 -233.311 228.391 -233.311c92.0498 0 168.49 48.5195 206.4 131.96h50c-37.9102 -109.71 -136 -179.57 -256.4 -179.57z" />
    <glyph glyph-name="uni0442" unicode="&#x442;" horiz-adv-x="513" 
d="M496.01 540l0.000976562 -44.8398h-215.74v-495.16h-48.0703v495.16h-215.2v44.8398h479.01z" />
    <glyph glyph-name="uni0443" unicode="&#x443;" horiz-adv-x="577" 
d="M503.41 540l52.2988 -0.000976562l-269.51 -579.43c-54.1602 -117.1 -102.4 -151.96 -193.5 -151.96h-45v44.8398h41.3096c73.6104 0 106.75 22.5303 152.44 119.061l28.4004 59.5898l-248.33 507.9h53.7803l220.23 -453.35z" />
    <glyph glyph-name="uni045E" unicode="&#x45e;" horiz-adv-x="577" 
d="M165.61 667.03v38.3701h254.33v-38.3701h-254.33zM503.41 540l52.2988 -0.000976562l-269.51 -579.43c-54.1602 -117.1 -102.4 -151.96 -193.5 -151.96h-45v44.8398h41.3096c73.6104 0 106.75 22.5303 152.44 119.061l28.4004 59.5898l-248.33 507.9h53.7803
l220.23 -453.35z" />
    <glyph glyph-name="uni0444" unicode="&#x444;" horiz-adv-x="721" 
d="M673.19 269.07c0 -165.39 -122.141 -276.909 -288.141 -279.929v-159.14h-49v159.14c-166.02 3.01953 -288.14 114.539 -288.14 279.929c0 165.31 122.56 278.71 288.14 281.79v150.53h49v-150.53c165.57 -3.07031 288.141 -116.021 288.141 -281.79zM96.4395 269.54
c0 -134.62 97.9893 -228.879 239.6 -231.859v464.63c-141.17 -3.03027 -239.6 -98.7002 -239.6 -232.771zM385.038 37.6807c141.17 3 239.601 97.6992 239.601 231.859c0 134.07 -98.8701 229.73 -239.601 232.771v-464.63z" />
    <glyph glyph-name="uni0445" unicode="&#x445;" horiz-adv-x="495" 
d="M484.66 0h-55.7021l-181.59 249.8l-181.84 -249.8h-54.7695l206.91 282.46l-187.69 257.54h55.71l162.11 -223.02l163.32 223.02h54.7803l-188.68 -255.87z" />
    <glyph glyph-name="uni0447" unicode="&#x447;" horiz-adv-x="537" 
d="M395.58 540l47.6182 -0.000976562v-540h-47.6201v226.55c-46.3896 -19.1504 -97.2695 -29.8906 -145.42 -29.8906c-119.47 0 -206.399 68.4004 -206.399 200.641v142.7h48.0801v-139.46c0 -99.0498 58.8203 -156.27 161.561 -156.27
c45.8604 0 96.9307 12.2197 142.181 33.1602v262.57z" />
    <glyph glyph-name="uni0446" unicode="&#x446;" horiz-adv-x="629" 
d="M516.17 45.7598h77.2295v-194.75h-45.2998v148.99h-453.89v540h48.0801v-494.24h325.81v494.24h48.0703v-494.24z" />
    <glyph glyph-name="uni0448" unicode="&#x448;" horiz-adv-x="843" 
d="M700.17 540h48.54v-540h-654.5v540h48.0801v-494.24h255.6v494.24h47.1504v-494.24h255.13v494.24z" />
    <glyph glyph-name="uni0449" unicode="&#x449;" horiz-adv-x="861" 
d="M748.71 45.7598h77.2295v-194.75h-45.2998v148.99h-686.43v540h48.0801v-494.24h255.6v494.24h47.1504v-494.24h255.13v494.24h48.54v-494.24z" />
    <glyph glyph-name="uni045F" unicode="&#x45f;" horiz-adv-x="638" 
d="M543.39 540v-540h-200.52v-147.6h-47.1504v147.6h-201.51v540h48.0801v-494.24h353.02v494.24h48.0801z" />
    <glyph glyph-name="uni044C" unicode="&#x44c;" horiz-adv-x="521" 
d="M303.54 353.11c105.86 0 183.71 -72.2402 183.71 -176.79c0 -104.62 -77.8496 -176.32 -183.71 -176.32h-209.33v540h48.0801v-186.89h161.25zM297.99 44.3701c81.9697 0 139.33 54.3604 139.33 131.95c0 77.0498 -57.3604 132.42 -139.33 132.42h-155.7v-264.37h155.7z
" />
    <glyph glyph-name="uni044A" unicode="&#x44a;" horiz-adv-x="616" 
d="M398.76 353.11c105.86 0 183.711 -72.2402 183.711 -176.79c0 -104.62 -77.8496 -176.32 -183.71 -176.32h-209.32v496.55h-171.98v43.4502h220.05v-186.89h161.25zM393.211 44.3701c81.9805 0 139.341 54.3604 139.341 131.95
c0 77.0498 -57.3604 132.42 -139.341 132.42h-155.7v-264.37h155.7z" />
    <glyph glyph-name="uni044B" unicode="&#x44b;" horiz-adv-x="737" 
d="M303.54 353.11c105.86 0 183.71 -72.2402 183.71 -176.79c0 -104.62 -77.8496 -176.32 -183.71 -176.32h-209.33v540h48.0801v-186.89h161.25zM593.46 540h49v-540h-49v540zM297.99 44.3701c81.9697 0 139.33 54.3604 139.33 131.95
c0 77.0498 -57.3604 132.42 -139.33 132.42h-155.7v-264.37h155.7z" />
    <glyph glyph-name="uni0459" unicode="&#x459;" horiz-adv-x="869" 
d="M652.76 351.26c105.4 0 183.25 -71.7783 183.25 -175.858c0 -104.17 -77.8496 -175.4 -183.25 -175.4h-209.79v496.55h-220.3l-34.5195 -319.44c-13.9297 -130.88 -60.71 -178.04 -165.2 -178.04h-9.94043v45.2998h12.25c72.5098 0 105.12 35.2305 115.271 130.04
l40.6201 365.59h308.51v-188.74h163.1zM648.6 42.0615c81.5098 0 139.34 54.8203 139.34 133.34c0 77.9697 -57.8301 133.8 -139.34 133.8h-158.94v-267.14h158.94z" />
    <glyph glyph-name="uni045A" unicode="&#x45a;" horiz-adv-x="847" 
d="M640.61 330.36c106.4 0 173.489 -66.5498 173.489 -164.95c0 -98.8604 -67.0898 -165.41 -173.49 -165.41h-203.1v270.72h-295.22v-270.72h-48.0801v540h48.0801v-223.05h295.22v223.05h48.0703v-209.64h155.03zM634.6 45.3008c79.4404 0 129.57 46.1406 129.57 120.11
c0 73.5098 -50.1299 119.649 -129.57 119.649h-149.02v-239.76h149.02z" />
    <glyph glyph-name="uni0455" unicode="&#x455;" horiz-adv-x="508" 
d="M254.31 -10.9297c-123.62 0 -201.722 62.4707 -208.941 163.871h48.0703c7.23047 -75.4404 68.75 -118.11 162.25 -118.11c93.6504 0 157.011 42.9697 157.011 110.71c0 83.7197 -81.2002 98.9502 -165.101 113.101c-93.0801 16 -191.7 33.3896 -191.7 144.489
c0 88.0898 78.7803 147.79 195.33 147.79c117.09 0 191.79 -60.0898 196.4 -156.1h-46.6904c-4.61035 70.5098 -59.9004 111.72 -150.641 111.72c-88.8096 0 -146.779 -40.8203 -146.779 -102.021c0 -73.3496 72.9004 -85.5 155.801 -99.1904
c94.0703 -15.54 201.92 -34.1504 201.92 -157.94c0 -95.5498 -82.7695 -158.319 -206.93 -158.319z" />
    <glyph glyph-name="uni0454" unicode="&#x454;" horiz-adv-x="626" 
d="M539.16 188.94l49.0801 -0.0322266c-32.6104 -118.09 -135.38 -199.859 -262.08 -199.859c-157.31 0 -278.239 123 -278.239 282.93c0 158.46 119.93 278.92 278.239 278.92c125.7 0 227.47 -77.7695 260.08 -193.39h-48.1504
c-31.2197 89.7402 -113.66 149.03 -212.4 149.03c-125.6 0 -219.8 -89.9199 -229.76 -213.21h271.77v-41.5996h-271.92c9.19043 -125.01 105.061 -217.819 229.9 -217.819c99.7402 0 183.25 61.9004 213.48 155.03z" />
    <glyph glyph-name="uni044D" unicode="&#x44d;" horiz-adv-x="626" 
d="M299.54 550.92c158.31 0 278.25 -120.438 278.25 -278.897c0 -159.93 -120.93 -282.93 -278.239 -282.93c-126.7 0 -229.48 81.7695 -262.091 199.859h49.0801c30.2197 -93.1299 113.729 -155.03 213.47 -155.03c124.84 0 220.71 92.8096 229.9 217.819h-271.91v41.5996
h271.76c-9.95996 123.29 -104.16 213.21 -229.76 213.21c-98.7402 0 -181.181 -59.29 -212.4 -149.03h-48.1504c32.6104 115.63 134.391 193.399 260.091 193.399z" />
    <glyph glyph-name="uni0456" unicode="&#x456;" horiz-adv-x="237" 
d="M87.9902 651.5v69.1396h61.4502v-69.1396h-61.4502zM94.2207 -0v540h49v-540h-49z" />
    <glyph glyph-name="uni0457" unicode="&#x457;" horiz-adv-x="237" 
d="M28.1104 650.96v69.1396h57.8701v-69.1396h-57.8701zM151.25 650.5v69.1396h57.8701v-69.1396h-57.8701zM94.21 -0v540h49v-540h-49z" />
    <glyph glyph-name="uni0458" unicode="&#x458;" horiz-adv-x="249" 
d="M100.45 651.5v69.1396h61.4502v-69.1396h-61.4502zM-41.46 -191.391l0.0107422 45.3008h23.25c78.8203 0 124.42 46.0596 124.42 124.35v561.74h49v-564.98c0 -101.47 -65.4805 -166.41 -167.421 -166.41h-29.2598z" />
    <glyph glyph-name="uni045B" unicode="&#x45b;" horiz-adv-x="641" 
d="M345.64 550.92c129.61 0 210.679 -89.0693 210.679 -230.149v-320.77h-49v310.6c0 122.59 -64.0498 195.02 -172.78 195.02c-104.52 0 -191.329 -89.4297 -191.329 -197.5v-308.12h-49v604.36h-98.3799v42.0596h98.3799v84.9697h49v-84.9697h199.66v-42.0596h-199.66
v-168.69c39.8203 69.5703 115.221 115.25 202.431 115.25z" />
    <glyph glyph-name="uni044E" unicode="&#x44e;" horiz-adv-x="849" 
d="M527.1 550.92c156.85 0 274.311 -120.542 274.311 -281.382c0 -160.93 -117 -280.47 -274.31 -280.47c-150.35 0 -264.13 108.45 -274.6 257.82h-109.29v-248.43h-49v541.54h49v-246.89h109.35c10.8896 149.36 124.909 257.811 274.539 257.811zM527.101 36.6875
c128.65 0 224.381 99.7305 224.381 232.851c0 133.57 -96.7305 233.771 -224.381 233.771c-129.19 0 -225.46 -100.2 -225.46 -233.771c0 -133.12 96.2695 -232.851 225.46 -232.851z" />
    <glyph glyph-name="uni044F" unicode="&#x44f;" horiz-adv-x="551" 
d="M225.38 540l231.66 -0.000976562v-539.47h-48.0801v219.59h-168.99l-143.6 -220.12h-54.7002l146.71 225.7c-78.9297 13.9805 -132.16 74.54 -132.16 154.36c0 92.7002 70.2402 159.94 169.16 159.94zM225.86 267.739l183.1 -0.000976562v224.65h-179.88
c-72.8799 0 -122.93 -45.9805 -122.93 -112.33c0 -65.8096 48.9697 -112.319 119.71 -112.319z" />
    <glyph glyph-name="uni0452" unicode="&#x452;" horiz-adv-x="641" 
d="M345.64 550.46c129.61 0 210.678 -89.0693 210.678 -230.149v-320.07c0 -115.39 -74.8496 -190.239 -190.239 -190.239h-20.71v45.7598h14.7002c90.3496 0 147.25 56.9004 147.25 147.25v307.12c0 123.06 -64.0498 195.489 -172.78 195.489
c-104.52 0 -191.329 -89.9004 -191.329 -197.96v-307.66h-49v604.36h-99.2998v42.0596h99.2998v84.9697h49v-84.9697h198.74v-42.0596h-198.74v-166.69c39.8203 67.9805 115.221 112.79 202.431 112.79z" />
    <glyph glyph-name="uni0432.loclBGR" horiz-adv-x="620" 
d="M441.68 385.09c79.1904 -28.3203 129.189 -101.181 129.189 -185.23c0 -126.39 -102.79 -210.319 -243.79 -210.319c-156.85 0 -246.479 105 -246.479 290.38v182.17c0 182.52 87.8604 283.439 242.25 283.439c131.54 0 225.24 -77.9199 225.24 -193.31
c0 -72.9902 -41.5098 -138.83 -106.41 -167.13zM322.858 697.939c-124.73 0 -194.189 -79.2002 -194.189 -235.84v-55.9004h220.14c88.8398 0 153.52 60.4404 153.52 143.271c0 88.96 -71.5098 148.47 -179.47 148.47zM327.08 37.1699
c117.42 0 194.789 66.4502 194.789 165.95c0 91.9697 -70.1396 156.41 -170.739 156.41h-222.45v-79.5898c0 -158.49 70.29 -242.771 198.4 -242.771z" />
    <glyph glyph-name="uni0433.loclBGR" horiz-adv-x="513" 
d="M255.85 -5.84961c-126.16 0 -209.94 60.2402 -209.94 152.32c0 117.02 106.46 137.479 201.54 154.479c84.3604 15.6104 159.721 29.7607 159.721 104.041c0 59.6602 -58.4297 99.9502 -148.25 99.9502c-95.4199 0 -151.32 -43.29 -151.32 -120.03h-44.8398
c0 104.24 77.8496 163.48 195.699 163.48c116.62 0 195.4 -58.2402 195.4 -143.4c0 -110.18 -99.2402 -128.64 -192.391 -145.64c-85.3604 -15.1504 -167.021 -30.3809 -167.021 -112.881c0 -64.2695 63.9004 -105.17 161.4 -105.17
c102.57 0 163.471 46.8203 163.471 128.25h47.1504c0 -112.24 -83.2305 -175.4 -210.62 -175.4z" />
    <glyph glyph-name="uni0434.loclBGR" horiz-adv-x="676" 
d="M546.74 540l34.6611 0.0302734v-461.78c0 -174.54 -97.7803 -280.54 -258.48 -280.54c-124.32 0 -212.33 63.5498 -244.55 170.95h49c29.4502 -80.5898 102.9 -125.649 195.561 -125.649c128.73 0 210.41 85.6602 210.41 229.68v61.7197
c-46.2305 -71.0596 -126.04 -115.779 -221.021 -115.779c-149.46 0 -263.85 114.92 -263.85 265.92c0 150.46 114.92 266.38 263.84 266.38c98.4199 0 181.189 -49.3203 226.579 -125.931zM316.921 65.79c124.89 0 215.939 92.6699 215.939 218.78
c0 126.04 -91.5898 219.24 -215.939 219.24c-124.89 0 -218.55 -94.7402 -218.55 -219.24c0 -124.58 93.6602 -218.78 218.55 -218.78z" />
    <glyph glyph-name="uni0436.loclBGR" horiz-adv-x="748" 
d="M681.52 0l-197.841 258.88h-85.46v-258.88h-47.6104v258.88h-85.5l-198.34 -258.88h-60.4697l216.55 282.52l-196.55 257.48h57.7002l181.46 -236.74h85.1504v431.74h47.6104v-431.74h85.1104l180.97 236.74h57.7002l-196.04 -257.48l216.04 -282.52h-60.4805z" />
    <glyph glyph-name="uni0437.loclBGR" horiz-adv-x="562" 
d="M402.33 193.07c67.5 -27.2803 114.201 -99.0713 114.201 -181.071c0 -126.93 -98.0898 -214.779 -238.33 -214.779c-130.48 0 -228.94 78.0898 -244.7 192.57h49c15.7598 -86.2002 94.3496 -144.95 195.699 -144.95c109.89 0 188.87 68.29 188.87 170.4
c0 82.6797 -62.4502 151.81 -147.44 151.81h-114.74l-0.459961 47.1504h114.13c72.21 0 124.66 65.8096 124.66 139.869c0 88.96 -71.0498 148.79 -171.01 148.79c-92.6602 0 -162.63 -55.1396 -175.47 -137.729h-47.6104c12.3799 110.86 102.16 185.33 223.101 185.33
c128.85 0 220.479 -80.2402 220.479 -193.63c0 -71.4102 -37.0498 -133.92 -90.3799 -163.76z" />
    <glyph glyph-name="uni0438.loclBGR" horiz-adv-x="641" 
d="M497.71 540l49.002 -0.000976562v-540h-37.9004l-8.91016 108.24c-39.2002 -71.7695 -115.79 -119.17 -204.61 -119.17c-129.62 0 -210.69 93.2402 -210.69 230.15v320.78h49v-310.6c0 -122.59 63.5898 -195.03 172.79 -195.03c104.51 0 191.319 89.4404 191.319 197.5
v308.13z" />
    <glyph glyph-name="uni0439.loclBGR" horiz-adv-x="641" 
d="M448.94 705.4v-38.3701h-254.33v38.3701h254.33zM497.71 540l49.002 -0.000976562v-540h-37.9004l-8.91016 108.24c-39.2002 -71.7695 -115.79 -119.17 -204.61 -119.17c-129.62 0 -210.69 93.2402 -210.69 230.15v320.78h49v-310.6
c0 -122.59 63.5898 -195.03 172.79 -195.03c104.51 0 191.319 89.4404 191.319 197.5v308.13z" />
    <glyph glyph-name="uni043A.loclBGR" horiz-adv-x="524" 
d="M457.27 0l-215.511 258.881h-93.9199v-258.88h-49v731.39h49v-426.74h94.71l196.11 235.35h60.4004l-214.91 -258.49l234.91 -281.51h-61.79z" />
    <glyph glyph-name="uni043B.loclBGR" horiz-adv-x="525" 
d="M498.65 0h-50.4609l-184.95 470.6l-188.72 -470.6h-49.54l217.07 540h41.6104z" />
    <glyph glyph-name="uni043F.loclBGR" horiz-adv-x="641" 
d="M345.64 550.92c129.61 0 210.69 -93.2295 210.69 -230.149v-320.77h-49v310.6c0 122.59 -64.0498 195.02 -172.78 195.02c-104.52 0 -191.329 -89.4297 -191.329 -197.5v-308.12h-49v540h36.5098l9.66992 -109.4c39 72.4102 115.93 120.32 205.239 120.32z" />
    <glyph glyph-name="uni0442.loclBGR" horiz-adv-x="954" 
d="M684.69 550.92c110.7 0 184.011 -84.9219 184.011 -208.682v-342.24h-48.4697l-0.530273 328.82c0 107.9 -55.9004 176.801 -143.801 176.801c-98.1201 0 -169.64 -80.9102 -170.18 -195.18v-310.44h-48.0703v328.82c0 108.98 -55.3604 176.801 -144.271 176.801
c-98.1104 0 -169.63 -80.9102 -170.17 -195.18v-310.44h-49v540h36.9805l8.38965 -95.5801c37.0703 66.29 104.16 106.5 183.521 106.5c82.75 0 144.51 -47.9902 169.91 -124.44c34.3096 76.9102 105.739 124.44 191.68 124.44z" />
    <glyph glyph-name="uni0446.loclBGR" horiz-adv-x="666" 
d="M546.71 150.96c0 -80.2197 32.0811 -116.301 103.911 -116.301v-183.65h-45.7598v152.17c-61.3203 6.19043 -90.9404 42.4902 -99.0801 111.98c-38.9004 -73.3604 -118.41 -126.091 -210.49 -126.091c-129.62 0 -210.69 92.7803 -210.69 229.69v321.24h49v-310.14
c0 -123.05 64.0498 -195.49 172.79 -195.49c104.51 0 191.319 89.9004 191.319 197.971v307.66h49v-389.04z" />
    <glyph glyph-name="uni0448.loclBGR" horiz-adv-x="953" 
d="M809.62 540h48.998v-540h-37.9004l-7.65039 94.4297c-37.2002 -65.6104 -103.97 -105.36 -182.87 -105.36c-82.75 0 -144.52 48 -169.92 124.44c-34.3096 -76.9102 -105.729 -124.44 -191.67 -124.44c-110.7 0 -184.01 84.9297 -184.01 208.689v342.24h48.46
l0.540039 -328.83c0.530273 -107.9 55.9004 -176.801 143.801 -176.801c98.1104 0 169.641 80.9102 170.171 195.19v310.44h48.0801v-328.83c0 -108.97 55.3604 -176.8 144.261 -176.8c97.6504 0 169.17 80.9102 169.71 195.19v310.44z" />
    <glyph glyph-name="uni0449.loclBGR" horiz-adv-x="979" 
d="M859.08 150.96c0 -81.1504 33.0068 -116.3 103.447 -116.3v-183.65h-45.2998v152.16c-56.0303 5.88965 -88.8604 36.8994 -99.4707 97.0195c-36.1201 -68.9697 -105.4 -111.12 -187.561 -111.12c-82.75 0 -144.52 48 -169.92 124.44
c-34.3096 -76.9102 -105.729 -124.44 -191.67 -124.44c-110.7 0 -184.01 84.9297 -184.01 208.689v342.24h48.46l0.540039 -328.83c0.530273 -107.9 55.9004 -176.801 143.801 -176.801c98.1104 0 169.641 80.9102 170.171 195.19v310.44h48.0801v-328.83
c0 -108.97 55.3604 -176.8 144.261 -176.8c98.1104 0 170.181 80.9102 170.181 195.19v310.44h48.9902v-389.04z" />
    <glyph glyph-name="uni044E.loclBGR" horiz-adv-x="848" 
d="M524.41 550.92c157.31 0 274.78 -120.541 274.78 -281.381c0 -160.93 -117 -280.47 -274.78 -280.47c-150.79 0 -264.59 108.45 -275.06 257.82h-106.14v-248.43h-49v732.93h49v-438.28h106.2c10.8896 149.36 124.939 257.811 274.999 257.811zM524.411 36.6885
c129.11 0 224.851 99.7305 224.851 232.851c0 133.57 -96.7402 233.771 -224.851 233.771c-129.65 0 -225.92 -100.2 -225.92 -233.771c0 -133.12 96.2695 -232.851 225.92 -232.851z" />
    <glyph glyph-name="uni0436.ss01" horiz-adv-x="754" 
d="M20.2197 540h59.0195l235.18 -255.39v-8.45996l-255.18 -276.15h-59.0195l256.98 281.47zM353.299 0v540h47.6104v-540h-47.6104zM496.799 281.75l257.18 -281.75h-59l-255.18 276.15v8.45996l235.18 255.39h59z" />
    <glyph glyph-name="uni043A.ss01" horiz-adv-x="501" 
d="M94.21 0v540h49v-540h-49zM239.85 282.18l264.2 -282.18h-60.4805l-258.25 277.07v8.46973l241.03 254.46h57.7002z" />
    <glyph glyph-name="uni0432.ss02" horiz-adv-x="620" 
d="M441.68 385.09c79.1904 -28.3203 129.189 -101.181 129.189 -185.23c0 -126.39 -102.79 -210.319 -243.79 -210.319c-156.85 0 -246.479 105 -246.479 290.38v182.17c0 182.52 87.8604 283.439 242.25 283.439c131.54 0 225.24 -77.9199 225.24 -193.31
c0 -72.9902 -41.5098 -138.83 -106.41 -167.13zM322.858 697.939c-124.73 0 -194.189 -79.2002 -194.189 -235.84v-55.9004h220.14c88.8398 0 153.52 60.4404 153.52 143.271c0 88.96 -71.5098 148.47 -179.47 148.47zM327.08 37.1699
c117.42 0 194.789 66.4502 194.789 165.95c0 91.9697 -70.1396 156.41 -170.739 156.41h-222.45v-79.5898c0 -158.49 70.29 -242.771 198.4 -242.771z" />
    <glyph glyph-name="uni0433.ss02" horiz-adv-x="513" 
d="M255.85 -5.84961c-126.16 0 -209.94 60.2402 -209.94 152.32c0 117.02 106.46 137.479 201.54 154.479c84.3604 15.6104 159.721 29.7607 159.721 104.041c0 59.6602 -58.4297 99.9502 -148.25 99.9502c-95.4199 0 -151.32 -43.29 -151.32 -120.03h-44.8398
c0 104.24 77.8496 163.48 195.699 163.48c116.62 0 195.4 -58.2402 195.4 -143.4c0 -110.18 -99.2402 -128.64 -192.391 -145.64c-85.3604 -15.1504 -167.021 -30.3809 -167.021 -112.881c0 -64.2695 63.9004 -105.17 161.4 -105.17
c102.57 0 163.471 46.8203 163.471 128.25h47.1504c0 -112.24 -83.2305 -175.4 -210.62 -175.4z" />
    <glyph glyph-name="uni0434.ss02" horiz-adv-x="676" 
d="M546.74 540l34.6611 0.0302734v-461.78c0 -174.54 -97.7803 -280.54 -258.48 -280.54c-124.32 0 -212.33 63.5498 -244.55 170.95h49c29.4502 -80.5898 102.9 -125.649 195.561 -125.649c128.73 0 210.41 85.6602 210.41 229.68v61.7197
c-46.2305 -71.0596 -126.04 -115.779 -221.021 -115.779c-149.46 0 -263.85 114.92 -263.85 265.92c0 150.46 114.92 266.38 263.84 266.38c98.4199 0 181.189 -49.3203 226.579 -125.931zM316.921 65.79c124.89 0 215.939 92.6699 215.939 218.78
c0 126.04 -91.5898 219.24 -215.939 219.24c-124.89 0 -218.55 -94.7402 -218.55 -219.24c0 -124.58 93.6602 -218.78 218.55 -218.78z" />
    <glyph glyph-name="uni0436.ss02" horiz-adv-x="748" 
d="M681.52 0l-197.841 258.88h-85.46v-258.88h-47.6104v258.88h-85.5l-198.34 -258.88h-60.4697l216.55 282.52l-196.55 257.48h57.7002l181.46 -236.74h85.1504v431.74h47.6104v-431.74h85.1104l180.97 236.74h57.7002l-196.04 -257.48l216.04 -282.52h-60.4805z" />
    <glyph glyph-name="uni0437.ss02" horiz-adv-x="562" 
d="M402.33 193.07c67.5 -27.2803 114.201 -99.0713 114.201 -181.071c0 -126.93 -98.0898 -214.779 -238.33 -214.779c-130.48 0 -228.94 78.0898 -244.7 192.57h49c15.7598 -86.2002 94.3496 -144.95 195.699 -144.95c109.89 0 188.87 68.29 188.87 170.4
c0 82.6797 -62.4502 151.81 -147.44 151.81h-114.74l-0.459961 47.1504h114.13c72.21 0 124.66 65.8096 124.66 139.869c0 88.96 -71.0498 148.79 -171.01 148.79c-92.6602 0 -162.63 -55.1396 -175.47 -137.729h-47.6104c12.3799 110.86 102.16 185.33 223.101 185.33
c128.85 0 220.479 -80.2402 220.479 -193.63c0 -71.4102 -37.0498 -133.92 -90.3799 -163.76z" />
    <glyph glyph-name="uni0438.ss02" horiz-adv-x="641" 
d="M497.71 540l49.002 -0.000976562v-540h-37.9004l-8.91016 108.24c-39.2002 -71.7695 -115.79 -119.17 -204.61 -119.17c-129.62 0 -210.69 93.2402 -210.69 230.15v320.78h49v-310.6c0 -122.59 63.5898 -195.03 172.79 -195.03c104.51 0 191.319 89.4404 191.319 197.5
v308.13z" />
    <glyph glyph-name="uni0439.ss02" horiz-adv-x="641" 
d="M448.94 705.4v-38.3701h-254.33v38.3701h254.33zM497.71 540l49.002 -0.000976562v-540h-37.9004l-8.91016 108.24c-39.2002 -71.7695 -115.79 -119.17 -204.61 -119.17c-129.62 0 -210.69 93.2402 -210.69 230.15v320.78h49v-310.6
c0 -122.59 63.5898 -195.03 172.79 -195.03c104.51 0 191.319 89.4404 191.319 197.5v308.13z" />
    <glyph glyph-name="uni043A.ss02" horiz-adv-x="524" 
d="M457.27 0l-215.511 258.881h-93.9199v-258.88h-49v731.39h49v-426.74h94.71l196.11 235.35h60.4004l-214.91 -258.49l234.91 -281.51h-61.79z" />
    <glyph glyph-name="uni043B.ss02" horiz-adv-x="525" 
d="M498.65 0h-50.4609l-184.95 470.6l-188.72 -470.6h-49.54l217.07 540h41.6104z" />
    <glyph glyph-name="uni043F.ss02" horiz-adv-x="641" 
d="M345.64 550.92c129.61 0 210.69 -93.2295 210.69 -230.149v-320.77h-49v310.6c0 122.59 -64.0498 195.02 -172.78 195.02c-104.52 0 -191.329 -89.4297 -191.329 -197.5v-308.12h-49v540h36.5098l9.66992 -109.4c39 72.4102 115.93 120.32 205.239 120.32z" />
    <glyph glyph-name="uni0442.ss02" horiz-adv-x="954" 
d="M684.69 550.92c110.7 0 184.011 -84.9219 184.011 -208.682v-342.24h-48.4697l-0.530273 328.82c0 107.9 -55.9004 176.801 -143.801 176.801c-98.1201 0 -169.64 -80.9102 -170.18 -195.18v-310.44h-48.0703v328.82c0 108.98 -55.3604 176.801 -144.271 176.801
c-98.1104 0 -169.63 -80.9102 -170.17 -195.18v-310.44h-49v540h36.9805l8.38965 -95.5801c37.0703 66.29 104.16 106.5 183.521 106.5c82.75 0 144.51 -47.9902 169.91 -124.44c34.3096 76.9102 105.739 124.44 191.68 124.44z" />
    <glyph glyph-name="uni0446.ss02" horiz-adv-x="666" 
d="M546.71 150.96c0 -80.2197 32.0811 -116.301 103.911 -116.301v-183.65h-45.7598v152.17c-61.3203 6.19043 -90.9404 42.4902 -99.0801 111.98c-38.9004 -73.3604 -118.41 -126.091 -210.49 -126.091c-129.62 0 -210.69 92.7803 -210.69 229.69v321.24h49v-310.14
c0 -123.05 64.0498 -195.49 172.79 -195.49c104.51 0 191.319 89.9004 191.319 197.971v307.66h49v-389.04z" />
    <glyph glyph-name="uni0448.ss02" horiz-adv-x="953" 
d="M809.62 540h48.998v-540h-37.9004l-7.65039 94.4297c-37.2002 -65.6104 -103.97 -105.36 -182.87 -105.36c-82.75 0 -144.52 48 -169.92 124.44c-34.3096 -76.9102 -105.729 -124.44 -191.67 -124.44c-110.7 0 -184.01 84.9297 -184.01 208.689v342.24h48.46
l0.540039 -328.83c0.530273 -107.9 55.9004 -176.801 143.801 -176.801c98.1104 0 169.641 80.9102 170.171 195.19v310.44h48.0801v-328.83c0 -108.97 55.3604 -176.8 144.261 -176.8c97.6504 0 169.17 80.9102 169.71 195.19v310.44z" />
    <glyph glyph-name="uni0449.ss02" horiz-adv-x="979" 
d="M859.08 150.96c0 -81.1504 33.0068 -116.3 103.447 -116.3v-183.65h-45.2998v152.16c-56.0303 5.88965 -88.8604 36.8994 -99.4707 97.0195c-36.1201 -68.9697 -105.4 -111.12 -187.561 -111.12c-82.75 0 -144.52 48 -169.92 124.44
c-34.3096 -76.9102 -105.729 -124.44 -191.67 -124.44c-110.7 0 -184.01 84.9297 -184.01 208.689v342.24h48.46l0.540039 -328.83c0.530273 -107.9 55.9004 -176.801 143.801 -176.801c98.1104 0 169.641 80.9102 170.171 195.19v310.44h48.0801v-328.83
c0 -108.97 55.3604 -176.8 144.261 -176.8c98.1104 0 170.181 80.9102 170.181 195.19v310.44h48.9902v-389.04z" />
    <glyph glyph-name="uni044E.ss02" horiz-adv-x="848" 
d="M524.41 550.92c157.31 0 274.78 -120.541 274.78 -281.381c0 -160.93 -117 -280.47 -274.78 -280.47c-150.79 0 -264.59 108.45 -275.06 257.82h-106.14v-248.43h-49v732.93h49v-438.28h106.2c10.8896 149.36 124.939 257.811 274.999 257.811zM524.411 36.6885
c129.11 0 224.851 99.7305 224.851 232.851c0 133.57 -96.7402 233.771 -224.851 233.771c-129.65 0 -225.92 -100.2 -225.92 -233.771c0 -133.12 96.2695 -232.851 225.92 -232.851z" />
    <glyph glyph-name="uni0432.ss03" horiz-adv-x="620" 
d="M441.68 385.09c79.1904 -28.3203 129.189 -101.181 129.189 -185.23c0 -126.39 -102.79 -210.319 -243.79 -210.319c-156.85 0 -246.479 105 -246.479 290.38v182.17c0 182.52 87.8604 283.439 242.25 283.439c131.54 0 225.24 -77.9199 225.24 -193.31
c0 -72.9902 -41.5098 -138.83 -106.41 -167.13zM322.858 697.939c-124.73 0 -194.189 -79.2002 -194.189 -235.84v-55.9004h220.14c88.8398 0 153.52 60.4404 153.52 143.271c0 88.96 -71.5098 148.47 -179.47 148.47zM327.08 37.1699
c117.42 0 194.789 66.4502 194.789 165.95c0 91.9697 -70.1396 156.41 -170.739 156.41h-222.45v-79.5898c0 -158.49 70.29 -242.771 198.4 -242.771z" />
    <glyph glyph-name="uni0433.ss03" horiz-adv-x="513" 
d="M255.85 -5.84961c-126.16 0 -209.94 60.2402 -209.94 152.32c0 117.02 106.46 137.479 201.54 154.479c84.3604 15.6104 159.721 29.7607 159.721 104.041c0 59.6602 -58.4297 99.9502 -148.25 99.9502c-95.4199 0 -151.32 -43.29 -151.32 -120.03h-44.8398
c0 104.24 77.8496 163.48 195.699 163.48c116.62 0 195.4 -58.2402 195.4 -143.4c0 -110.18 -99.2402 -128.64 -192.391 -145.64c-85.3604 -15.1504 -167.021 -30.3809 -167.021 -112.881c0 -64.2695 63.9004 -105.17 161.4 -105.17
c102.57 0 163.471 46.8203 163.471 128.25h47.1504c0 -112.24 -83.2305 -175.4 -210.62 -175.4z" />
    <glyph glyph-name="uni0434.ss03" horiz-adv-x="676" 
d="M546.74 540l34.6611 0.0302734v-461.78c0 -174.54 -97.7803 -280.54 -258.48 -280.54c-124.32 0 -212.33 63.5498 -244.55 170.95h49c29.4502 -80.5898 102.9 -125.649 195.561 -125.649c128.73 0 210.41 85.6602 210.41 229.68v61.7197
c-46.2305 -71.0596 -126.04 -115.779 -221.021 -115.779c-149.46 0 -263.85 114.92 -263.85 265.92c0 150.46 114.92 266.38 263.84 266.38c98.4199 0 181.189 -49.3203 226.579 -125.931zM316.921 65.79c124.89 0 215.939 92.6699 215.939 218.78
c0 126.04 -91.5898 219.24 -215.939 219.24c-124.89 0 -218.55 -94.7402 -218.55 -219.24c0 -124.58 93.6602 -218.78 218.55 -218.78z" />
    <glyph glyph-name="uni0436.ss03" horiz-adv-x="754" 
d="M353.3 0v731.39h47.6104v-731.39h-47.6104zM20.2197 540h59.0195l235.18 -255.39v-8.45996l-255.18 -276.15h-59.0195l256.98 281.47zM496.799 281.75l257.18 -281.75h-59l-255.18 276.15v8.45996l235.18 255.39h59z" />
    <glyph glyph-name="uni0437.ss03" horiz-adv-x="562" 
d="M402.33 193.07c67.5 -27.2803 114.201 -99.0713 114.201 -181.071c0 -126.93 -98.0898 -214.779 -238.33 -214.779c-130.48 0 -228.94 78.0898 -244.7 192.57h49c15.7598 -86.2002 94.3496 -144.95 195.699 -144.95c109.89 0 188.87 68.29 188.87 170.4
c0 82.6797 -62.4502 151.81 -147.44 151.81h-114.74l-0.459961 47.1504h114.13c72.21 0 124.66 65.8096 124.66 139.869c0 88.96 -71.0498 148.79 -171.01 148.79c-92.6602 0 -162.63 -55.1396 -175.47 -137.729h-47.6104c12.3799 110.86 102.16 185.33 223.101 185.33
c128.85 0 220.479 -80.2402 220.479 -193.63c0 -71.4102 -37.0498 -133.92 -90.3799 -163.76z" />
    <glyph glyph-name="uni0438.ss03" horiz-adv-x="641" 
d="M497.71 540l49.002 -0.000976562v-540h-37.9004l-8.91016 108.24c-39.2002 -71.7695 -115.79 -119.17 -204.61 -119.17c-129.62 0 -210.69 93.2402 -210.69 230.15v320.78h49v-310.6c0 -122.59 63.5898 -195.03 172.79 -195.03c104.51 0 191.319 89.4404 191.319 197.5
v308.13z" />
    <glyph glyph-name="uni0439.ss03" horiz-adv-x="641" 
d="M448.94 705.4v-38.3701h-254.33v38.3701h254.33zM497.71 540l49.002 -0.000976562v-540h-37.9004l-8.91016 108.24c-39.2002 -71.7695 -115.79 -119.17 -204.61 -119.17c-129.62 0 -210.69 93.2402 -210.69 230.15v320.78h49v-310.6
c0 -122.59 63.5898 -195.03 172.79 -195.03c104.51 0 191.319 89.4404 191.319 197.5v308.13z" />
    <glyph glyph-name="uni043A.ss03" horiz-adv-x="501" 
d="M94.21 0v731.39h49v-731.39h-49zM239.85 282.18l264.2 -282.18h-60.4805l-258.25 277.07v8.46973l241.03 254.46h57.7002z" />
    <glyph glyph-name="uni043B.ss03" horiz-adv-x="525" 
d="M498.65 0h-50.4609l-184.95 470.6l-188.72 -470.6h-49.54l217.07 540h41.6104z" />
    <glyph glyph-name="uni043F.ss03" horiz-adv-x="641" 
d="M345.64 550.92c129.61 0 210.69 -93.2295 210.69 -230.149v-320.77h-49v310.6c0 122.59 -64.0498 195.02 -172.78 195.02c-104.52 0 -191.329 -89.4297 -191.329 -197.5v-308.12h-49v540h36.5098l9.66992 -109.4c39 72.4102 115.93 120.32 205.239 120.32z" />
    <glyph glyph-name="uni0442.ss03" horiz-adv-x="954" 
d="M684.69 550.92c110.7 0 184.011 -84.9219 184.011 -208.682v-342.24h-48.4697l-0.530273 328.82c0 107.9 -55.9004 176.801 -143.801 176.801c-98.1201 0 -169.64 -80.9102 -170.18 -195.18v-310.44h-48.0703v328.82c0 108.98 -55.3604 176.801 -144.271 176.801
c-98.1104 0 -169.63 -80.9102 -170.17 -195.18v-310.44h-49v540h36.9805l8.38965 -95.5801c37.0703 66.29 104.16 106.5 183.521 106.5c82.75 0 144.51 -47.9902 169.91 -124.44c34.3096 76.9102 105.739 124.44 191.68 124.44z" />
    <glyph glyph-name="uni0446.ss03" horiz-adv-x="666" 
d="M546.71 150.96c0 -80.2197 32.0811 -116.301 103.911 -116.301v-183.65h-45.7598v152.17c-61.3203 6.19043 -90.9404 42.4902 -99.0801 111.98c-38.9004 -73.3604 -118.41 -126.091 -210.49 -126.091c-129.62 0 -210.69 92.7803 -210.69 229.69v321.24h49v-310.14
c0 -123.05 64.0498 -195.49 172.79 -195.49c104.51 0 191.319 89.9004 191.319 197.971v307.66h49v-389.04z" />
    <glyph glyph-name="uni0448.ss03" horiz-adv-x="953" 
d="M809.62 540h48.998v-540h-37.9004l-7.65039 94.4297c-37.2002 -65.6104 -103.97 -105.36 -182.87 -105.36c-82.75 0 -144.52 48 -169.92 124.44c-34.3096 -76.9102 -105.729 -124.44 -191.67 -124.44c-110.7 0 -184.01 84.9297 -184.01 208.689v342.24h48.46
l0.540039 -328.83c0.530273 -107.9 55.9004 -176.801 143.801 -176.801c98.1104 0 169.641 80.9102 170.171 195.19v310.44h48.0801v-328.83c0 -108.97 55.3604 -176.8 144.261 -176.8c97.6504 0 169.17 80.9102 169.71 195.19v310.44z" />
    <glyph glyph-name="uni0449.ss03" horiz-adv-x="979" 
d="M859.08 150.96c0 -81.1504 33.0068 -116.3 103.447 -116.3v-183.65h-45.2998v152.16c-56.0303 5.88965 -88.8604 36.8994 -99.4707 97.0195c-36.1201 -68.9697 -105.4 -111.12 -187.561 -111.12c-82.75 0 -144.52 48 -169.92 124.44
c-34.3096 -76.9102 -105.729 -124.44 -191.67 -124.44c-110.7 0 -184.01 84.9297 -184.01 208.689v342.24h48.46l0.540039 -328.83c0.530273 -107.9 55.9004 -176.801 143.801 -176.801c98.1104 0 169.641 80.9102 170.171 195.19v310.44h48.0801v-328.83
c0 -108.97 55.3604 -176.8 144.261 -176.8c98.1104 0 170.181 80.9102 170.181 195.19v310.44h48.9902v-389.04z" />
    <glyph glyph-name="uni044E.ss03" horiz-adv-x="848" 
d="M524.41 550.92c157.31 0 274.78 -120.541 274.78 -281.381c0 -160.93 -117 -280.47 -274.78 -280.47c-150.79 0 -264.59 108.45 -275.06 257.82h-106.14v-248.43h-49v732.93h49v-438.28h106.2c10.8896 149.36 124.939 257.811 274.999 257.811zM524.411 36.6885
c129.11 0 224.851 99.7305 224.851 232.851c0 133.57 -96.7402 233.771 -224.851 233.771c-129.65 0 -225.92 -100.2 -225.92 -233.771c0 -133.12 96.2695 -232.851 225.92 -232.851z" />
    <glyph glyph-name="uni0436.ss04" horiz-adv-x="754" 
d="M20.2197 540h59.0195l235.18 -255.39v-8.45996l-255.18 -276.15h-59.0195l256.98 281.47zM353.299 0v540h47.6104v-540h-47.6104zM496.799 281.75l257.18 -281.75h-59l-255.18 276.15v8.45996l235.18 255.39h59z" />
    <glyph glyph-name="uni043A.ss04" horiz-adv-x="501" 
d="M94.21 0v540h49v-540h-49zM239.85 282.18l264.2 -282.18h-60.4805l-258.25 277.07v8.46973l241.03 254.46h57.7002z" />
    <glyph glyph-name="Alpha" unicode="&#x391;" horiz-adv-x="686" 
d="M608.48 0l-81.9297 191.49h-369.76l-80.6396 -191.49h-53.7002l293.6 700h45.46l301.6 -700h-54.6299zM339.561 629.2l-163.4 -391.03h330.74z" />
    <glyph glyph-name="Beta" unicode="&#x392;" horiz-adv-x="644" 
d="M459.21 367.02c72.3203 -24.1797 122.271 -94.0615 122.271 -176.172c0 -106.31 -84.9404 -190.85 -207.091 -190.85h-270.71v700h268.86c111.77 0 188.779 -75.3896 188.779 -172.479c0 -69.6396 -41.6699 -134.239 -102.11 -160.499zM376.53 650.527
l-222.931 -0.0107422v-259.66h226.69c73.4404 0 129.73 60.6602 129.73 130.641c0 72.5898 -58.9004 129.03 -133.49 129.03zM378.84 49.9062c85.2695 0 150.859 63.2109 150.859 146.021c0 81.2695 -65.0498 145.47 -148.17 145.47h-227.93v-291.49h225.24z" />
    <glyph glyph-name="Gamma" unicode="&#x393;" horiz-adv-x="488" 
d="M466.62 700l-0.000976562 -47.6104h-312.56v-652.39h-50.3896v700h362.95z" />
    <glyph glyph-name="uni0394" unicode="&#x394;" horiz-adv-x="683" 
d="M360.58 700l302.311 -700h-638.44l291.3 700h44.8301zM338.501 627.54l-238.449 -579.93h484.18z" />
    <glyph glyph-name="Epsilon" unicode="&#x395;" horiz-adv-x="545" 
d="M154.06 48.5303l343.49 0.000976562v-48.5303h-393.88v700h382.88v-48.0801h-332.49v-264.51h306.49v-47.1504h-306.49v-291.73z" />
    <glyph glyph-name="Zeta" unicode="&#x396;" horiz-adv-x="546" 
d="M104.59 47.6104l420.43 0.000976562v-47.6104h-500.1v10.6201l405.09 641.77h-390.16v47.6104h470.34v-10.4805z" />
    <glyph glyph-name="Eta" unicode="&#x397;" horiz-adv-x="728" 
d="M574.4 700h50.3799v-700h-50.3799v339.26h-420.34v-339.26h-50.3896v700h50.3896v-312.2h420.34v312.2z" />
    <glyph glyph-name="Theta" unicode="&#x398;" horiz-adv-x="831" 
d="M415.61 -10.9297c-209.54 0 -362.7 155 -362.7 359.93c0 205.92 153.16 361.92 362.7 361.92c210 0 362.7 -155 362.7 -361.92c0 -205.93 -152.7 -359.93 -362.7 -359.93zM415.61 38.54c179.87 0 311.39 133.27 311.39 310.92c0 178.19 -131.52 312 -311.39 312
s-311.39 -134.81 -311.39 -312c0 -177.11 127.35 -310.92 311.39 -310.92zM193.67 325.96v49h439.8v-49h-439.8z" />
    <glyph glyph-name="Iota" unicode="&#x399;" horiz-adv-x="258" 
d="M103.67 0v700h50.3896v-700h-50.3896z" />
    <glyph glyph-name="Kappa" unicode="&#x39a;" horiz-adv-x="614" 
d="M547.02 0l-281.72 339.57h-111.24v-339.57h-50.3896v700h50.3896v-312.81h111.09l257.18 312.81h64.5703l-276.5 -335.8l301.65 -364.2h-65.0303z" />
    <glyph glyph-name="Lambda" unicode="&#x39b;" horiz-adv-x="657" 
d="M633.04 0h-54.6299l-250.47 624.7l-248.18 -624.7h-53.2402l278.38 700h45.46z" />
    <glyph glyph-name="Mu" unicode="&#x39c;" horiz-adv-x="947" 
d="M897.26 0h-51.2998l-105.24 608.17l-259.46 -580.88h-15.8701l-258.99 580.16l-106.17 -607.45h-51.3096l121.84 700h46.8496l255 -577.67l256.5 577.67h47.7803z" />
    <glyph glyph-name="Nu" unicode="&#x39d;" horiz-adv-x="746" 
d="M593.1 700h49.459v-700h-42.9102l-446.52 611.16v-611.16h-49.46v700h45.6904l443.74 -608.24v608.24z" />
    <glyph glyph-name="Xi" unicode="&#x39e;" horiz-adv-x="552" 
d="M54.3096 650.54v49.46h444.09v-49.46h-444.09zM93.3096 340.26v48.54h366.09v-48.54h-366.09zM46.3096 -0v49.9199h459.09v-49.9199h-459.09z" />
    <glyph glyph-name="Omicron" unicode="&#x39f;" horiz-adv-x="831" 
d="M415.61 -10.9297c-210.93 0 -362.71 154.99 -362.71 360.38c0 205.93 151.78 361.47 362.71 361.47s362.699 -155 362.699 -361.46c0 -205.93 -151.77 -360.39 -362.699 -360.39zM415.61 38.5205c180.8 0 311.39 133.27 311.39 310.92c0 178.19 -130.59 312 -311.39 312
s-311.39 -134.81 -311.39 -312c0 -176.65 130.59 -310.92 311.39 -310.92z" />
    <glyph glyph-name="Pi" unicode="&#x3a0;" horiz-adv-x="697" 
d="M103.67 700h489.279v-700h-50.8496v652.39h-388.04v-652.39h-50.3896v700z" />
    <glyph glyph-name="Rho" unicode="&#x3a1;" horiz-adv-x="602" 
d="M344.31 700c127.09 0 223.79 -91.7002 223.79 -214.71c0 -123.09 -95.7002 -215.25 -223.79 -215.25h-190.25v-270.04h-50.3896v700h240.64zM342 319.04c100.73 0 174.79 70.9688 174.79 166.249c0 94.7305 -74.0596 165.711 -174.79 165.711h-187.94v-331.96h187.94z
" />
    <glyph glyph-name="Sigma" unicode="&#x3a3;" horiz-adv-x="552" 
d="M110.93 47.6104l409.771 0.000976562v-47.6104h-495.4v16.1602l250.91 338.8l-244.91 328.88v16.1602h480.4v-47.6104h-394.73l217.95 -292v-11.2402z" />
    <glyph glyph-name="Tau" unicode="&#x3a4;" horiz-adv-x="540" 
d="M518.65 700v-47.6104h-223.36v-652.39h-50.3896v652.39h-223.36v47.6104h497.11z" />
    <glyph glyph-name="Upsilon" unicode="&#x3a5;" horiz-adv-x="645" 
d="M614.5 700l-266.141 -422.73v-277.27h-51.7803v276.9l-263.6 423.1h55.6299l234.23 -374.82l236.03 374.82h55.6299z" />
    <glyph glyph-name="Phi" unicode="&#x3a6;" horiz-adv-x="857" 
d="M803.42 349.92c0 -196.26 -140.54 -355.239 -349.98 -360.259v-106.59h-49.4697v106.6c-208.8 5.28027 -351.06 164.65 -351.06 359.33c0 195.66 142.26 356.01 351.06 361.319v96.2197h49.4697v-96.2002c209.44 -5.03027 349.98 -164.08 349.98 -360.42z
M453.439 38.2207c175.81 5.08984 298.67 141.04 298.67 311.24c0 170.27 -122.86 306.739 -298.67 311.85v-623.09zM104.22 349.461c0 -169.53 123.62 -305.9 299.75 -311.23v623.07c-175.63 -5.36035 -299.75 -142.24 -299.75 -311.84z" />
    <glyph glyph-name="Chi" unicode="&#x3a7;" horiz-adv-x="586" 
d="M575.04 0h-57.5586l-224.33 326.19l-223.91 -326.19h-58.0195l250.63 366.14l-229.94 333.86h57.5498l203.89 -296.04l203.52 296.04h57.5498l-229.78 -335.53z" />
    <glyph glyph-name="Psi" unicode="&#x3a8;" horiz-adv-x="786" 
d="M683.48 699.46h50.3896v-225.34c0 -176.52 -120.07 -296.21 -296.91 -296.21h-18.0596v-177.91h-50.8496v177.91h-18.0596c-176.84 0 -296.92 119.69 -296.92 296.21v225.34h50.3896v-220.25c0 -151.02 97.96 -249.52 246.99 -249.52h18.5195v470.31h49v-470.31h18.5303
c149.02 0 246.979 98.5 246.979 249.52v220.25z" />
    <glyph glyph-name="uni03A9" unicode="&#x3a9;" horiz-adv-x="852" 
d="M608.1 47.6104h184.073v-47.6104h-304.94v46.6904c148.97 35.7695 249.779 162.05 249.779 311.62c0 170.8 -135.74 303.149 -310.931 303.149c-174.72 0 -310.46 -132.35 -310.46 -303.149c0 -149.57 100.28 -275.851 248.24 -311.62v-46.6904h-304.94v47.6104h184.76
c-109.21 64.6602 -179.37 177.2 -179.37 313.94c0 197.22 157.85 349.37 361.77 349.37c203.39 0 362.239 -152.15 362.239 -349.37c0 -136.74 -70.4199 -249.28 -180.22 -313.94z" />
    <glyph glyph-name="Alphatonos" unicode="&#x386;" horiz-adv-x="686" 
d="M608.48 0l-81.9297 191.49h-369.76l-80.6396 -191.49h-53.7002l293.6 700h45.46l301.6 -700h-54.6299zM95.4707 558l81.8301 142h53.3096l-94.3096 -142h-40.8301zM339.561 629.2l-163.4 -391.03h330.74z" />
    <glyph glyph-name="Epsilontonos" unicode="&#x388;" horiz-adv-x="545" 
d="M-76.29 558l81.8203 142h53.3203l-94.3203 -142h-40.8203zM154.061 48.5303l343.49 0.000976562v-48.5303h-393.88v700h382.88v-48.0801h-332.49v-264.51h306.49v-47.1504h-306.49v-291.73z" />
    <glyph glyph-name="Etatonos" unicode="&#x389;" horiz-adv-x="728" 
d="M-76.8301 558l81.8301 142h53.3096l-94.3096 -142h-40.8301zM574.4 700h50.3799v-700h-50.3799v339.26h-420.34v-339.26h-50.3896v700h50.3896v-312.2h420.34v312.2z" />
    <glyph glyph-name="Iotatonos" unicode="&#x38a;" horiz-adv-x="258" 
d="M-77.75 558l81.8203 142h53.3096l-94.3096 -142h-40.8203zM103.67 0v700h50.3896v-700h-50.3896z" />
    <glyph glyph-name="Omicrontonos" unicode="&#x38c;" horiz-adv-x="831" 
d="M415.61 -10.9297c-210.93 0 -362.71 154.99 -362.71 360.38c0 205.93 151.78 361.47 362.71 361.47s362.699 -155 362.699 -361.46c0 -205.93 -151.77 -360.39 -362.699 -360.39zM-22.2695 557.99l81.8301 142h53.3096l-94.3096 -142h-40.8301zM415.61 38.5303
c180.8 0 311.39 133.27 311.39 310.92c0 178.19 -130.59 312 -311.39 312s-311.39 -134.81 -311.39 -312c0 -176.65 130.59 -310.92 311.39 -310.92z" />
    <glyph glyph-name="Upsilontonos" unicode="&#x38e;" horiz-adv-x="645" 
d="M558.87 700h55.6299l-266.14 -422.73v-277.27h-51.7803v276.9l-263.15 422.38l-93.8301 -141.28h-40.8301l81.8301 142h108.01l234.23 -374.82z" />
    <glyph glyph-name="Omegatonos" unicode="&#x38f;" horiz-adv-x="852" 
d="M608.1 47.6104h184.073v-47.6104h-304.94v46.6904c148.97 35.7695 249.779 162.05 249.779 311.62c0 170.8 -135.74 303.149 -310.931 303.149c-174.72 0 -310.46 -132.35 -310.46 -303.149c0 -149.57 100.28 -275.851 248.24 -311.62v-46.6904h-304.94v47.6104h184.76
c-109.21 64.6602 -179.37 177.2 -179.37 313.94c0 197.22 157.85 349.37 361.77 349.37c203.39 0 362.239 -152.15 362.239 -349.37c0 -136.74 -70.4199 -249.28 -180.22 -313.94zM68.1133 700h53.3096l-94.3096 -142h-40.8301z" />
    <glyph glyph-name="Iotadieresis" unicode="&#x3aa;" horiz-adv-x="258" 
d="M28.2197 808.72v69.1396h59.5996v-69.1396h-59.5996zM169.84 808.72v69.1396h59.5898v-69.1396h-59.5898zM103.67 -0.000976562v700h50.3896v-700h-50.3896z" />
    <glyph glyph-name="Upsilondieresis" unicode="&#x3ab;" horiz-adv-x="645" 
d="M187.81 808.73v69.1396h64.2197v-69.1396h-64.2197zM395.52 808.73v69.1396h64.2305v-69.1396h-64.2305zM614.5 700.01l-266.131 -422.73v-277.27h-51.7803v276.9l-263.6 423.1h55.6201l234.23 -374.82l236.03 374.82h55.6299z" />
    <glyph glyph-name="alpha" unicode="&#x3b1;" horiz-adv-x="701" 
d="M566.73 540l40.2207 0.00195312v-540h-41.5996l-5.75 117.18c-47.1104 -78.1504 -131.49 -128.11 -234.9 -128.11c-157.85 0 -276.779 121 -276.779 280.93c0 160.39 118.93 280.93 276.779 280.93c103.67 0 188.22 -50.0303 235.26 -128.511zM327.941 36.6924
c132.5 0 229.09 98.6699 229.09 233.32s-96.5898 233.311 -229.09 233.311c-131.42 0 -230.08 -100.74 -230.08 -233.32c0 -133.11 98.6602 -233.311 230.08 -233.311z" />
    <glyph glyph-name="beta" unicode="&#x3b2;" horiz-adv-x="622" 
d="M445.28 383.87c79.0801 -24.6396 127.271 -91.0088 127.271 -183.559c0 -123.61 -98.8604 -211.24 -238.181 -211.24c-77.2998 0 -141.74 24.2002 -191.7 71.7803v-246.69h-49v644.85c0 182.38 84.1699 283.3 237.63 283.3c129.24 0 218.931 -78.7803 218.931 -192.7
c0 -78.5996 -40.4199 -140.21 -104.95 -165.74zM330.21 36.6914c118.51 0 194.73 65.9697 194.73 167.319c0 92.2803 -66.5303 154.41 -165.19 154.41h-121.19v44.8398h119.8c86.4404 0 147.04 57.21 147.04 140.34c0 91.6602 -69.8301 153.41 -173.18 153.41
c-123.8 0 -189.55 -82.9004 -189.55 -238v-342.27c45.46 -53.9199 110.16 -80.0498 187.54 -80.0498z" />
    <glyph glyph-name="gamma" unicode="&#x3b3;" horiz-adv-x="561" 
d="M537.87 540l-229.141 -512.74v-217.26h-48.0703v216.87l-238.14 513.13h52.3203l209.36 -451.81l201.36 451.81h52.3096z" />
    <glyph glyph-name="delta" unicode="&#x3b4;" horiz-adv-x="608" 
d="M172.61 660.71c201.9 -82.1104 387.56 -236.109 387.56 -420.55c0 -139 -106.61 -251.09 -256.4 -251.09c-146.55 0 -256.859 107.85 -256.859 251.55c0 139.54 110.24 248.32 247.15 248.32c45.7197 0 84.3701 -11.0303 117.04 -30.7998
c-77.4697 79.5195 -197.85 151.989 -341.26 200.879v46.5303h460.93v-44.8398h-358.16zM303.77 34.8408c119.74 0 208.79 89.04 208.79 205.78c0 118.28 -90.0498 206.25 -208.79 206.25c-120.81 0 -208.319 -89.0498 -208.319 -206.25
c0 -116.74 88.0498 -205.78 208.319 -205.78z" />
    <glyph glyph-name="epsilon" unicode="&#x3b5;" horiz-adv-x="481" 
d="M402.56 130.88l46.6924 -0.0078125c-14.9199 -85.9404 -91.6201 -141.811 -193.72 -141.811c-116.54 0 -199.78 67.8496 -199.78 163.09c0 62.9404 34.8896 112.851 89.25 134.471c-47.7305 20.8896 -77.4004 63.0996 -77.4004 117.52
c0 84.3096 78.7695 146.77 183.859 146.77c96.1699 0 169.8 -53 183.17 -132.79h-45.7598c-13.3701 55.6797 -66.2002 91.6699 -136.021 91.6699c-80.1299 0 -138.1 -45.4404 -138.1 -108.421c0 -55.6699 43.5195 -97.4199 108.81 -97.4199h92.0498v-38.3701h-92.5898
c-70.21 0 -118.74 -49.9697 -118.74 -110.64c0 -70.6699 62.9805 -120.57 151.25 -120.57c76.7598 0 133.51 38.4502 147.029 96.5098z" />
    <glyph glyph-name="zeta" unicode="&#x3b6;" horiz-adv-x="498" 
d="M493.25 700.89c-262.28 -208.51 -396.49 -338.681 -396.49 -473.421c0 -210.6 375.26 -144.939 375.26 -331.22c0 -23.1699 -5 -59.0098 -13.3896 -87.6396h-47.6104c7.38965 23.7002 12.46 58.9199 12.46 77.9199c0 151.09 -376.65 90.8203 -376.65 335.391
c0 142.6 114.19 262.71 355.061 461.85h-327.05v47.6201h418.41v-30.5z" />
    <glyph glyph-name="eta" unicode="&#x3b7;" horiz-adv-x="641" 
d="M345.64 550.92c129.61 0 210.68 -89.0693 210.68 -230.149v-512.16h-49v501.99c0 122.59 -64.0498 195.02 -172.78 195.02c-104.52 0 -191.329 -89.4297 -191.329 -197.5v-308.12h-49v540h36.5098l10.0703 -108.67c39.1299 72 115.84 119.59 204.85 119.59z" />
    <glyph glyph-name="theta" unicode="&#x3b8;" horiz-adv-x="694" 
d="M346.92 739.07c181.55 0 288.33 -160 288.33 -375s-106.78 -375 -288.33 -375c-183.08 0 -287.86 161 -287.86 375s104.78 375 287.86 375zM346.92 691.46c-140.93 0 -231.4 -118.21 -238.42 -303.81h477.3c-7.08984 185.6 -98.46 303.81 -238.88 303.81z
M346.919 36.6904c139.67 0 231.99 119.41 238.91 304.73h-477.36c6.83008 -185.79 98.1904 -304.73 238.45 -304.73z" />
    <glyph glyph-name="iota" unicode="&#x3b9;" horiz-adv-x="337" 
d="M258.62 -3c-107.4 0 -171.951 63.6191 -171.951 170.1v372.9h49v-368.74c0 -80.9805 47.5303 -128.04 129.431 -128.04h60.3701v-46.2197h-66.8496z" />
    <glyph glyph-name="kappa" unicode="&#x3ba;" horiz-adv-x="517" 
d="M452.65 0l-215.512 258.88h-93.9297v-258.88h-49v540h49v-235.35h94.75l196.61 235.35h60.4004l-215.43 -258.5l234.9 -281.5h-61.79z" />
    <glyph glyph-name="lambda" unicode="&#x3bb;" horiz-adv-x="559" 
d="M528.11 0l-53.2393 0.000976562l-187.71 455.62l-218.16 -455.62h-53.7002l246.74 515.13l-23.3701 54.1797c-29.9199 72.3096 -57.1504 95.3896 -114.681 95.3896h-28.3203v46.2197h32.9404c76.8799 0 116.42 -34.4004 155.75 -128.28z" />
    <glyph glyph-name="uni03BC" unicode="&#x3bc;" horiz-adv-x="645" 
d="M501.33 540h49v-540h-35.1201l-9.7002 116.4c-36.5195 -73.0801 -117.05 -126.87 -200.6 -126.87c-73.2002 0 -134.05 29.1602 -162.62 82.6299v-263.55h-48.0801v731.39h49v-317.37c0 -117.58 61.5098 -185.48 166.33 -185.48c103.36 0 191.79 88.5098 191.79 192.41
v310.44z" />
    <glyph glyph-name="nu" unicode="&#x3bd;" horiz-adv-x="567" 
d="M492.1 540h50.4609l-236.21 -540h-43.1504l-241.68 540h51.3896l211.76 -473.96z" />
    <glyph glyph-name="xi" unicode="&#x3be;" horiz-adv-x="512" 
d="M298.25 29.1504c82.0801 -25.1602 163.021 -50.7891 163.021 -132.369c0 -22.2305 -5.45996 -60.6201 -13.8496 -88.1699h-49.46c6.91992 21.3896 12.46 58.0801 12.46 78.9199c0 50.8398 -49.7305 72.0801 -138.761 99.0898
c-126.13 39.25 -220.21 85.3496 -220.21 218.76c0 88.5596 49.6504 160.369 123.971 185.859c-64.6201 23.4404 -107.66 83.6807 -107.66 158.131c0 110.32 89.5498 188.551 215.1 188.551c115.33 0 204.561 -72.6201 218.471 -178.63h-48.5303
c-14.9102 80.04 -82.8906 134.26 -169.94 134.26c-96.8096 0 -164.25 -59.3604 -164.25 -145.57c0 -77.9004 58.5996 -135.11 136.35 -135.11h115.04v-44.3701h-115.5c-86.1396 0 -150.81 -68.4404 -150.81 -158.95c0 -120.71 100.81 -150.86 194.56 -180.4z" />
    <glyph glyph-name="omicron" unicode="&#x3bf;" horiz-adv-x="661" 
d="M330.61 -10.9297c-161.31 0 -282.699 120 -282.699 280.93c0 161.92 121.39 280.92 282.699 280.92c161.85 0 282.699 -120 282.699 -280.92c0 -160.93 -120.85 -280.93 -282.699 -280.93zM330.61 36.6807c134.04 0 232.78 99.2803 232.78 233.32
s-98.7402 233.31 -232.78 233.31s-232.78 -98.7402 -232.78 -233.32c0 -134.04 99.2803 -233.31 232.78 -233.31z" />
    <glyph glyph-name="pi" unicode="&#x3c0;" horiz-adv-x="630" 
d="M94.21 540h441.58v-540h-48.54v494.7h-344.04v-494.7h-49v540z" />
    <glyph glyph-name="rho" unicode="&#x3c1;" horiz-adv-x="676" 
d="M353.15 550.46c156.77 0 273.619 -121.001 273.619 -280.461c0 -160 -116.85 -280.93 -272.229 -280.93c-98.4199 0 -188.34 54.6504 -227.09 133.37v-313.83h-49.9297v458.15c0 163.7 116 283.7 275.63 283.7zM352.69 36.6895c130.42 0 225.08 99.2695 225.08 233.31
c0 133.57 -95.2002 232.851 -225.08 232.851c-130.97 0 -226.17 -99.2803 -226.17 -232.851c0 -134.04 95.6699 -233.31 226.17 -233.31z" />
    <glyph glyph-name="uni03C2" unicode="&#x3c2;" horiz-adv-x="602" 
d="M474.02 -191.39c6.92969 23.7002 12.4629 59.9189 12.4629 78.9189c0 71.7695 -75.4404 91.2295 -163.36 114.229c-123.91 33 -274.21 73.46 -274.21 283.61c0 151.78 119.39 265.09 278.779 265.09c120.39 0 220.02 -68.4697 256.01 -178.8h-49.0801
c-37.2998 83.4404 -114.74 130.73 -207.4 130.73c-130.65 0 -228.381 -92.0596 -228.381 -217.02c0 -174.78 128.81 -208.55 247.17 -240.16c95.7803 -25.3096 188.55 -49.0898 188.55 -148.43c0 -22.2305 -5.45996 -60.6201 -13.3896 -88.1699h-47.1504z" />
    <glyph glyph-name="sigma" unicode="&#x3c3;" horiz-adv-x="691" 
d="M672.76 540.46v-45.2998h-207.21c84.6299 -40.5098 139.68 -127.42 139.68 -230.16c0 -158.93 -116.92 -275.93 -277.689 -275.93c-160.24 0 -279.09 117.93 -279.09 275.93c0 158.54 118.85 275.46 280.47 275.46h343.84zM556.229 265.46
c0 131.11 -96.1904 227.391 -229.16 227.391c-132.96 0 -229.16 -95.7402 -229.16 -227.391c0 -132.5 96.2002 -228.77 229.16 -228.77c132.97 0 229.16 96.2695 229.16 228.77z" />
    <glyph glyph-name="tau" unicode="&#x3c4;" horiz-adv-x="479" 
d="M442.23 495.16h-193.722v-323.9c0 -80.9805 47.5303 -128.04 129.431 -128.04h60.3701v-46.2197h-66.8496c-107.4 0 -171.95 63.6201 -171.95 170.101v328.06h-184.51v44.8398h427.23v-44.8398z" />
    <glyph glyph-name="upsilon" unicode="&#x3c5;" horiz-adv-x="631" 
d="M315.46 -10.9297c-141.16 0 -231.319 93.3896 -231.319 237.85v313.08h49v-306.14c0 -121.81 69.9102 -197.17 182.33 -197.17c112.89 0 182.319 75.8203 182.319 197.17v306.14h49v-313.08c0 -144.46 -89.71 -237.85 -231.33 -237.85z" />
    <glyph glyph-name="phi" unicode="&#x3c6;" horiz-adv-x="722" 
d="M674.27 267.07c0 -160.27 -118.209 -274.42 -288.449 -277.47v-180.99h-48.0703v180.97c-166.62 2.61035 -289.84 121.25 -289.84 277.49c0 123.47 76 226.47 197.46 266.93l14.1797 -41.9902c-101.67 -35.7598 -163.1 -120.35 -163.1 -224.939
c0 -130.36 102.05 -227.33 241.3 -229.87v502.8h41.0596c174.92 0 295.46 -110.93 295.46 -272.93zM385.79 37.2207c141.02 3 239.939 97.2998 239.939 229.85c0 131.78 -98.3096 223.19 -240.829 225.721v-399.79z" />
    <glyph glyph-name="chi" unicode="&#x3c7;" horiz-adv-x="495" 
d="M484.66 0h-55.7021l-181.59 249.8l-181.84 -249.8h-54.7695l206.91 282.46l-187.69 257.54h55.71l162.11 -223.02l163.32 223.02h54.7803l-188.68 -255.87z" />
    <glyph glyph-name="psi" unicode="&#x3c8;" horiz-adv-x="774" 
d="M644.5 540h49v-279.54c0 -156.46 -109 -270.93 -260 -270.93h-21.0596v-180.92h-51.7803v180.92h-20.5996c-151 0 -260 115.47 -260 270.93v279.54h49v-277.69c0 -126.8 90.6602 -221.92 212.851 -221.92h20.5996v498.61h48.54v-498.61h21.0596
c122.26 0 212.39 94.1201 212.39 221.92v277.69z" />
    <glyph glyph-name="omega" unicode="&#x3c9;" horiz-adv-x="892" 
d="M772.37 540c38.4697 -89.9297 59.46 -187.538 59.46 -275.618c0 -159.24 -67.8604 -274.311 -197.92 -274.311c-91.9297 0 -164.51 50.6797 -188 125.31c-23.9004 -74.6299 -96.8008 -125.31 -188.311 -125.31c-130.6 0 -197.46 113.6 -197.46 273.31
c0 88.0801 20.5303 184.771 59 276.62h51.8496c-39.3896 -87.1504 -61.8496 -186.841 -61.8496 -271.991c0 -145.04 58.2803 -230.79 156.78 -230.79c88.9805 0 156.95 67.9902 156.95 156.98v185.22h45.7598v-185.22c0 -88.9902 67.9805 -156.98 156.49 -156.98
c98.4297 0 156.79 86.3701 156.79 231.79c0 85.1504 -22.46 185.37 -60.9297 270.99h51.3896z" />
    <glyph glyph-name="iotatonos" unicode="&#x3af;" horiz-adv-x="337" 
d="M84.2998 605.15l74.6006 152h52.8496l-86.6299 -152h-40.8203zM258.62 -3c-107.4 0 -171.951 63.6191 -171.951 170.1v372.9h49v-368.74c0 -80.9805 47.5303 -128.04 129.431 -128.04h60.3701v-46.2197h-66.8496z" />
    <glyph glyph-name="iotadieresis" unicode="&#x3ca;" horiz-adv-x="337" 
d="M-8.65039 651.5v69.1396h64.2305v-69.1396h-64.2305zM168.159 651.5v69.1396h64.2197v-69.1396h-64.2197zM258.619 -3c-107.4 0 -171.95 63.6191 -171.95 170.1v372.9h49v-368.74c0 -80.9697 47.5195 -128.029 129.42 -128.029h60.3799v-46.2305h-66.8496z" />
    <glyph glyph-name="iotadieresistonos" unicode="&#x390;" horiz-adv-x="337" 
d="M89.46 605.69l39.2305 152h43.9102l-48.9404 -152h-34.2002zM-5.40918 655.66v60.8096h53.5801v-60.8096h-53.5801zM215.421 655.66v60.8096h53.5898v-60.8096h-53.5898zM258.621 -3c-107.4 0 -171.951 63.6191 -171.951 170.1v372.9h49v-368.74
c0 -80.9805 47.5303 -128.04 129.431 -128.04h60.3701v-46.2197h-66.8496z" />
    <glyph glyph-name="upsilontonos" unicode="&#x3cd;" horiz-adv-x="631" 
d="M287.66 605.15l74.6006 152h52.8496l-86.6299 -152h-40.8203zM315.461 -10.9297c-141.16 0 -231.319 93.3896 -231.319 237.85v313.08h49v-306.14c0 -121.81 69.9102 -197.17 182.33 -197.17c112.89 0 182.319 75.8203 182.319 197.17v306.14h49v-313.08
c0 -144.46 -89.71 -237.85 -231.33 -237.85z" />
    <glyph glyph-name="upsilondieresis" unicode="&#x3cb;" horiz-adv-x="631" 
d="M194.71 651.5v69.1396h64.2197v-69.1396h-64.2197zM371.52 651.5v69.1396h64.2305v-69.1396h-64.2305zM315.46 -10.9199c-141.16 0 -231.32 93.3701 -231.32 237.83v313.08h49v-306.14c0 -121.81 69.9004 -197.17 182.32 -197.17c112.89 0 182.33 75.8301 182.33 197.18
v306.14h49v-313.07c0 -144.46 -89.7002 -237.85 -231.33 -237.85z" />
    <glyph glyph-name="upsilondieresistonos" unicode="&#x3b0;" horiz-adv-x="631" 
d="M266.75 605.69l55.0605 152h47.7598l-62.9199 -152h-39.9004zM173.101 655.12v60.8203h53.5898v-60.8203h-53.5898zM413.4 655.12v60.8203h53.5898v-60.8203h-53.5898zM315.46 -10.9297c-141.16 0 -231.319 93.3896 -231.319 237.85v313.08h49v-306.14
c0 -121.81 69.9102 -197.17 182.33 -197.17c112.89 0 182.319 75.8203 182.319 197.17v306.14h49v-313.08c0 -144.46 -89.71 -237.85 -231.33 -237.85z" />
    <glyph glyph-name="omicrontonos" unicode="&#x3cc;" horiz-adv-x="661" 
d="M302.81 605.15l74.6006 152h52.8496l-86.6299 -152h-40.8203zM330.61 -10.9297c-161.31 0 -282.699 120 -282.699 280.93c0 161.92 121.39 280.92 282.699 280.92c161.85 0 282.699 -120 282.699 -280.92c0 -160.93 -120.85 -280.93 -282.699 -280.93zM330.61 36.6807
c134.04 0 232.78 99.2803 232.78 233.32s-98.7402 233.31 -232.78 233.31s-232.78 -98.7402 -232.78 -233.32c0 -134.04 99.2803 -233.31 232.78 -233.31z" />
    <glyph glyph-name="omegatonos" unicode="&#x3ce;" horiz-adv-x="892" 
d="M542.02 757.15l-86.6191 -152h-40.8301l74.5996 152h52.8496zM772.37 540c38.4697 -89.9297 59.46 -187.538 59.46 -275.618c0 -159.24 -67.8604 -274.311 -197.92 -274.311c-91.9297 0 -164.51 50.6797 -188 125.31
c-23.9004 -74.6299 -96.8008 -125.31 -188.311 -125.31c-130.6 0 -197.46 113.6 -197.46 273.31c0 88.0801 20.5303 184.771 59 276.62h51.8496c-39.3896 -87.1504 -61.8496 -186.841 -61.8496 -271.991c0 -145.04 58.2803 -230.79 156.78 -230.79
c88.9805 0 156.95 67.9902 156.95 156.98v185.22h45.7598v-185.22c0 -88.9902 67.9805 -156.98 156.49 -156.98c98.4297 0 156.79 86.3701 156.79 231.79c0 85.1504 -22.46 185.37 -60.9297 270.99h51.3896z" />
    <glyph glyph-name="alphatonos" unicode="&#x3ac;" horiz-adv-x="701" 
d="M433.81 757.15l-86.6289 -152h-40.8203l74.5996 152h52.8496zM566.721 540l40.2207 0.00195312v-540h-41.5996l-5.75 117.18c-47.1104 -78.1504 -131.49 -128.11 -234.9 -128.11c-157.85 0 -276.779 121 -276.779 280.93c0 160.39 118.93 280.93 276.779 280.93
c103.67 0 188.22 -50.0303 235.26 -128.511zM327.932 36.6924c132.5 0 229.09 98.6699 229.09 233.32s-96.5898 233.311 -229.09 233.311c-131.42 0 -230.08 -100.74 -230.08 -233.32c0 -133.11 98.6602 -233.311 230.08 -233.311z" />
    <glyph glyph-name="epsilontonos" unicode="&#x3ad;" horiz-adv-x="481" 
d="M334.29 757.15l-86.6289 -152h-40.8203l74.5996 152h52.8496zM402.562 130.881l46.6924 -0.0078125c-14.9199 -85.9404 -91.6201 -141.811 -193.72 -141.811c-116.54 0 -199.78 67.8496 -199.78 163.09c0 62.9404 34.8896 112.851 89.25 134.471
c-47.7305 20.8896 -77.4004 63.0996 -77.4004 117.52c0 84.3096 78.7695 146.77 183.859 146.77c96.1699 0 169.8 -53 183.17 -132.79h-45.7598c-13.3701 55.6797 -66.2002 91.6699 -136.021 91.6699c-80.1299 0 -138.1 -45.4404 -138.1 -108.421
c0 -55.6699 43.5195 -97.4199 108.81 -97.4199h92.0498v-38.3701h-92.5898c-70.21 0 -118.74 -49.9697 -118.74 -110.64c0 -70.6699 62.9805 -120.57 151.25 -120.57c76.7598 0 133.51 38.4502 147.029 96.5098z" />
    <glyph glyph-name="etatonos" unicode="&#x3ae;" horiz-adv-x="641" 
d="M428.82 757.15l-86.6191 -152h-40.8301l74.5996 152h52.8496zM345.642 550.92c129.61 0 210.68 -89.0693 210.68 -230.149v-512.16h-49v501.99c0 122.59 -64.0498 195.02 -172.78 195.02c-104.52 0 -191.329 -89.4297 -191.329 -197.5v-308.12h-49v540h36.5098
l10.0703 -108.67c39.1299 72 115.84 119.59 204.85 119.59z" />
    <glyph glyph-name="zero" unicode="0" horiz-adv-x="616" 
d="M308.24 -10.9297c-153.03 0 -249.431 132.47 -249.431 343.609c0 211.86 95.9404 343.15 249.431 343.15c153.02 0 248.949 -131.29 248.949 -343.15c0 -211.14 -96.3896 -343.609 -248.949 -343.609zM308.24 34.8398c123.79 0 200.882 112.93 200.882 297.84
c0 184.89 -76.9004 297.39 -200.881 297.39c-124.45 0 -201.351 -112.5 -201.351 -297.39c0 -184.91 76.6299 -297.84 201.35 -297.84z" />
    <glyph glyph-name="one" unicode="1" horiz-adv-x="316" 
d="M24.3799 665h188.28v-665h-47.1504v620.62h-141.13v44.3799z" />
    <glyph glyph-name="two" unicode="2" horiz-adv-x="512" 
d="M128.65 45.7598l345.062 -0.000976562v-45.7598h-435.56v20.4697c319.89 322.8 354.89 381.53 354.89 473.82c0 81.1201 -56.8301 135.87 -142.57 135.87c-87.6602 0 -147.561 -56.29 -147.561 -136.34v-17.6104h-47.6104v17.6104
c0 109.4 81.3096 182.101 195.17 182.101c113.02 0 190.64 -74.0898 190.64 -181.63c0 -98.0703 -35.6396 -165.15 -312.46 -448.53z" />
    <glyph glyph-name="three" unicode="3" horiz-adv-x="521" 
d="M258.35 408.94c123.61 -2.78027 211.907 -92.9307 211.907 -207.78c0 -123.77 -94.3096 -212.09 -214.79 -212.09c-118.09 0 -204.859 81.7002 -212.47 196.72h47.1504c7.15039 -89.5898 73.5908 -150.95 165.321 -150.95c95.7402 0 166.721 71.5098 166.721 167.71
c0 94.5898 -76.0498 166.17 -177.25 166.17h-61.4199v13.2402l186.81 239.2h-302.57v44.3701h377.57v-14.6201l-188.97 -241.97h1.99023z" />
    <glyph glyph-name="four" unicode="4" horiz-adv-x="528" 
d="M496.55 190.59l-0.000976562 -42.9902h-79.29v-147.6h-46.6904v147.6h-353.05v15.7002l243.29 504.39h50l-229.68 -477.1h289.44v233.32h46.6904v-233.32h79.29z" />
    <glyph glyph-name="five" unicode="5" horiz-adv-x="516" 
d="M248.48 411.25c129.16 0 222.997 -92.9297 222.997 -210.09c0 -123.31 -94.3096 -212.079 -213.859 -212.079c-119.01 0 -206.71 82.6201 -213.4 196.71h47.1504c6.69043 -89.1299 74.0508 -150.95 166.251 -150.95c94.8096 0 165.79 71.0498 165.79 166.319
c0 94.1299 -76.0498 166.64 -176.319 166.64h-160.25l-8.78027 9.7002l31.3096 288.04h317.73v-44.3799h-277.83l-22.7695 -209.91h121.98z" />
    <glyph glyph-name="six" unicode="6" horiz-adv-x="543" 
d="M286.56 419.95c122.3 0 223.239 -87.6279 223.239 -213.098c0 -126.55 -96.2402 -217.79 -228.79 -217.79c-132.94 0 -229.71 91.7803 -229.71 217.79c0 61.8496 27.0703 143.989 73.5303 227.52l134.08 238.77h52.3096
c-117.52 -211.11 -142.81 -256.11 -162.359 -299.931c37.6396 29.6797 87.04 46.7393 137.7 46.7393zM280.549 34.832c104.2 0 181.17 72.9004 181.17 172.021c0 99.5898 -76.9697 171.49 -181.17 171.49s-181.181 -72.3701 -181.181 -171.49
c0 -98.6602 76.9805 -172.021 181.181 -172.021z" />
    <glyph glyph-name="seven" unicode="7" horiz-adv-x="484" 
d="M24.9199 665.53l434.19 -0.000976562v-11.7695l-266.37 -653.76h-52l254.91 621.16h-370.73v44.3701z" />
    </font>
</defs>
</svg>
