<?xml version="1.0" standalone="no"?>
<!DOCTYPE svg PUBLIC "-//W3C//DTD SVG 1.1//EN" "http://www.w3.org/Graphics/SVG/1.1/DTD/svg11.dtd" >
<svg xmlns="http://www.w3.org/2000/svg" xmlns:xlink="http://www.w3.org/1999/xlink" version="1.1">
<metadata>
Created by FontForge 20201107 at Mon Jan 29 11:06:09 2018
 By Jimmy Wärting
Modern and elegant sans serif font family.
</metadata>
<defs>
<font id="Mont-Book" horiz-adv-x="0" >
  <font-face 
    font-family="Mont Book"
    font-weight="500"
    font-stretch="normal"
    units-per-em="1000"
    panose-1="0 0 6 0 0 0 0 0 0 0"
    ascent="800"
    descent="-200"
    x-height="539.999"
    cap-height="700"
    bbox="-800 -299 1090.41 982.62"
    underline-thickness="50"
    underline-position="-100"
    stemh="64"
    stemv="69"
    unicode-range="U+0020-25CA"
  />
<missing-glyph horiz-adv-x="462" 
d="M378.92 732.1v-924.2h-292.97v924.2h292.97zM307.76 670.18h-152.5v-30.5h60.0801v-34.2002h-61v-30.5h153.42v30.5h-61v34.2002h61v30.5zM246.76 550.949h-92.4199v-96.1104h153.42v31.4199h-61v64.6904zM215.34 519.529v-33.2695h-30.5v33.2695h30.5zM307.76 429.88
h-153.42v-30.4902h61v-34.2002h-61v-30.5h92.4199v64.7002h61v30.4902zM307.76 374.43h-30.5v-61h-122.92v-31.4199h153.42v92.4199zM307.76 261.68h-92.4199v-51.7598h31.4199v21.2598h30.5v-43.4404h-92.4199v73.9404h-30.5v-104.43h153.42v104.43zM307.76 101.79h-153.42
v-104.43h153.42v104.43zM277.26 71.29v-43.4297h-92.4199v43.4297h92.4199zM307.76 -23.8994h-153.421v-30.5h64.6904l-64.6904 -43.4297v-30.5h153.42v30.5h-94.2695l64.6904 43.4297h29.5801v30.5z" />
    <glyph glyph-name="f_f.liga" unicode="ff" horiz-adv-x="723" 
d="M710.4 537.2l-0.00292969 -57.5h-174v-479.7h-68v479.7h-274.1v-479.7h-68v479.7h-109.8v57.5h109.8v43.4004c0 118.5 50.9004 172.6 173.601 172.6h67.7002v-55.4004h-55.7998c-87.2998 0 -119.6 -31.5996 -119.6 -118.6v-42h276.2v43.4004
c0 118.5 50.9004 172.6 173.601 172.6h67.7002v-55.4004h-55.7998c-87.2998 0 -119.6 -31.5996 -119.6 -118.6v-42h176.1z" />
    <glyph glyph-name="f_f_t.liga" unicode="fft" horiz-adv-x="1065" 
d="M975.7 63.0996l66.1973 -0.000976562v-63.0996h-73.9004c-111.1 0 -179.3 69.2002 -179.3 180.9v298.8h-252.3v-479.7h-68v479.7h-274.1v-479.7h-68v479.7h-109.8v57.5h109.8v43.4004c0 118.5 50.9004 172.6 173.601 172.6h67.7002v-55.4004h-55.7998
c-87.2998 0 -119.6 -31.5996 -119.6 -118.6v-42h276.2v43.4004c0 118.5 50.9004 172.6 173.601 172.6h56.7998v-55.4004h-44.9004c-87.2998 0 -119.6 -31.5996 -119.6 -118.6v-42h254.4v159.3h68v-159.3h182.3v-57.5h-182.3v-295.3c0 -76.7002 42.5996 -121.3 119 -121.3z
" />
    <glyph glyph-name="f_t.liga" unicode="ft" horiz-adv-x="743" 
d="M654.5 63.0996l66.1992 -0.000976562v-63.0996h-73.9004c-111.1 0 -179.3 68.2002 -179.3 179.601v300.1h-273.2v-479.7h-68v479.7h-109.8v57.5h109.8v43.4004c0 118.5 50.9004 172.6 173.601 172.6h67.7002v-55.4004h-55.7998c-87.2998 0 -119.6 -31.5996 -119.6 -118.6
v-42h275.3v159.3h68v-159.3h182.6v-57.5h-182.6v-296.6c0 -76.4004 42.5996 -120 119 -120z" />
    <glyph glyph-name="f_t_t.liga" unicode="ftt" horiz-adv-x="1106" 
d="M1015.9 63.0996l66.1992 -0.00195312v-63.0996h-74.5996c-110.4 0 -178.601 68.2002 -178.601 179.601v300.1h-297.2v-296.6c0 -76.4004 42.5996 -120 119 -120h66.2002v-63.0996h-73.9004c-111.1 0 -179.3 68.2002 -179.3 179.601v300.1h-269.4v-479.7h-68v479.7h-109.8
v57.5h109.8v50.4004c0 118.5 50.9004 172.6 173.601 172.6h67.7002v-55.4004h-55.7998c-87.2998 0 -119.6 -31.5996 -119.6 -118.6v-49h271.5v159.3h68v-159.3h297.2v159.3h68v-159.3h184.2v-57.5h-184.2v-296.6c0 -76.4004 42.5996 -120 119 -120z" />
    <glyph glyph-name="r_f.liga" unicode="rf" horiz-adv-x="780" 
d="M767.1 540l-0.000976562 -58.8994h-174v-481.1h-68v481.1h-109.8v58.9004h109.8v40.5996c0 118.5 50.9004 172.6 173.601 172.6h67.7002v-55.4004h-55.7998c-87.2998 0 -119.6 -31.5996 -119.6 -118.6v-39.2002h176.1zM150.648 445.681
c37.54 60.3799 96.9004 94.6201 177.95 94.6201h47.4004v-63.0996h-53c-103.3 -1.40039 -165.3 -72.9004 -165.3 -181.101v-296.1h-68v540h49.0996z" />
    <glyph glyph-name="t_f.liga" unicode="tf" horiz-adv-x="714" 
d="M701.2 537.2l-0.000976562 -57.5h-174v-479.7h-68v479.7h-286.3v-296.7c0 -76.7002 42.5996 -119.9 119.699 -119.9h59.7002v-63.0996h-68.0996c-111.1 0 -179.3 68.5 -179.3 180.9v298.8h-92.9004v10.5l150.7 156.1h10.2002v-109.1h286.3v53.4004
c0 118.5 50.9004 172.6 173.601 172.6h67.7002v-55.4004h-55.7998c-87.2998 0 -119.6 -31.5996 -119.6 -118.6v-52h176.1z" />
    <glyph glyph-name=".notdef" horiz-adv-x="462" 
d="M378.92 732.1v-924.2h-292.97v924.2h292.97zM307.76 670.18h-152.5v-30.5h60.0801v-34.2002h-61v-30.5h153.42v30.5h-61v34.2002h61v30.5zM246.76 550.949h-92.4199v-96.1104h153.42v31.4199h-61v64.6904zM215.34 519.529v-33.2695h-30.5v33.2695h30.5zM307.76 429.88
h-153.42v-30.4902h61v-34.2002h-61v-30.5h92.4199v64.7002h61v30.4902zM307.76 374.43h-30.5v-61h-122.92v-31.4199h153.42v92.4199zM307.76 261.68h-92.4199v-51.7598h31.4199v21.2598h30.5v-43.4404h-92.4199v73.9404h-30.5v-104.43h153.42v104.43zM307.76 101.79h-153.42
v-104.43h153.42v104.43zM277.26 71.29v-43.4297h-92.4199v43.4297h92.4199zM307.76 -23.8994h-153.421v-30.5h64.6904l-64.6904 -43.4297v-30.5h153.42v30.5h-94.2695l64.6904 43.4297h29.5801v30.5z" />
    <glyph glyph-name="A" unicode="A" horiz-adv-x="692" 
d="M595.9 0l-75.3105 178.9h-352.22l-74.1699 -178.9h-74.5996l289.8 700h64.7002l297.8 -700h-76zM342.78 602.94l-147.9 -359.54h298.9z" />
    <glyph glyph-name="Aacute" unicode="&#xc1;" horiz-adv-x="692" 
d="M456.4 921.8l-95.5 -142h-54.5996l77.2998 142h72.7998zM595.9 -0l-75.3105 178.9h-352.22l-74.1699 -178.9h-74.5996l289.8 700h64.7002l297.8 -700h-76zM342.78 602.94l-147.9 -359.54h298.9z" />
    <glyph glyph-name="Abreve" unicode="&#x102;" horiz-adv-x="692" 
d="M343.5 773.9c-90.7002 0 -151.301 55.0996 -151.301 147.899h54v-2.40039c0 -63.7998 39.0996 -98.5 97.2998 -98.5c58.5 0 95.9004 34.7002 95.9004 98.5v2.40039h55.4004c0 -92.7998 -60.5996 -147.899 -151.3 -147.899zM595.899 0l-75.3105 178.9h-352.22
l-74.1699 -178.9h-74.5996l289.8 700h64.7002l297.8 -700h-76zM342.779 602.94l-147.9 -359.54h298.9z" />
    <glyph glyph-name="Acircumflex" unicode="&#xc2;" horiz-adv-x="692" 
d="M342.53 882.17l-96.5303 -102.37h-61.2002l119.2 142h78l119.5 -142h-61.2002zM595.9 -0l-75.3105 178.9h-352.22l-74.1699 -178.9h-74.5996l289.8 700h64.7002l297.8 -700h-76zM342.78 602.94l-147.9 -359.54h298.9z" />
    <glyph glyph-name="Adieresis" unicode="&#xc4;" horiz-adv-x="692" 
d="M195.9 797.8v84.0996h81.7998v-84.0996h-81.7998zM408.601 797.8v84.0996h81.7998v-84.0996h-81.7998zM595.9 -0.000976562l-75.2998 178.9h-352.23l-74.1699 -178.9h-74.5996l289.8 700h64.7002l297.8 -700h-76zM342.78 602.939l-147.891 -359.54h298.91z" />
    <glyph glyph-name="Agrave" unicode="&#xc0;" horiz-adv-x="692" 
d="M320.4 779.8l-95.5 142h72.7998l77.2998 -142h-54.5996zM595.9 -0l-75.3105 178.9h-352.22l-74.1699 -178.9h-74.5996l289.8 700h64.7002l297.8 -700h-76zM342.78 602.94l-147.9 -359.54h298.9z" />
    <glyph glyph-name="Amacron" unicode="&#x100;" horiz-adv-x="692" 
d="M187.8 819.42v59.1504h313v-59.1504h-313zM595.899 0l-75.3105 178.9h-352.22l-74.1699 -178.9h-74.5996l289.8 700h64.7002l297.8 -700h-76zM342.779 602.94l-147.9 -359.54h298.9z" />
    <glyph glyph-name="Aogonek" unicode="&#x104;" horiz-adv-x="692" 
d="M628.1 -178.8c17.0996 0 33.8994 2.70117 48.5996 9.10156v-42.4004c-20.2998 -9.59961 -43.7002 -14.3994 -66.1006 -14.3994c-68.2998 0 -114.899 39.7998 -114.899 97.7002c0 55.2197 38.1699 108.149 95.4199 140.14l-70.5303 167.56h-352.22l-74.1699 -178.9
h-74.5996l289.8 700h64.7002l293.41 -689.69l6.38965 -10.3096c-79.9004 -22.2002 -124.9 -64.9004 -124.9 -114.101c0 -39.2998 30.4004 -64.7002 79.1006 -64.7002zM342.779 602.941l-147.9 -359.54h298.9z" />
    <glyph glyph-name="Aring" unicode="&#xc5;" horiz-adv-x="692" 
d="M343.36 762.34c-68.9297 0 -116.72 46.0801 -116.72 110.49c0 65.1104 47.79 109.79 116.72 109.79c68.2305 0 116.03 -44.6797 116.03 -109.79c0 -64.4102 -47.7998 -110.49 -116.03 -110.49zM343.36 804.66c41.5 0 70.21 27.6904 70.21 68.1709
c0 41.1797 -28.71 68.1699 -70.21 68.1699c-42.2002 0 -70.9004 -26.9902 -70.9004 -68.1699c0 -40.4805 28.7002 -68.1709 70.9004 -68.1709zM595.9 0l-75.3105 178.9h-352.22l-74.1699 -178.9h-74.5996l289.8 700h64.7002l297.8 -700h-76zM342.78 602.94l-147.9 -359.54
h298.9z" />
    <glyph glyph-name="Atilde" unicode="&#xc3;" horiz-adv-x="692" 
d="M416.5 784.6c-43.4004 0 -69.3008 21.8008 -96.2012 50.1006c-21.4004 22.7998 -37.3008 36.2002 -58.4004 36.2002c-29.5996 0 -50.6992 -26.9004 -50.6992 -70.4004v-11h-43.5v13.0996c0 70.7998 34.9004 117.399 93.5 117.399c40.5 0 63.2002 -20 89.4004 -47.5
c21.9004 -24 39.2002 -38.7998 65.2002 -38.7998c30.5996 0 50 25.9004 50 70.4004v9h44.2002v-10.4004c0 -71.5 -36.2998 -118.1 -93.5 -118.1zM595.9 0.000976562l-75.3105 178.9h-352.22l-74.1699 -178.9h-74.5996l289.8 700h64.7002l297.8 -700h-76zM342.78 602.941
l-147.9 -359.54h298.9z" />
    <glyph glyph-name="AE" unicode="&#xc6;" horiz-adv-x="885" 
d="M505.3 67.2998h331.499v-67.2998h-401.6v163.7h-266.63l-98.4697 -163.7h-83.2998l423.2 700h415.8v-66.5996h-320.5v-240.9h293.9v-65.2002h-293.9v-260zM207.379 228.2h227.82v378.71z" />
    <glyph glyph-name="AEacute" unicode="&#x1fc;" horiz-adv-x="885" 
d="M608.3 921.8l-95.5 -142h-54.5996l77.2998 142h72.7998zM505.3 67.2998h331.499v-67.2998h-401.6v163.7h-266.63l-98.4697 -163.7h-83.2998l423.2 700h415.8v-66.5996h-320.5v-240.9h293.9v-65.2002h-293.9v-260zM207.379 228.2h227.82v378.71z" />
    <glyph glyph-name="B" unicode="B" horiz-adv-x="645" 
d="M472.04 364.94c68.29 -26.1104 112.771 -94.0107 112.771 -173.15c0 -107.5 -88.5 -191.8 -209.7 -191.8h-275.7v700h272.9c113.2 0 193.3 -76.0996 193.3 -175.8c0 -65.9697 -37.3398 -130.46 -93.5703 -159.25zM373.2 631.301h-204.399v-233.3h206.5
c67.5 0 118.8 53.2998 118.8 117.1c0 65.7002 -53.2002 116.2 -120.9 116.2zM376.701 69.4004c77.2002 0 135.9 55.6006 135.9 130.101c0 73.2002 -58.4004 129.8 -134.4 129.8h-209.4v-259.9h207.9z" />
    <glyph glyph-name="C" unicode="C" horiz-adv-x="777" 
d="M408.4 -10.7002c-208.3 0 -358.1 150.7 -358.1 360.4s150.1 361 358.1 361c159.4 0 286.2 -92.5996 328.8 -239h-71.7998c-40.2002 106.5 -135.4 170.3 -257 170.3c-166.4 0 -286.601 -121.5 -286.601 -292.3s119.9 -291.7 286.601 -291.7
c124.9 0 221.7 67.7998 261.2 181.2h71.5c-42.2998 -154 -170 -249.9 -332.7 -249.9z" />
    <glyph glyph-name="Cacute" unicode="&#x106;" horiz-adv-x="777" 
d="M365.6 779.8l77.2998 142h72.7998l-95.5 -142h-54.5996zM408.399 -10.7002c-208.3 0 -358.1 150.7 -358.1 360.4s150.1 361 358.1 361c159.4 0 286.2 -92.5996 328.8 -239h-71.7998c-40.2002 106.5 -135.4 170.3 -257 170.3c-166.4 0 -286.601 -121.5 -286.601 -292.3
s119.9 -291.7 286.601 -291.7c124.9 0 221.7 67.7998 261.2 181.2h71.5c-42.2998 -154 -170 -249.9 -332.7 -249.9z" />
    <glyph glyph-name="Ccaron" unicode="&#x10c;" horiz-adv-x="777" 
d="M499.6 921.8h61.2002l-119.5 -142h-78l-119.2 142h61.2002l96.54 -102.38zM408.399 -10.7002c-208.3 0 -358.1 150.7 -358.1 360.4s150.1 361 358.1 361c159.4 0 286.2 -92.5996 328.8 -239h-71.7998c-40.2002 106.5 -135.4 170.3 -257 170.3
c-166.4 0 -286.601 -121.5 -286.601 -292.3s119.9 -291.7 286.601 -291.7c124.9 0 221.7 67.7998 261.2 181.2h71.5c-42.2998 -154 -170 -249.9 -332.7 -249.9z" />
    <glyph glyph-name="Ccedilla" unicode="&#xc7;" horiz-adv-x="777" 
d="M741.1 239.2c-40.9805 -149.18 -162.1 -243.84 -317.54 -249.62l-10.4502 -37.3301c55.7305 -6.20996 94.29 -42.4404 94.29 -91.0508c0 -54.5996 -49.5996 -93.3994 -117.3 -93.3994h-65.9004v42.7998h65.2002c37.2002 0 63.2998 20.9004 63.2998 51.3008
c0 29.4004 -26.4004 51.3008 -64.6006 51.3008h-22.5996l-7.59961 10.7002l17.2002 66.71c-190.78 15.1797 -324.8 160.739 -324.8 359.089c0 209.7 150.1 361 358.1 361c159.4 0 286.2 -92.5996 328.8 -239h-71.7998c-40.2002 106.5 -135.4 170.3 -257 170.3
c-166.4 0 -286.601 -121.5 -286.601 -292.3s119.9 -291.7 286.601 -291.7c124.9 0 221.7 67.7998 261.2 181.2h71.5z" />
    <glyph glyph-name="Ccircumflex" unicode="&#x108;" horiz-adv-x="777" 
d="M560.8 779.8h-61.2002l-97.7598 102.38l-96.54 -102.38h-61.2002l119.2 142h78zM408.399 -10.7002c-208.3 0 -358.1 150.7 -358.1 360.4s150.1 361 358.1 361c159.4 0 286.2 -92.5996 328.8 -239h-71.7998c-40.2002 106.5 -135.4 170.3 -257 170.3
c-166.4 0 -286.601 -121.5 -286.601 -292.3s119.9 -291.7 286.601 -291.7c124.9 0 221.7 67.7998 261.2 181.2h71.5c-42.2998 -154 -170 -249.9 -332.7 -249.9z" />
    <glyph glyph-name="Cdotaccent" unicode="&#x10a;" horiz-adv-x="777" 
d="M361.9 797.8v84.0996h81.7998v-84.0996h-81.7998zM408.4 -10.7002c-208.3 0 -358.1 150.7 -358.1 360.4s150.1 361 358.1 361c159.4 0 286.2 -92.5996 328.8 -239h-71.7998c-40.2002 106.5 -135.4 170.3 -257 170.3c-166.4 0 -286.601 -121.5 -286.601 -292.3
s119.9 -291.7 286.601 -291.7c124.9 0 221.7 67.7998 261.2 181.2h71.5c-42.2998 -154 -170 -249.9 -332.7 -249.9z" />
    <glyph glyph-name="D" unicode="D" horiz-adv-x="730" 
d="M324.1 700c206 0 355 -147 355 -349.7c0 -203 -149.3 -350.3 -355 -350.3h-224.7v700h224.7zM322 65.9004c166.5 0 285.6 119.9 285.6 284.4c0 164.2 -118.8 283.8 -285.6 283.8h-152.5v-568.2h152.5z" />
    <glyph glyph-name="Eth" unicode="&#xd0;" horiz-adv-x="749" 
d="M343 700c206 0 355 -147.001 355 -349.701c0 -203 -149.3 -350.3 -355 -350.3h-224.7v320.9h-101.8v58.9004h101.8v320.2h224.7zM340.9 65.8994c166.5 0 285.6 119.9 285.6 284.4c0 164.2 -118.8 283.8 -285.6 283.8h-152.5v-254.3h218.1v-58.9004h-218.1v-255h152.5z
" />
    <glyph glyph-name="Dcaron" unicode="&#x10e;" horiz-adv-x="730" 
d="M335.1 779.8h-78l-119.2 142h61.2002l96.5303 -102.38l97.7695 102.38h61.2002zM324.1 700c206 0 355 -147 355 -349.7c0 -203 -149.3 -350.3 -355 -350.3h-224.7v700h224.7zM322 65.9004c166.5 0 285.6 119.9 285.6 284.4c0 164.2 -118.8 283.8 -285.6 283.8h-152.5
v-568.2h152.5z" />
    <glyph glyph-name="Dcroat" unicode="&#x110;" horiz-adv-x="749" 
d="M343 700c206 0 355 -147.001 355 -349.701c0 -203 -149.3 -350.3 -355 -350.3h-224.7v320.9h-101.8v58.9004h101.8v320.2h224.7zM340.9 65.8994c166.5 0 285.6 119.9 285.6 284.4c0 164.2 -118.8 283.8 -285.6 283.8h-152.5v-254.3h218.1v-58.9004h-218.1v-255h152.5z
" />
    <glyph glyph-name="E" unicode="E" horiz-adv-x="549" 
d="M169.5 67.2998l330.9 -0.000976562v-67.2998h-401v700h390v-66.5996h-319.9v-239.1h293.9v-65.2002h-293.9v-261.8z" />
    <glyph glyph-name="Eacute" unicode="&#xc9;" horiz-adv-x="549" 
d="M405.2 921.8l-95.5 -142h-54.5996l77.2998 142h72.7998zM169.5 67.2998l330.9 -0.000976562v-67.2998h-401v700h390v-66.5996h-319.9v-239.1h293.9v-65.2002h-293.9v-261.8z" />
    <glyph glyph-name="Ebreve" unicode="&#x114;" horiz-adv-x="549" 
d="M292.3 773.9c-90.7002 0 -151.301 55.0996 -151.301 147.899h54v-2.40039c0 -63.7998 39.0996 -98.5 97.2998 -98.5c58.5 0 95.9004 34.7002 95.9004 98.5v2.40039h55.4004c0 -92.7998 -60.5996 -147.899 -151.3 -147.899zM169.499 67.3008l330.9 -0.000976562v-67.2998
h-401v700h390v-66.5996h-319.9v-239.1h293.9v-65.2002h-293.9v-261.8z" />
    <glyph glyph-name="Ecaron" unicode="&#x11a;" horiz-adv-x="549" 
d="M330.8 779.8h-78l-119.2 142h61.2002l96.5303 -102.38l97.7695 102.38h61.2002zM169.5 67.2998l330.9 -0.000976562v-67.2998h-401v700h390v-66.5996h-319.9v-239.1h293.9v-65.2002h-293.9v-261.8z" />
    <glyph glyph-name="Ecircumflex" unicode="&#xca;" horiz-adv-x="549" 
d="M291.33 882.17l-96.5303 -102.37h-61.2002l119.2 142h78l119.5 -142h-61.2002zM169.5 67.2998l330.9 -0.000976562v-67.2998h-401v700h390v-66.5996h-319.9v-239.1h293.9v-65.2002h-293.9v-261.8z" />
    <glyph glyph-name="Edieresis" unicode="&#xcb;" horiz-adv-x="549" 
d="M144.7 797.8v84.0996h81.7998v-84.0996h-81.7998zM357.4 797.8v84.0996h81.7998v-84.0996h-81.7998zM169.5 67.2998l330.9 -0.000976562v-67.2998h-401v700h390v-66.5996h-319.9v-239.1h293.9v-65.2002h-293.9v-261.8z" />
    <glyph glyph-name="Edotaccent" unicode="&#x116;" horiz-adv-x="549" 
d="M251.4 797.8v84.0996h81.7998v-84.0996h-81.7998zM169.5 67.2998l330.9 -0.000976562v-67.2998h-401v700h390v-66.5996h-319.9v-239.1h293.9v-65.2002h-293.9v-261.8z" />
    <glyph glyph-name="Egrave" unicode="&#xc8;" horiz-adv-x="549" 
d="M269.2 779.8l-95.5 142h72.7998l77.2998 -142h-54.5996zM169.5 67.2998l330.9 -0.000976562v-67.2998h-401v700h390v-66.5996h-319.9v-239.1h293.9v-65.2002h-293.9v-261.8z" />
    <glyph glyph-name="Emacron" unicode="&#x112;" horiz-adv-x="549" 
d="M136.6 819.42v59.1504h313v-59.1504h-313zM169.5 67.3008l330.9 -0.000976562v-67.2998h-401v700h390v-66.5996h-319.9v-239.1h293.9v-65.2002h-293.9v-261.8z" />
    <glyph glyph-name="Eogonek" unicode="&#x118;" horiz-adv-x="549" 
d="M466.5 -178.8c17.0996 0 33.9004 2.69824 50 9.09863v-41c-20.2998 -10.2998 -44.3994 -15.7998 -67.499 -15.7998c-67.5996 0 -113.5 39.7998 -113.5 97.7002c0 50.6797 30.8896 98.8193 79.6895 128.8h-315.79v700h390v-66.5996h-319.9v-239.1h293.9v-65.2002h-293.9
v-261.8h330.9v-67.2998c-65.9004 -18 -111.601 -65.5996 -111.601 -113.399c0 -40 30.4004 -65.4004 77.7002 -65.4004z" />
    <glyph glyph-name="F" unicode="F" horiz-adv-x="519" 
d="M486.1 633.4h-316.601v-253.5h290.6v-65.2002h-290.6v-314.7h-70.0996v700h386.7v-66.5996z" />
    <glyph glyph-name="G" unicode="G" horiz-adv-x="799" 
d="M376 341.3l375.898 0.00195312c-5.2002 -206.9 -148 -352.101 -348 -352.101c-205.7 0 -353.3 152.4 -353.3 360.5c0 207.7 149.4 360.4 351.9 360.4c166.9 0 307.4 -104.8 338.101 -252.1h-72.2002c-30 108.8 -137.5 183.399 -264.5 183.399
c-163.6 0 -281.8 -121.8 -281.8 -291.7c0 -171.9 115.2 -291.801 281.8 -291.801c141.53 0 249.721 87.1797 272.28 216.8h-300.18v66.5996z" />
    <glyph glyph-name="Gbreve" unicode="&#x11e;" horiz-adv-x="799" 
d="M404.8 773.9c-90.7002 0 -151.301 55.0996 -151.301 147.899h54v-2.40039c0 -63.7998 39.0996 -98.5 97.2998 -98.5c58.5 0 95.9004 34.7002 95.9004 98.5v2.40039h55.4004c0 -92.7998 -60.5996 -147.899 -151.3 -147.899zM375.999 341.301l375.898 0.00195312
c-5.2002 -206.9 -148 -352.101 -348 -352.101c-205.7 0 -353.3 152.4 -353.3 360.5c0 207.7 149.4 360.4 351.9 360.4c166.9 0 307.4 -104.8 338.101 -252.1h-72.2002c-30 108.8 -137.5 183.399 -264.5 183.399c-163.6 0 -281.8 -121.8 -281.8 -291.7
c0 -171.9 115.2 -291.801 281.8 -291.801c141.53 0 249.721 87.1797 272.28 216.8h-300.18v66.5996z" />
    <glyph glyph-name="Gcircumflex" unicode="&#x11c;" horiz-adv-x="799" 
d="M403.84 882.18l-96.54 -102.38h-61.2002l119.2 142h78l119.5 -142h-61.2002zM376 341.3l375.898 0.00195312c-5.2002 -206.9 -148 -352.101 -348 -352.101c-205.7 0 -353.3 152.4 -353.3 360.5c0 207.7 149.4 360.4 351.9 360.4c166.9 0 307.4 -104.8 338.101 -252.1
h-72.2002c-30 108.8 -137.5 183.399 -264.5 183.399c-163.6 0 -281.8 -121.8 -281.8 -291.7c0 -171.9 115.2 -291.801 281.8 -291.801c141.53 0 249.721 87.1797 272.28 216.8h-300.18v66.5996z" />
    <glyph glyph-name="Gdotaccent" unicode="&#x120;" horiz-adv-x="799" 
d="M445.7 881.9v-84.0996h-81.7998v84.0996h81.7998zM376 341.301l375.898 0.00195312c-5.2002 -206.9 -148 -352.101 -348 -352.101c-205.7 0 -353.3 152.4 -353.3 360.5c0 207.7 149.4 360.4 351.9 360.4c166.9 0 307.4 -104.8 338.101 -252.1h-72.2002
c-30 108.8 -137.5 183.399 -264.5 183.399c-163.6 0 -281.8 -121.8 -281.8 -291.7c0 -171.9 115.2 -291.801 281.8 -291.801c141.53 0 249.721 87.1797 272.28 216.8h-300.18v66.5996z" />
    <glyph glyph-name="H" unicode="H" horiz-adv-x="729" 
d="M559.2 700h70.0996v-700h-70.0996v328.1h-389.7v-328.1h-70.0996v700h70.0996v-304.6h389.7v304.6z" />
    <glyph glyph-name="Hbar" unicode="&#x126;" horiz-adv-x="746" 
d="M724.2 597.3v-54.7002h-87v-542.6h-70.0996v328.8h-389.7v-328.8h-70.0996v542.6h-83.0996v54.7002h83.0996v102.7h70.0996v-102.7h389.7v102.7h70.0996v-102.7h87zM567.101 394.699v147.9h-389.7v-147.9h389.7z" />
    <glyph glyph-name="Hcircumflex" unicode="&#x124;" horiz-adv-x="729" 
d="M368.23 882.17l-96.5303 -102.37h-61.2002l119.2 142h78l119.5 -142h-61.2002zM559.2 700h70.0996v-700h-70.0996v328.1h-389.7v-328.1h-70.0996v700h70.0996v-304.6h389.7v304.6z" />
    <glyph glyph-name="I" unicode="I" horiz-adv-x="269" 
d="M99.4004 0v700h70.0996v-700h-70.0996z" />
    <glyph glyph-name="IJ" unicode="&#x132;" horiz-adv-x="811" 
d="M99.4004 0v700h70.0996v-700h-70.0996zM484.301 -11.4004c-135.2 0 -238 102.101 -238 241.101v11.7002h69.4004v-8.90039c0 -100.9 72 -175.2 168.6 -175.2c94.2002 0 166.2 74.5996 166.2 175.199v467.5h69.4004v-470.3c0 -139 -100.7 -241.1 -235.601 -241.1z" />
    <glyph glyph-name="Iacute" unicode="&#xcd;" horiz-adv-x="269" 
d="M97.4004 780.1l52.2002 142h70l-69 -142h-53.2002zM99.4004 -0v700h70.0996v-700h-70.0996z" />
    <glyph glyph-name="Ibreve" unicode="&#x12c;" horiz-adv-x="269" 
d="M134.8 773.9c-84.0996 0 -140.4 55.4004 -140.4 147.9h54v-2.40039c0 -63.7998 34.7998 -98.5 86.3994 -98.5c51.9004 0 85 34.7002 85 98.5v2.40039h55.4004c0 -92.5 -56.2998 -147.9 -140.399 -147.9zM99.3984 0v700h70.0996v-700h-70.0996z" />
    <glyph glyph-name="Icircumflex" unicode="&#xce;" horiz-adv-x="269" 
d="M169.4 921.8l103.602 -142h-58.4004l-80.7002 101.68l-80.7002 -101.68h-57.7002l103.6 142h70.2998zM99.4023 -0v700h70.0996v-700h-70.0996z" />
    <glyph glyph-name="Idieresis" unicode="&#xcf;" horiz-adv-x="269" 
d="M26.7998 797.8v84.0996h74.7998v-84.0996h-74.7998zM167.7 797.8v84.0996h74.7998v-84.0996h-74.7998zM99.4004 -0.000976562v700h70.0996v-700h-70.0996z" />
    <glyph glyph-name="Idotaccent" unicode="&#x130;" horiz-adv-x="269" 
d="M93.2002 797.8v84.0996h81.7998v-84.0996h-81.7998zM99.4004 -0.000976562v700h70.0996v-700h-70.0996z" />
    <glyph glyph-name="Igrave" unicode="&#xcc;" horiz-adv-x="269" 
d="M156.8 779.8h-55.3008l-68 142h71.4004zM99.3994 -0v700h70.0996v-700h-70.0996z" />
    <glyph glyph-name="Imacron" unicode="&#x12a;" horiz-adv-x="269" 
d="M11.25 819.59v60.8398h248.18v-60.8398h-248.18zM99.4004 -0v700h70.0996v-700h-70.0996z" />
    <glyph glyph-name="Iogonek" unicode="&#x12e;" horiz-adv-x="269" 
d="M154.1 -178.8c16.4004 0 33.2002 2.7002 49.2998 9.10059v-41c-20.2998 -10.2998 -43.7002 -15.7998 -67.5 -15.7998c-67.5996 0 -112.8 39.7998 -112.8 97.7002c0 50.2197 29.2695 99.8496 76.5996 132.3v696.5h70.0996v-700
c-57.5 -25 -94.0996 -68.4004 -94.0996 -113.4c0 -40 30.4004 -65.4004 78.4004 -65.4004z" />
    <glyph glyph-name="Itilde" unicode="&#x128;" horiz-adv-x="269" 
d="M212.4 784.6c-43.4004 0 -69.2012 25.9014 -91.9014 49.001c-18.2002 19 -35.7002 37.2998 -59.7002 37.2998c-25.9004 0 -45 -28.2998 -45 -70.3994v-11h-40.7002v13.0996c0 70.7998 31.5 117.399 85 117.399c44 0 67 -24.0996 89 -47.8994
c18.2002 -19.7002 34.7002 -38.4004 62.6006 -38.4004c26.9004 0 44.3008 27.2998 44.3008 70.3994v9h41.4004v-10.4004c0 -71.5 -32.9004 -118.1 -85 -118.1zM99.3994 0.000976562v700h70.0996v-700h-70.0996z" />
    <glyph glyph-name="J" unicode="J" horiz-adv-x="594" 
d="M267.1 -11.4004c-135.2 0 -238 102.101 -238 241.101v11.7002h69.4004v-8.90039c0 -100.9 72 -175.2 168.6 -175.2c94.2002 0 166.2 74.5996 166.2 175.199v467.5h69.4004v-470.3c0 -139 -100.7 -241.1 -235.601 -241.1z" />
    <glyph glyph-name="Jcircumflex" unicode="&#x134;" horiz-adv-x="594" 
d="M501.2 921.8l103.602 -142h-58.4004l-80.7002 101.68l-80.7002 -101.68h-57.7002l103.6 142h70.2998zM433.302 232.5v467.501h69.4004v-470.3c0 -139 -100.7 -241.1 -235.601 -241.1c-135.2 0 -238 102.1 -238 241.1v11.7002h69.4004v-8.90039
c0 -100.9 72 -175.2 168.6 -175.2c94.2002 0 166.2 74.5996 166.2 175.199z" />
    <glyph glyph-name="K" unicode="K" horiz-adv-x="625" 
d="M534.2 0l-262.719 329.6h-101.98v-329.6h-70.0996v700h70.0996v-304.5h101.68l239.52 304.5h89.5l-265.59 -336.25l289.79 -363.75h-90.2002z" />
    <glyph glyph-name="L" unicode="L" horiz-adv-x="509" 
d="M169.5 65.9004h318.601v-65.9004h-388.7v700h70.0996v-634.1z" />
    <glyph glyph-name="Lacute" unicode="&#x139;" horiz-adv-x="509" 
d="M259.5 921.8l-95.5 -142h-54.5996l77.2998 142h72.7998zM169.5 65.8994h318.601v-65.9004h-388.7v700h70.0996v-634.1z" />
    <glyph glyph-name="Lcaron" unicode="&#x13d;" horiz-adv-x="509" 
d="M371.6 605.5c23.2002 7.2002 36.2002 28.999 36.2002 56.6992h-39.2998v69.9004h75.5996v-64.0996c0 -46.5 -29.2998 -88.5 -72.5 -98.2998v35.7998zM169.5 65.8994h318.601v-65.9004h-388.7v700h70.0996v-634.1z" />
    <glyph glyph-name="Ldot" unicode="&#x13f;" horiz-adv-x="513" 
d="M169.5 65.9004h318.601v-65.9004h-388.7v700h70.0996v-634.1zM412.9 396.4v-92.2002h-81.7998v92.2002h81.7998z" />
    <glyph glyph-name="Lslash" unicode="&#x141;" horiz-adv-x="509" 
d="M169.5 65.9004l318.601 0.00195312v-65.9004h-388.7v257.18l-87.5996 -45.9805v61.5996l87.5996 46.4502v380.75h70.0996v-343.57l228.3 121.07v-63.7002l-228.3 -119.83v-228.07z" />
    <glyph glyph-name="M" unicode="M" horiz-adv-x="952" 
d="M905.1 0h-71.5l-97.6797 575.75l-249.92 -553.45h-19.9004l-249.74 552.78l-98.5596 -575.08h-71.5l119.7 700h66.7998l242.43 -543.84l243.67 543.84h68.2002z" />
    <glyph glyph-name="N" unicode="N" horiz-adv-x="748" 
d="M579.8 700h68.6992v-700h-59.2998l-421.1 576.93v-576.93h-68.7002v700h63.5l416.9 -572.19v572.19z" />
    <glyph glyph-name="Nacute" unicode="&#x143;" horiz-adv-x="748" 
d="M495.6 921.8l-95.5 -142h-54.5996l77.2998 142h72.7998zM579.8 700h68.6992v-700h-59.2998l-421.1 576.93v-576.93h-68.7002v700h63.5l416.9 -572.19v572.19z" />
    <glyph glyph-name="Ncaron" unicode="&#x147;" horiz-adv-x="748" 
d="M421.2 779.8h-78l-119.2 142h61.2002l96.5303 -102.38l97.7695 102.38h61.2002zM579.8 700h68.6992v-700h-59.2998l-421.1 576.93v-576.93h-68.7002v700h63.5l416.9 -572.19v572.19z" />
    <glyph glyph-name="Eng" unicode="&#x14a;" horiz-adv-x="748" 
d="M427.4 -190v65.2002h24.2998c79 0 132.3 52.5996 132.3 130.899l-415.9 571.4v-577.5h-68.7002v700h63.5l416.9 -573.8v573.8h68.7002v-686.2c0 -127.3 -75.7998 -203.8 -202.399 -203.8h-18.7002z" />
    <glyph glyph-name="Ntilde" unicode="&#xd1;" horiz-adv-x="748" 
d="M250.4 800.5v-10.999h-43.5v13.0996c0 70.7998 34.9004 117.399 93.5 117.399c40.5 0 63.2002 -20 89.4004 -47.5c21.9004 -24 39.2002 -38.7998 65.2002 -38.7998c30.5996 0 50 25.9004 50 70.4004v9h44.2002v-10.4004c0 -71.5 -36.2998 -118.1 -93.5 -118.1
c-43.4004 0 -69.3008 21.7998 -96.2012 50.0996c-21.4004 22.7998 -37.3008 36.2002 -58.4004 36.2002c-29.5996 0 -50.6992 -26.9004 -50.6992 -70.4004zM579.801 700.001h68.6992v-700h-59.2998l-421.1 576.93v-576.93h-68.7002v700h63.5l416.9 -572.19v572.19z" />
    <glyph glyph-name="O" unicode="O" horiz-adv-x="830" 
d="M414.9 -11.4004c-211.4 0 -364.601 155.001 -364.601 361.101c0 206.4 153.2 361.7 364.601 361.7s364.601 -155 364.601 -361.7c0 -206.4 -153.2 -361.101 -364.601 -361.101zM414.9 57.3008c169.4 0 293.101 125.2 293.101 292.4c0 167.5 -123.7 293 -293.101 293
s-293.101 -126.5 -293.101 -293c0 -166.2 123.7 -292.4 293.101 -292.4z" />
    <glyph glyph-name="Oacute" unicode="&#xd3;" horiz-adv-x="830" 
d="M377.7 779.8l77.2998 142h72.7998l-95.5 -142h-54.5996zM414.9 -11.4004c-211.4 0 -364.601 155.001 -364.601 361.101c0 206.4 153.2 361.7 364.601 361.7s364.601 -155 364.601 -361.7c0 -206.4 -153.2 -361.101 -364.601 -361.101zM414.9 57.3008
c169.4 0 293.101 125.2 293.101 292.4c0 167.5 -123.7 293 -293.101 293s-293.101 -126.5 -293.101 -293c0 -166.2 123.7 -292.4 293.101 -292.4z" />
    <glyph glyph-name="Obreve" unicode="&#x14e;" horiz-adv-x="830" 
d="M414.9 773.9c-90.7002 0 -151.301 55.0996 -151.301 147.899h54v-2.40039c0 -63.7998 39.0996 -98.5 97.2998 -98.5c58.5 0 95.9004 34.7002 95.9004 98.5v2.40039h55.4004c0 -92.7998 -60.5996 -147.899 -151.3 -147.899zM414.899 -11.3994
c-211.4 0 -364.601 155.001 -364.601 361.101c0 206.4 153.2 361.7 364.601 361.7s364.601 -155 364.601 -361.7c0 -206.4 -153.2 -361.101 -364.601 -361.101zM414.899 57.3018c169.4 0 293.101 125.2 293.101 292.4c0 167.5 -123.7 293 -293.101 293
s-293.101 -126.5 -293.101 -293c0 -166.2 123.7 -292.4 293.101 -292.4z" />
    <glyph glyph-name="Ocircumflex" unicode="&#xd4;" horiz-adv-x="830" 
d="M572.9 779.8h-61.2002l-97.7598 102.38l-96.54 -102.38h-61.2002l119.2 142h78zM414.9 -11.4004c-211.4 0 -364.601 155.001 -364.601 361.101c0 206.4 153.2 361.7 364.601 361.7s364.601 -155 364.601 -361.7c0 -206.4 -153.2 -361.101 -364.601 -361.101z
M414.9 57.3008c169.4 0 293.101 125.2 293.101 292.4c0 167.5 -123.7 293 -293.101 293s-293.101 -126.5 -293.101 -293c0 -166.2 123.7 -292.4 293.101 -292.4z" />
    <glyph glyph-name="Odieresis" unicode="&#xd6;" horiz-adv-x="830" 
d="M267.3 797.8v84.0996h81.7998v-84.0996h-81.7998zM480 797.8v84.0996h81.7998v-84.0996h-81.7998zM414.9 -11.4004c-211.4 0 -364.601 155.001 -364.601 361.101c0 206.4 153.2 361.7 364.601 361.7s364.601 -155 364.601 -361.7
c0 -206.4 -153.2 -361.101 -364.601 -361.101zM414.9 57.3008c169.4 0 293.101 125.2 293.101 292.4c0 167.5 -123.7 293 -293.101 293s-293.101 -126.5 -293.101 -293c0 -166.2 123.7 -292.4 293.101 -292.4z" />
    <glyph glyph-name="Ograve" unicode="&#xd2;" horiz-adv-x="830" 
d="M391.8 779.8l-95.5 142h72.7998l77.2998 -142h-54.5996zM414.899 -11.4004c-211.4 0 -364.601 155.001 -364.601 361.101c0 206.4 153.2 361.7 364.601 361.7s364.601 -155 364.601 -361.7c0 -206.4 -153.2 -361.101 -364.601 -361.101zM414.899 57.3008
c169.4 0 293.101 125.2 293.101 292.4c0 167.5 -123.7 293 -293.101 293s-293.101 -126.5 -293.101 -293c0 -166.2 123.7 -292.4 293.101 -292.4z" />
    <glyph glyph-name="Ohungarumlaut" unicode="&#x150;" horiz-adv-x="830" 
d="M297.6 779.8l67.2998 142h65.0996l-80.5996 -142h-51.7998zM458.999 779.8l81.2998 142h67.9004l-96.7002 -142h-52.5zM414.898 -11.4004c-211.4 0 -364.601 155.001 -364.601 361.101c0 206.4 153.2 361.7 364.601 361.7s364.601 -155 364.601 -361.7
c0 -206.4 -153.2 -361.101 -364.601 -361.101zM414.898 57.3008c169.4 0 293.101 125.2 293.101 292.4c0 167.5 -123.7 293 -293.101 293s-293.101 -126.5 -293.101 -293c0 -166.2 123.7 -292.4 293.101 -292.4z" />
    <glyph glyph-name="Omacron" unicode="&#x14c;" horiz-adv-x="830" 
d="M259.2 819.42v59.1602h313v-59.1602h-313zM414.9 -11.4004c-211.4 0 -364.601 155.001 -364.601 361.101c0 206.4 153.2 361.7 364.601 361.7s364.601 -155 364.601 -361.7c0 -206.4 -153.2 -361.101 -364.601 -361.101zM414.9 57.3008
c169.4 0 293.101 125.2 293.101 292.4c0 167.5 -123.7 293 -293.101 293s-293.101 -126.5 -293.101 -293c0 -166.2 123.7 -292.4 293.101 -292.4z" />
    <glyph glyph-name="Oslash" unicode="&#xd8;" horiz-adv-x="834" 
d="M635.61 641.72c91.1504 -63.3096 148.791 -169.109 148.791 -293.02c0 -204.4 -154.8 -357.101 -363 -357.101c-57.0801 0 -109.55 11.4902 -156.67 32.6006l-51.8301 -86.2002h-76.2998l70.5098 114.74c-96.4902 62.6396 -157.51 170.22 -157.51 296.56
c0 205.1 156.1 359.8 364.3 359.8c60.0498 0 115.93 -13.2197 164.56 -36.9297l54.1396 89.8301h76.2998zM121.102 350c0 -101.12 47.7402 -187.279 122.561 -238.6l300.56 501.57c-38.7598 17.7197 -83.2598 27.4297 -130.319 27.4297
c-166.9 0 -292.801 -125.9 -292.801 -290.4zM420.002 60.3008c166.9 0 292.199 123.2 292.199 288.4c0 98.6797 -43.5996 182.029 -112.979 234.06l-299.13 -499.24c36.04 -14.54 75.9805 -23.2197 119.91 -23.2197z" />
    <glyph glyph-name="Oslashacute" unicode="&#x1fe;" horiz-adv-x="834" 
d="M528.9 921.8l-95.5 -142h-54.5996l77.2998 142h72.7998zM635.61 641.72c91.1504 -63.3096 148.791 -169.109 148.791 -293.02c0 -204.4 -154.8 -357.101 -363 -357.101c-57.0801 0 -109.55 11.4902 -156.67 32.6006l-51.8301 -86.2002h-76.2998l70.5098 114.74
c-96.4902 62.6396 -157.51 170.22 -157.51 296.56c0 205.1 156.1 359.8 364.3 359.8c60.0498 0 115.93 -13.2197 164.56 -36.9297l54.1396 89.8301h76.2998zM121.102 350c0 -101.12 47.7402 -187.279 122.561 -238.6l300.56 501.57
c-38.7598 17.7197 -83.2598 27.4297 -130.319 27.4297c-166.9 0 -292.801 -125.9 -292.801 -290.4zM420.002 60.3008c166.9 0 292.199 123.2 292.199 288.4c0 98.6797 -43.5996 182.029 -112.979 234.06l-299.13 -499.24c36.04 -14.54 75.9805 -23.2197 119.91 -23.2197z
" />
    <glyph glyph-name="Otilde" unicode="&#xd5;" horiz-adv-x="830" 
d="M487.9 784.6c-43.4004 0 -69.3008 21.8008 -96.2012 50.1006c-21.4004 22.7998 -37.3008 36.2002 -58.4004 36.2002c-29.5996 0 -50.6992 -26.9004 -50.6992 -70.4004v-11h-43.5v13.0996c0 70.7998 34.9004 117.399 93.5 117.399c40.5 0 63.2002 -20 89.4004 -47.5
c21.9004 -24 39.2002 -38.7998 65.2002 -38.7998c30.5996 0 50 25.9004 50 70.4004v9h44.2002v-10.4004c0 -71.5 -36.2998 -118.1 -93.5 -118.1zM414.9 -11.3994c-211.4 0 -364.601 155.001 -364.601 361.101c0 206.4 153.2 361.7 364.601 361.7
s364.601 -155 364.601 -361.7c0 -206.4 -153.2 -361.101 -364.601 -361.101zM414.9 57.3018c169.4 0 293.101 125.2 293.101 292.4c0 167.5 -123.7 293 -293.101 293s-293.101 -126.5 -293.101 -293c0 -166.2 123.7 -292.4 293.101 -292.4z" />
    <glyph glyph-name="OE" unicode="&#x152;" horiz-adv-x="965" 
d="M569 65.9004l347.601 0.000976562v-65.9004h-418.4v1.0498c-36.6504 -8.16016 -74.4404 -12.4502 -111.601 -12.4502c-187.2 0 -336 154.3 -336 361.1c0 205 146 361.7 336 361.7c38.0498 0 75.54 -3.86035 111.6 -12.0605v0.660156h407.4v-65.2002h-336.6v-246h310.6
v-63.7998h-310.6v-259.1zM395.001 58.001c34.75 0 69.2803 3 103.2 8.62012v565.5c-38.4502 6.91016 -71.7598 10.5801 -105.3 10.5801c-152.9 0 -270.801 -126.5 -270.801 -293c0 -172.5 116.5 -291.7 272.9 -291.7z" />
    <glyph glyph-name="P" unicode="P" horiz-adv-x="606" 
d="M345.5 700c129.7 0 228.3 -93.6006 228.3 -219.7c0 -125.7 -97.5996 -220 -228.3 -220h-176v-260.3h-70.0996v700h246.1zM342 328.299c92.9004 0 160.301 64.7998 160.301 152c0 86.9004 -67.4004 151.7 -160.301 151.7h-172.5v-303.7h172.5z" />
    <glyph glyph-name="Thorn" unicode="&#xde;" horiz-adv-x="619" 
d="M345.5 570.7c133.2 0 228.3 -92.2002 228.3 -220.7c0 -129.2 -94.7998 -220.7 -228.3 -220.7h-176v-129.3h-70.0996v700h70.0996v-129.3h176zM342 195.9c92.9004 0 160.301 64.1006 160.301 154.101s-67.4004 154.1 -160.301 154.1h-172.5v-308.2h172.5z" />
    <glyph glyph-name="Q" unicode="Q" horiz-adv-x="830" 
d="M791 -89.4004h-86.001l-107.29 122.61c-52.8096 -28.5996 -114.8 -44.6094 -182.81 -44.6094c-211.4 0 -364.601 155 -364.601 361.1c0 206.4 153.2 361.7 364.601 361.7s364.601 -155 364.601 -361.7c0 -115.66 -48.0996 -215.08 -127.59 -280.15zM414.899 57.2998
c49.6797 0 95.4404 10.7705 135.29 30.2109l-172.89 197.59h86l141.95 -162.23c63.9297 52.6797 102.75 133.16 102.75 226.83c0 167.5 -123.7 293 -293.101 293s-293.101 -126.5 -293.101 -293c0 -166.2 123.7 -292.4 293.101 -292.4z" />
    <glyph glyph-name="R" unicode="R" horiz-adv-x="641" 
d="M514 0l-167.342 283.499h-177.16v-283.5h-70.0996v700h261.9c128.4 0 223.101 -87.2998 223.101 -209.1c0 -100.53 -66.3496 -178.08 -163.27 -200.68l171.97 -290.22h-79.0996zM169.498 633.399v-283.301h188.3c92.2998 0 155.1 59.2002 155.1 141.5
c0 81.9004 -63.0996 141.801 -155.1 141.801h-188.3z" />
    <glyph glyph-name="Racute" unicode="&#x154;" horiz-adv-x="641" 
d="M411.1 921.8l-95.5 -142h-54.5996l77.2998 142h72.7998zM514 -0l-167.342 283.499h-177.16v-283.5h-70.0996v700h261.9c128.4 0 223.101 -87.2998 223.101 -209.1c0 -100.53 -66.3496 -178.08 -163.27 -200.68l171.97 -290.22h-79.0996zM169.498 633.399v-283.301h188.3
c92.2998 0 155.1 59.2002 155.1 141.5c0 81.9004 -63.0996 141.801 -155.1 141.801h-188.3z" />
    <glyph glyph-name="Rcaron" unicode="&#x158;" horiz-adv-x="641" 
d="M336.7 779.8h-78l-119.2 142h61.2002l96.5303 -102.38l97.7695 102.38h61.2002zM514 -0l-167.342 283.499h-177.16v-283.5h-70.0996v700h261.9c128.4 0 223.101 -87.2998 223.101 -209.1c0 -100.53 -66.3496 -178.08 -163.27 -200.68l171.97 -290.22h-79.0996z
M169.498 633.399v-283.301h188.3c92.2998 0 155.1 59.2002 155.1 141.5c0 81.9004 -63.0996 141.801 -155.1 141.801h-188.3z" />
    <glyph glyph-name="S" unicode="S" horiz-adv-x="592" 
d="M302.3 -8.7002c-152 0 -254.3 86.1006 -254.3 221.2h71.5c0 -94.5 75.2998 -152.5 182.1 -152.5c96.9004 0 170.301 53 170.301 134.8c0 91.2002 -87.9004 111.101 -183.2 133.001c-108.3 25.0996 -226.8 52.8994 -226.8 189.399c0 118.1 91.9004 191.5 234 191.5
c141 0 228.8 -79.5 228.8 -203.3h-69.4004c0 84.5996 -67.0996 136 -160.8 136c-94.7998 0 -162.5 -46.7002 -162.5 -121.4c0 -86.2002 86.4004 -106.101 180.4 -127.7c110.3 -26.0996 231.7 -54.5996 231.7 -196.8c0 -128 -103.9 -204.2 -241.801 -204.2z" />
    <glyph glyph-name="Sacute" unicode="&#x15a;" horiz-adv-x="592" 
d="M252.3 779.8l77.2998 142h72.7998l-95.5 -142h-54.5996zM302.3 -8.7002c-152 0 -254.3 86.1006 -254.3 221.2h71.5c0 -94.5 75.2998 -152.5 182.1 -152.5c96.9004 0 170.301 53 170.301 134.8c0 91.2002 -87.9004 111.101 -183.2 133.001
c-108.3 25.0996 -226.8 52.8994 -226.8 189.399c0 118.1 91.9004 191.5 234 191.5c141 0 228.8 -79.5 228.8 -203.3h-69.4004c0 84.5996 -67.0996 136 -160.8 136c-94.7998 0 -162.5 -46.7002 -162.5 -121.4c0 -86.2002 86.4004 -106.101 180.4 -127.7
c110.3 -26.0996 231.7 -54.5996 231.7 -196.8c0 -128 -103.9 -204.2 -241.801 -204.2z" />
    <glyph glyph-name="Scaron" unicode="&#x160;" horiz-adv-x="592" 
d="M386.3 921.8h61.2002l-119.5 -142h-78l-119.2 142h61.2002l96.5303 -102.38zM302.3 -8.7002c-152 0 -254.3 86.1006 -254.3 221.2h71.5c0 -94.5 75.2998 -152.5 182.1 -152.5c96.9004 0 170.301 53 170.301 134.8c0 91.2002 -87.9004 111.101 -183.2 133.001
c-108.3 25.0996 -226.8 52.8994 -226.8 189.399c0 118.1 91.9004 191.5 234 191.5c141 0 228.8 -79.5 228.8 -203.3h-69.4004c0 84.5996 -67.0996 136 -160.8 136c-94.7998 0 -162.5 -46.7002 -162.5 -121.4c0 -86.2002 86.4004 -106.101 180.4 -127.7
c110.3 -26.0996 231.7 -54.5996 231.7 -196.8c0 -128 -103.9 -204.2 -241.801 -204.2z" />
    <glyph glyph-name="Scedilla" unicode="&#x15e;" horiz-adv-x="592" 
d="M544.1 195.5c0 -120.87 -92.6406 -195.55 -219.07 -203.5l-12.1201 -43.25c55.7305 -6.20996 94.29 -42.4404 94.29 -91.0508c0 -54.5996 -49.5996 -93.3994 -117.3 -93.3994h-65.9004v42.7998h65.2002c37.2002 0 63.2998 20.9004 63.2998 51.3008
c0 29.4004 -26.4004 51.3008 -64.6006 51.3008h-22.5996l-7.59961 10.7002l18.5098 71.7695c-137.5 9.33984 -228.21 93.1094 -228.21 220.329h71.5c0 -94.5 75.2998 -152.5 182.1 -152.5c96.9004 0 170.301 53 170.301 134.8c0 91.2002 -87.9004 111.101 -183.2 133.001
c-108.3 25.0996 -226.8 52.8994 -226.8 189.399c0 118.1 91.9004 191.5 234 191.5c141 0 228.8 -79.5 228.8 -203.3h-69.4004c0 84.5996 -67.0996 136 -160.8 136c-94.7998 0 -162.5 -46.7002 -162.5 -121.4c0 -86.2002 86.4004 -106.101 180.4 -127.7
c110.3 -26.0996 231.7 -54.5996 231.7 -196.8z" />
    <glyph glyph-name="Scircumflex" unicode="&#x15c;" horiz-adv-x="592" 
d="M447.5 779.8h-61.2002l-97.7695 102.37l-96.5303 -102.37h-61.2002l119.2 142h78zM302.3 -8.7002c-152 0 -254.3 86.1006 -254.3 221.2h71.5c0 -94.5 75.2998 -152.5 182.1 -152.5c96.9004 0 170.301 53 170.301 134.8c0 91.2002 -87.9004 111.101 -183.2 133.001
c-108.3 25.0996 -226.8 52.8994 -226.8 189.399c0 118.1 91.9004 191.5 234 191.5c141 0 228.8 -79.5 228.8 -203.3h-69.4004c0 84.5996 -67.0996 136 -160.8 136c-94.7998 0 -162.5 -46.7002 -162.5 -121.4c0 -86.2002 86.4004 -106.101 180.4 -127.7
c110.3 -26.0996 231.7 -54.5996 231.7 -196.8c0 -128 -103.9 -204.2 -241.801 -204.2z" />
    <glyph glyph-name="uni1E9E" unicode="&#x1e9e;" horiz-adv-x="676" 
d="M426.9 444.92c123.82 -12.1504 202.2 -93.501 202.2 -216.221c0 -132.9 -96.7998 -228.7 -253 -228.7h-91.2002v68h91.2002c108.8 0 181.5 65.5 181.5 160.7c0 94.7002 -72.4004 159.3 -180.601 159.3h-54.7002v15.7002l138.72 229h-127.92
c-111.1 0 -171.199 -59.0996 -171.199 -170.199v-462.5h-70.0996v469.5c0 144.4 86.0996 230.5 230.8 230.5h249.6v-14.2998z" />
    <glyph glyph-name="T" unicode="T" horiz-adv-x="549" 
d="M527.2 700v-65.9004h-217.9v-634.1h-70.0996v634.1h-217.9v65.9004h505.9z" />
    <glyph glyph-name="Tbar" unicode="&#x166;" horiz-adv-x="549" 
d="M527.2 634.1h-217.9v-246.4h160.3v-61.7002h-160.3v-326h-70.0996v326h-159.6v61.7002h159.6v246.4h-217.9v65.9004h505.9v-65.9004z" />
    <glyph glyph-name="Tcaron" unicode="&#x164;" horiz-adv-x="549" 
d="M313.1 779.8h-78l-119.2 142h61.2002l96.5303 -102.38l97.7695 102.38h61.2002zM527.199 700v-65.9004h-217.9v-634.1h-70.0996v634.1h-217.9v65.9004h505.9z" />
    <glyph glyph-name="U" unicode="U" horiz-adv-x="723" 
d="M361.8 -10.7998c-156 0 -270.999 112.4 -270.999 270.601v440.2h70.7998v-435.3c0 -122.5 83.0996 -206.8 200.199 -206.8c116.4 0 199.5 84.2998 199.5 206.8v435.3h70.7998v-440.2c0 -158.2 -115 -270.601 -270.3 -270.601z" />
    <glyph glyph-name="Uacute" unicode="&#xda;" horiz-adv-x="723" 
d="M324.6 779.8l77.2998 142h72.7998l-95.5 -142h-54.5996zM361.8 -10.7998c-156 0 -270.999 112.4 -270.999 270.601v440.2h70.7998v-435.3c0 -122.5 83.0996 -206.8 200.199 -206.8c116.4 0 199.5 84.2998 199.5 206.8v435.3h70.7998v-440.2
c0 -158.2 -115 -270.601 -270.3 -270.601z" />
    <glyph glyph-name="Ubreve" unicode="&#x16c;" horiz-adv-x="723" 
d="M361.8 773.9c-90.7002 0 -151.301 55.0996 -151.301 147.899h54v-2.40039c0 -63.7998 39.0996 -98.5 97.2998 -98.5c58.5 0 95.9004 34.7002 95.9004 98.5v2.40039h55.4004c0 -92.7998 -60.5996 -147.899 -151.3 -147.899zM361.799 -10.7998
c-156 0 -270.999 112.4 -270.999 270.601v440.2h70.7998v-435.3c0 -122.5 83.0996 -206.8 200.199 -206.8c116.4 0 199.5 84.2998 199.5 206.8v435.3h70.7998v-440.2c0 -158.2 -115 -270.601 -270.3 -270.601z" />
    <glyph glyph-name="Ucircumflex" unicode="&#xdb;" horiz-adv-x="723" 
d="M519.8 779.8h-61.2002l-97.7695 102.37l-96.5303 -102.37h-61.2002l119.2 142h78zM361.8 -10.7998c-156 0 -270.999 112.4 -270.999 270.601v440.2h70.7998v-435.3c0 -122.5 83.0996 -206.8 200.199 -206.8c116.4 0 199.5 84.2998 199.5 206.8v435.3h70.7998v-440.2
c0 -158.2 -115 -270.601 -270.3 -270.601z" />
    <glyph glyph-name="Udieresis" unicode="&#xdc;" horiz-adv-x="723" 
d="M214.2 797.8v84.0996h81.7998v-84.0996h-81.7998zM426.9 797.8v84.0996h81.7998v-84.0996h-81.7998zM361.801 -10.8008c-156 0 -270.999 112.4 -270.999 270.601v440.2h70.7998v-435.3c0 -122.5 83.0996 -206.8 200.199 -206.8c116.4 0 199.5 84.2998 199.5 206.8v435.3
h70.7998v-440.2c0 -158.2 -115 -270.601 -270.3 -270.601z" />
    <glyph glyph-name="Ugrave" unicode="&#xd9;" horiz-adv-x="723" 
d="M338.7 779.8l-95.5 142h72.7998l77.2998 -142h-54.5996zM361.8 -10.7998c-156 0 -270.999 112.4 -270.999 270.601v440.2h70.7998v-435.3c0 -122.5 83.0996 -206.8 200.199 -206.8c116.4 0 199.5 84.2998 199.5 206.8v435.3h70.7998v-440.2
c0 -158.2 -115 -270.601 -270.3 -270.601z" />
    <glyph glyph-name="Uhungarumlaut" unicode="&#x170;" horiz-adv-x="723" 
d="M244.5 779.8l67.2998 142h65.0996l-80.5996 -142h-51.7998zM405.899 779.8l81.2998 142h67.9004l-96.7002 -142h-52.5zM361.799 -10.7998c-156 0 -270.999 112.4 -270.999 270.601v440.2h70.7998v-435.3c0 -122.5 83.0996 -206.8 200.199 -206.8
c116.4 0 199.5 84.2998 199.5 206.8v435.3h70.7998v-440.2c0 -158.2 -115 -270.601 -270.3 -270.601z" />
    <glyph glyph-name="Umacron" unicode="&#x16a;" horiz-adv-x="723" 
d="M206.1 819.42v59.1504h313v-59.1504h-313zM361.8 -10.7998c-156 0 -270.999 112.4 -270.999 270.601v440.2h70.7998v-435.3c0 -122.5 83.0996 -206.8 200.199 -206.8c116.4 0 199.5 84.2998 199.5 206.8v435.3h70.7998v-440.2c0 -158.2 -115 -270.601 -270.3 -270.601z
" />
    <glyph glyph-name="Uogonek" unicode="&#x172;" horiz-adv-x="722" 
d="M561.3 700l70.1016 -0.000976562v-438.8c0 -138.4 -82.5996 -218.601 -180.899 -255.601c-55.4004 -20.9004 -98.3008 -70.5 -98.3008 -118.3c0 -42.0996 33.2002 -66.7998 79.7998 -66.7998c16.4004 0 32.5 3.40039 47.9004 9.80078v-41.7002
c-21.7002 -10.2998 -46.5 -15.0996 -69.5996 -15.0996c-66.2002 0 -117 37.7002 -117 99.1006c0 39.5195 21.75 86.1191 57.9004 118.06c-151 4.16016 -260.4 115.43 -260.4 270.54v438.8h70.0996v-436c0 -121.1 83.0996 -204 200.199 -204s200.199 82.9004 200.199 204v436
z" />
    <glyph glyph-name="Uring" unicode="&#x16e;" horiz-adv-x="723" 
d="M361.66 762.34c-68.9297 0 -116.72 46.0801 -116.72 110.49c0 65.1104 47.79 109.79 116.72 109.79c68.2305 0 116.03 -44.6797 116.03 -109.79c0 -64.4102 -47.7998 -110.49 -116.03 -110.49zM361.66 804.66c41.5 0 70.21 27.6904 70.21 68.1709
c0 41.1797 -28.71 68.1699 -70.21 68.1699c-42.2002 0 -70.9004 -26.9902 -70.9004 -68.1699c0 -40.4805 28.7002 -68.1709 70.9004 -68.1709zM361.8 -10.7998c-156 0 -270.999 112.4 -270.999 270.601v440.2h70.7998v-435.3c0 -122.5 83.0996 -206.8 200.199 -206.8
c116.4 0 199.5 84.2998 199.5 206.8v435.3h70.7998v-440.2c0 -158.2 -115 -270.601 -270.3 -270.601z" />
    <glyph glyph-name="Utilde" unicode="&#x168;" horiz-adv-x="723" 
d="M434.8 784.6c-43.4004 0 -69.3008 21.8008 -96.2012 50.1006c-21.4004 22.7998 -37.3008 36.2002 -58.4004 36.2002c-29.5996 0 -50.6992 -26.9004 -50.6992 -70.4004v-11h-43.5v13.0996c0 70.7998 34.9004 117.399 93.5 117.399c40.5 0 63.2002 -20 89.4004 -47.5
c21.9004 -24 39.2002 -38.7998 65.2002 -38.7998c30.5996 0 50 25.9004 50 70.4004v9h44.2002v-10.4004c0 -71.5 -36.2998 -118.1 -93.5 -118.1zM361.8 -10.7998c-156 0 -270.999 112.4 -270.999 270.601v440.2h70.7998v-435.3c0 -122.5 83.0996 -206.8 200.199 -206.8
c116.4 0 199.5 84.2998 199.5 206.8v435.3h70.7998v-440.2c0 -158.2 -115 -270.601 -270.3 -270.601z" />
    <glyph glyph-name="V" unicode="V" horiz-adv-x="676" 
d="M575.6 700h76.7002l-280.9 -700h-64l-286.8 700h77.4004l241.52 -594.42z" />
    <glyph glyph-name="W" unicode="W" horiz-adv-x="1023" 
d="M922.5 700h73.9004l-221.8 -700h-61.2002l-202.53 532.15l-198.27 -532.15h-61.2002l-226.8 700h74.5996l185.27 -583.86l211.03 566.16h29.5996l216.23 -566.54z" />
    <glyph glyph-name="Wacute" unicode="&#x1e82;" horiz-adv-x="1023" 
d="M623.2 921.8l-95.5 -142h-54.5996l77.2998 142h72.7998zM922.5 700h73.9004l-221.8 -700h-61.2002l-202.53 532.15l-198.27 -532.15h-61.2002l-226.8 700h74.5996l185.27 -583.86l211.03 566.16h29.5996l216.23 -566.54z" />
    <glyph glyph-name="Wcircumflex" unicode="&#x174;" horiz-adv-x="1023" 
d="M509.33 882.17l-96.5303 -102.37h-61.2002l119.2 142h78l119.5 -142h-61.2002zM922.5 700h73.9004l-221.8 -700h-61.2002l-202.53 532.15l-198.27 -532.15h-61.2002l-226.8 700h74.5996l185.27 -583.86l211.03 566.16h29.5996l216.23 -566.54z" />
    <glyph glyph-name="Wdieresis" unicode="&#x1e84;" horiz-adv-x="1023" 
d="M362.7 797.8v84.0996h81.7998v-84.0996h-81.7998zM575.4 797.8v84.0996h81.7998v-84.0996h-81.7998zM922.5 699.999h73.9004l-221.8 -700h-61.2002l-202.53 532.15l-198.27 -532.15h-61.2002l-226.8 700h74.5996l185.27 -583.86l211.03 566.16h29.5996l216.23 -566.54z
" />
    <glyph glyph-name="Wgrave" unicode="&#x1e80;" horiz-adv-x="1023" 
d="M487.2 779.8l-95.5 142h72.7998l77.2998 -142h-54.5996zM922.5 700h73.9004l-221.8 -700h-61.2002l-202.53 532.15l-198.27 -532.15h-61.2002l-226.8 700h74.5996l185.27 -583.86l211.03 566.16h29.5996l216.23 -566.54z" />
    <glyph glyph-name="X" unicode="X" horiz-adv-x="593" 
d="M584.3 0h-79.4004l-207.96 310.47l-207.04 -310.47h-80.0996l243.85 366.43l-224.35 333.57h79.4004l188.66 -280.95l187.64 280.95h79.4004l-223.7 -335.92z" />
    <glyph glyph-name="Y" unicode="Y" horiz-adv-x="652" 
d="M624 700l-262.1 -421.79v-278.21h-72.2002v278.09l-259.8 421.91h77l219.34 -355.5l220.76 355.5h77z" />
    <glyph glyph-name="Yacute" unicode="&#xdd;" horiz-adv-x="652" 
d="M440 921.8l-95.5 -142h-54.5996l77.2998 142h72.7998zM624 700l-262.1 -421.79v-278.21h-72.2002v278.09l-259.8 421.91h77l219.34 -355.5l220.76 355.5h77z" />
    <glyph glyph-name="Ycircumflex" unicode="&#x176;" horiz-adv-x="652" 
d="M326.13 882.17l-96.5303 -102.37h-61.2002l119.2 142h78l119.5 -142h-61.2002zM624 700l-262.1 -421.79v-278.21h-72.2002v278.09l-259.8 421.91h77l219.34 -355.5l220.76 355.5h77z" />
    <glyph glyph-name="Ydieresis" unicode="&#x178;" horiz-adv-x="652" 
d="M179.5 797.8v84.0996h81.7998v-84.0996h-81.7998zM392.2 797.8v84.0996h81.7998v-84.0996h-81.7998zM624 699.999l-262.1 -421.79v-278.21h-72.2002v278.09l-259.8 421.91h77l219.35 -355.49l220.75 355.49h77z" />
    <glyph glyph-name="Ygrave" unicode="&#x1ef2;" horiz-adv-x="652" 
d="M304 779.8l-95.5 142h72.7998l77.2998 -142h-54.5996zM624 700l-262.1 -421.79v-278.21h-72.2002v278.09l-259.8 421.91h77l219.34 -355.5l220.76 355.5h77z" />
    <glyph glyph-name="Z" unicode="Z" horiz-adv-x="555" 
d="M136.87 65.9004h394.329v-65.9004h-505.8v13l382.04 621.1h-366.64v65.9004h477.7v-13.7998z" />
    <glyph glyph-name="Zacute" unicode="&#x179;" horiz-adv-x="555" 
d="M404.5 921.8l-95.5 -142h-54.5996l77.2998 142h72.7998zM136.87 65.8994h394.329v-65.9004h-505.8v13l382.04 621.1h-366.64v65.9004h477.7v-13.7998z" />
    <glyph glyph-name="Zcaron" unicode="&#x17d;" horiz-adv-x="555" 
d="M330.1 779.8h-78l-119.2 142h61.2002l96.5303 -102.38l97.7695 102.38h61.2002zM136.869 65.8994h394.329v-65.9004h-505.8v13l382.04 621.1h-366.64v65.9004h477.7v-13.7998z" />
    <glyph glyph-name="Zdotaccent" unicode="&#x17b;" horiz-adv-x="555" 
d="M332.5 881.9v-84.0996h-81.7998v84.0996h81.7998zM136.87 65.9004h394.329v-65.9004h-505.8v13l382.04 621.1h-366.64v65.9004h477.7v-13.7998z" />
    <glyph glyph-name="uni0122" unicode="&#x122;" horiz-adv-x="799" 
d="M376 341.3l375.898 0.00195312c-5.2002 -206.9 -148 -352.101 -348 -352.101c-205.7 0 -353.3 152.4 -353.3 360.5c0 207.7 149.4 360.4 351.9 360.4c166.9 0 307.4 -104.8 338.101 -252.1h-72.2002c-30 108.8 -137.5 183.399 -264.5 183.399
c-163.6 0 -281.8 -121.8 -281.8 -291.7c0 -171.9 115.2 -291.801 281.8 -291.801c141.53 0 249.721 87.1797 272.28 216.8h-300.18v66.5996zM368.599 -129.898v69.8984h75.5996v-64.0996c0 -48.2998 -29.5996 -88.7998 -70.6992 -98.8994l-2.09961 33.4004
c24.0996 8.40039 37.6992 29.9004 37.6992 59.7002h-40.5z" />
    <glyph glyph-name="uni0136" unicode="&#x136;" horiz-adv-x="625" 
d="M334.61 363.75l289.791 -363.75h-90.2002l-262.72 329.6h-101.98v-329.6h-70.0996v700h70.0996v-304.5h101.68l239.52 304.5h89.5zM301.802 -129.9v69.8984h75.5996v-64.0996c0 -48.2998 -29.5996 -88.7998 -70.6992 -98.8994l-2.09961 33.4004
c24.0996 8.40039 37.6992 29.9004 37.6992 59.7002h-40.5z" />
    <glyph glyph-name="uni013B" unicode="&#x13b;" horiz-adv-x="509" 
d="M169.5 65.9004h318.601v-65.9004h-388.7v700h70.0996v-634.1zM247.7 -129.899v69.8984h75.5996v-64.0996c0 -48.2998 -29.5996 -88.7998 -70.6992 -98.8994l-2.09961 33.4004c24.0996 8.40039 37.6992 29.9004 37.6992 59.7002h-40.5z" />
    <glyph glyph-name="uni0145" unicode="&#x145;" horiz-adv-x="748" 
d="M579.8 700h68.6992v-700h-59.2998l-421.1 576.93v-576.93h-68.7002v700h63.5l416.9 -572.19v572.19zM334.199 -129.9v69.8984h75.5996v-64.0996c0 -48.2998 -29.5996 -88.7998 -70.6992 -98.8994l-2.09961 33.4004c24.0996 8.40039 37.6992 29.9004 37.6992 59.7002
h-40.5z" />
    <glyph glyph-name="uni0156" unicode="&#x156;" horiz-adv-x="641" 
d="M421.13 290.22l171.968 -290.221h-79.0996l-167.34 283.5h-177.16v-283.5h-70.0996v700h261.9c128.4 0 223.101 -87.2998 223.101 -209.1c0 -100.53 -66.3496 -178.08 -163.27 -200.68zM169.498 633.399v-283.301h188.3c92.2998 0 155.1 59.2002 155.1 141.5
c0 81.9004 -63.0996 141.801 -155.1 141.801h-188.3zM293.398 -129.901v69.8984h75.5996v-64.0996c0 -48.2998 -29.5996 -88.7998 -70.6992 -98.8994l-2.09961 33.4004c24.0996 8.40039 37.6992 29.9004 37.6992 59.7002h-40.5z" />
    <glyph glyph-name="uni0162" unicode="&#x162;" horiz-adv-x="549" 
d="M309.3 0h-12.0977l-13.3496 -47.6504c55.9697 -5.99023 94.3496 -42.6504 94.3496 -91.1504c0 -54.5996 -49.5996 -93.3994 -117.3 -93.3994h-65.9004v42.7998h65.2002c37.2002 0 63.2998 21.2002 63.2998 51.2998c0 29.4004 -26.4004 51.3008 -64.6006 51.3008h-21.9004
l-9 10.7002l20.1797 76.0996h-8.98047v634.1h-217.9v65.9004h505.9v-65.9004h-217.9v-634.1z" />
    <glyph glyph-name="uni0218" unicode="&#x218;" horiz-adv-x="592" 
d="M302.3 -8.7002c-152 0 -254.3 86.1006 -254.3 221.2h71.5c0 -94.5 75.2998 -152.5 182.1 -152.5c96.9004 0 170.301 53 170.301 134.8c0 91.2002 -87.9004 111.101 -183.2 133.001c-108.3 25.0996 -226.8 52.8994 -226.8 189.399c0 118.1 91.9004 191.5 234 191.5
c141 0 228.8 -79.5 228.8 -203.3h-69.4004c0 84.5996 -67.0996 136 -160.8 136c-94.7998 0 -162.5 -46.7002 -162.5 -121.4c0 -86.2002 86.4004 -106.101 180.4 -127.7c110.3 -26.0996 231.7 -54.5996 231.7 -196.8c0 -128 -103.9 -204.2 -241.801 -204.2zM276.2 -226.499
l-2.09961 33.3984c24.0996 8.40039 37.6992 29.9004 37.6992 59.7002h-40.5v69.9004h75.5996v-64.0996c0 -48.2998 -29.5996 -88.7998 -70.6992 -98.8994z" />
    <glyph glyph-name="uni021A" unicode="&#x21a;" horiz-adv-x="549" 
d="M21.2998 700h505.9v-65.9004h-217.9v-634.1h-70.0996v634.1h-217.9v65.9004zM236.3 -129.9v69.8984h75.5996v-64.0996c0 -48.2998 -29.5996 -88.7998 -70.6992 -98.8994l-2.09961 33.4004c24.0996 8.40039 37.6992 29.9004 37.6992 59.7002h-40.5z" />
    <glyph glyph-name="K.ss01" horiz-adv-x="610" 
d="M99.4004 0v700h70.0996v-700h-70.0996zM278.44 363.89l336.26 -363.89h-95.4004l-330.3 357.8v9.5l307.5 332.7h91.9004z" />
    <glyph glyph-name="K.ss03" horiz-adv-x="610" 
d="M99.4004 0v700h70.0996v-700h-70.0996zM278.44 363.89l336.26 -363.89h-95.4004l-330.3 357.8v9.5l307.5 332.7h91.9004z" />
    <glyph glyph-name="K.ss04" horiz-adv-x="610" 
d="M99.4004 0v700h70.0996v-700h-70.0996zM278.44 363.89l336.26 -363.89h-95.4004l-330.3 357.8v9.5l307.5 332.7h91.9004z" />
    <glyph glyph-name="a" unicode="a" horiz-adv-x="700" 
d="M555.8 540h54.6885v-540h-56.7998l-7.65039 96.71c-49.1396 -66.6104 -128.02 -108.11 -222.539 -108.11c-158.8 0 -278.2 121 -278.2 281.4c0 161.1 119.4 281.399 278.2 281.399c94.9902 0 174.181 -41.6699 223.271 -108.8zM328.389 54.5
c123 0 212.7 91.2998 212.7 215.5s-89.7002 215.5 -212.7 215.5c-122.4 0 -213.7 -92.9004 -213.7 -215.5c0 -122.9 91.2998 -215.5 213.7 -215.5z" />
    <glyph glyph-name="aacute" unicode="&#xe1;" horiz-adv-x="700" 
d="M436.1 756.5l-89 -152h-54.5996l70.7998 152h72.7998zM555.8 540h54.6885v-540h-56.7998l-7.65039 96.71c-49.1396 -66.6104 -128.02 -108.11 -222.539 -108.11c-158.8 0 -278.2 121 -278.2 281.4c0 161.1 119.4 281.399 278.2 281.399
c94.9902 0 174.181 -41.6699 223.271 -108.8zM328.389 54.5c123 0 212.7 91.2998 212.7 215.5s-89.7002 215.5 -212.7 215.5c-122.4 0 -213.7 -92.9004 -213.7 -215.5c0 -122.9 91.2998 -215.5 213.7 -215.5z" />
    <glyph glyph-name="abreve" unicode="&#x103;" horiz-adv-x="700" 
d="M336.3 599.2c-92.7998 0 -154.8 58.7998 -154.8 157.3h54v-2.40039c0 -69.5 40.5 -107.9 100.8 -107.9c60.5996 0 99.3994 38.4004 99.3994 107.9v2.40039h55.4004c0 -98.5 -62 -157.3 -154.8 -157.3zM555.8 540h54.6885v-540h-56.7998l-7.65039 96.71
c-49.1396 -66.6104 -128.02 -108.11 -222.539 -108.11c-158.8 0 -278.2 121 -278.2 281.4c0 161.1 119.4 281.399 278.2 281.399c94.9902 0 174.181 -41.6699 223.271 -108.8zM328.389 54.5c123 0 212.7 91.2998 212.7 215.5s-89.7002 215.5 -212.7 215.5
c-122.4 0 -213.7 -92.9004 -213.7 -215.5c0 -122.9 91.2998 -215.5 213.7 -215.5z" />
    <glyph glyph-name="acircumflex" unicode="&#xe2;" horiz-adv-x="700" 
d="M336.64 714.2l-97.1396 -109.7h-61.2002l119.2 152h78l120.2 -152h-61.2002zM555.8 540h54.6885v-540h-56.7998l-7.65039 96.71c-49.1396 -66.6104 -128.02 -108.11 -222.539 -108.11c-158.8 0 -278.2 121 -278.2 281.4c0 161.1 119.4 281.399 278.2 281.399
c94.9902 0 174.181 -41.6699 223.271 -108.8zM328.389 54.5c123 0 212.7 91.2998 212.7 215.5s-89.7002 215.5 -212.7 215.5c-122.4 0 -213.7 -92.9004 -213.7 -215.5c0 -122.9 91.2998 -215.5 213.7 -215.5z" />
    <glyph glyph-name="adieresis" unicode="&#xe4;" horiz-adv-x="700" 
d="M283.1 726.1v-84.0996h-81.7998v84.0996h81.7998zM470.6 726.1v-84.0996h-81.7998v84.0996h81.7998zM555.8 540h54.6885v-540h-56.7998l-7.65039 96.71c-49.1396 -66.6104 -128.02 -108.11 -222.539 -108.11c-158.8 0 -278.2 121 -278.2 281.4
c0 161.1 119.4 281.399 278.2 281.399c94.9902 0 174.181 -41.6699 223.271 -108.8zM328.389 54.5c123 0 212.7 91.2998 212.7 215.5s-89.7002 215.5 -212.7 215.5c-122.4 0 -213.7 -92.9004 -213.7 -215.5c0 -122.9 91.2998 -215.5 213.7 -215.5z" />
    <glyph glyph-name="agrave" unicode="&#xe0;" horiz-adv-x="700" 
d="M371.3 604.5h-54.5996l-89 152h72.7998zM555.8 540h54.6885v-540h-56.7998l-7.65039 96.71c-49.1396 -66.6104 -128.02 -108.11 -222.539 -108.11c-158.8 0 -278.2 121 -278.2 281.4c0 161.1 119.4 281.399 278.2 281.399c94.9902 0 174.181 -41.6699 223.271 -108.8z
M328.389 54.5c123 0 212.7 91.2998 212.7 215.5s-89.7002 215.5 -212.7 215.5c-122.4 0 -213.7 -92.9004 -213.7 -215.5c0 -122.9 91.2998 -215.5 213.7 -215.5z" />
    <glyph glyph-name="amacron" unicode="&#x101;" horiz-adv-x="700" 
d="M492.3 712v-54.7002h-313v54.7002h313zM555.8 540h54.6885v-540h-56.7998l-7.65039 96.71c-49.1396 -66.6104 -128.02 -108.11 -222.539 -108.11c-158.8 0 -278.2 121 -278.2 281.4c0 161.1 119.4 281.399 278.2 281.399c94.9902 0 174.181 -41.6699 223.271 -108.8z
M328.389 54.5c123 0 212.7 91.2998 212.7 215.5s-89.7002 215.5 -212.7 215.5c-122.4 0 -213.7 -92.9004 -213.7 -215.5c0 -122.9 91.2998 -215.5 213.7 -215.5z" />
    <glyph glyph-name="aogonek" unicode="&#x105;" horiz-adv-x="700" 
d="M581.5 -178.8c17.0996 0 33.1982 2.69922 49.998 9.09961v-41c-21 -11 -45.0996 -15.7998 -67.5 -15.7998c-64.7998 0 -113.5 37.7002 -113.5 97.7002c0 62.0498 39.4102 113.78 101.67 148.04l-6.12988 77.46c-49.1396 -66.5996 -128.02 -108.1 -222.539 -108.1
c-158.8 0 -278.2 121 -278.2 281.4c0 161.1 119.4 281.399 278.2 281.399c94.9902 0 174.181 -41.6699 223.271 -108.8l9.03027 97.4004h54.7002v-540c-64.5 -21.5 -106.7 -67 -106.7 -113.4c0 -41.4004 31.7998 -65.4004 77.7002 -65.4004zM328.399 54.499
c123 0 212.7 91.2998 212.7 215.5s-89.7002 215.5 -212.7 215.5c-122.4 0 -213.7 -92.9004 -213.7 -215.5c0 -122.9 91.2998 -215.5 213.7 -215.5z" />
    <glyph glyph-name="aring" unicode="&#xe5;" horiz-adv-x="700" 
d="M336.3 591.1c-64.4004 0 -109.4 43.2998 -109.4 103.899c0 61.2998 45 103.899 109.4 103.899s109.4 -42.5996 109.4 -103.899c0 -60.5996 -45 -103.899 -109.4 -103.899zM336.3 759.6c-39.2002 0 -66.6006 -25.7002 -66.6006 -64.6006
c0 -38.2002 27.4004 -63.9004 66.6006 -63.9004s66.6006 25.7002 66.6006 63.9004c0 38.9004 -27.4004 64.6006 -66.6006 64.6006zM555.8 540h54.6885v-540h-56.7998l-7.65039 96.71c-49.1396 -66.6104 -128.02 -108.11 -222.539 -108.11c-158.8 0 -278.2 121 -278.2 281.4
c0 161.1 119.4 281.399 278.2 281.399c94.9902 0 174.181 -41.6699 223.271 -108.8zM328.389 54.5c123 0 212.7 91.2998 212.7 215.5s-89.7002 215.5 -212.7 215.5c-122.4 0 -213.7 -92.9004 -213.7 -215.5c0 -122.9 91.2998 -215.5 213.7 -215.5z" />
    <glyph glyph-name="atilde" unicode="&#xe3;" horiz-adv-x="700" 
d="M206.7 629.4l-0.00195312 -11h-42.7998v12.4004c0 70.0996 34.9004 116 92.1006 116c40.5 0 63.9004 -20 89.4004 -48.2002c21.2002 -23.2998 37.7998 -37.3994 63.0996 -37.3994c29.9004 0 49.3008 27.2998 49.3008 69.7002v9h43.5v-10.4004
c0 -70.0996 -35.5996 -116 -92.0996 -116c-42 0 -67.2002 21.0996 -93.4004 48.6992c-22.0996 22.7998 -37.2998 36.2002 -59.0996 36.2002c-28.9004 0 -50 -27.5996 -50 -69zM555.798 540h54.6885v-540h-56.7998l-7.65039 96.71
c-49.1396 -66.6104 -128.02 -108.11 -222.539 -108.11c-158.8 0 -278.2 121 -278.2 281.4c0 161.1 119.4 281.399 278.2 281.399c94.9902 0 174.181 -41.6699 223.271 -108.8zM328.387 54.5c123 0 212.7 91.2998 212.7 215.5s-89.7002 215.5 -212.7 215.5
c-122.4 0 -213.7 -92.9004 -213.7 -215.5c0 -122.9 91.2998 -215.5 213.7 -215.5z" />
    <glyph glyph-name="ae" unicode="&#xe6;" horiz-adv-x="1121" 
d="M1078 270.8c0 -9 -0.696289 -17.6006 -1.39648 -26.6006h-475.36c10.96 -111.6 93.1201 -188.3 206.76 -188.3c80.5996 0 146.5 38.2002 183 105h71.7998c-47.4004 -109.6 -139.801 -172.3 -254.801 -172.3c-88.4805 0 -164.48 41.8398 -212.221 108.649
l-4.17969 -98.6504h-50.5l-3.48047 89.8701c-48.6104 -61.4102 -123.25 -99.1699 -211.32 -99.1699c-160.2 0 -281 121 -281 280.7s120.1 280.7 281 280.7c88.2598 0 163.029 -37.9297 211.629 -99.5801l3.87012 90.2803h50.5l3.66016 -98.9004
c47.75 66.4004 123.67 107.9 212.04 107.9c156.2 0 270 -121.1 270 -279.6zM808.004 486.599c-109.39 0 -190.409 -73.3604 -205.469 -180h408.47c-13.4502 108.1 -96.1406 180 -203.001 180zM326.304 55.1982c122.1 0 211.3 91.999 211.3 214.799
c0 124.9 -88.2998 214.801 -211.3 214.801c-121.7 0 -211.601 -91.5 -211.601 -214.8c0 -123.6 89.9004 -214.8 211.601 -214.8z" />
    <glyph glyph-name="aeacute" unicode="&#x1fd;" horiz-adv-x="1121" 
d="M670.4 756.5l-89 -152h-54.5996l70.7998 152h72.7998zM1078 270.8c0 -9 -0.696289 -17.6006 -1.39648 -26.6006h-475.36c10.96 -111.6 93.1201 -188.3 206.76 -188.3c80.5996 0 146.5 38.2002 183 105h71.7998c-47.4004 -109.6 -139.801 -172.3 -254.801 -172.3
c-88.4805 0 -164.48 41.8398 -212.221 108.649l-4.17969 -98.6504h-50.5l-3.48047 89.8701c-48.6104 -61.4102 -123.25 -99.1699 -211.32 -99.1699c-160.2 0 -281 121 -281 280.7s120.1 280.7 281 280.7c88.2598 0 163.029 -37.9297 211.629 -99.5801l3.87012 90.2803h50.5
l3.66016 -98.9004c47.75 66.4004 123.67 107.9 212.04 107.9c156.2 0 270 -121.1 270 -279.6zM808.004 486.599c-109.39 0 -190.409 -73.3604 -205.469 -180h408.47c-13.4502 108.1 -96.1406 180 -203.001 180zM326.304 55.1982c122.1 0 211.3 91.999 211.3 214.799
c0 124.9 -88.2998 214.801 -211.3 214.801c-121.7 0 -211.601 -91.5 -211.601 -214.8c0 -123.6 89.9004 -214.8 211.601 -214.8z" />
    <glyph glyph-name="b" unicode="b" horiz-adv-x="695" 
d="M372.1 551.4c162.1 0 277.199 -120.29 277.199 -281.39c0 -160.4 -115.1 -281.4 -277.199 -281.4c-91.3203 0 -169.271 39.6699 -219.221 103.689l-9.87988 -92.29h-53.2998v732.1h68v-278.1c50.0703 60.4102 125.96 97.3906 214.4 97.3906zM367.199 54.5098
c123 0 212.7 91.2998 212.7 215.5s-89.7002 215.5 -212.7 215.5c-122.4 0 -213.7 -92.5996 -213.7 -215.5c0 -121.9 91.2998 -215.5 213.7 -215.5z" />
    <glyph glyph-name="c" unicode="c" horiz-adv-x="619" 
d="M324.8 -11.4004c-158.8 0 -279.5 121 -279.5 281.4c0 161 120.4 281.4 279.5 281.4c125.8 0 224.5 -73.7998 258.9 -186.2h-67.5996c-33.7002 74.7998 -105.601 120.3 -191.301 120.3c-120.2 0 -210.101 -93.2998 -210.101 -215.5
c0 -121.9 90.9004 -215.5 210.101 -215.5c85.4004 0 155.9 45.2002 191.2 122.7h69c-35.2998 -114.7 -136 -188.601 -260.2 -188.601z" />
    <glyph glyph-name="cacute" unicode="&#x107;" horiz-adv-x="619" 
d="M279.4 604.5l70.7998 152h72.7998l-89 -152h-54.5996zM324.8 -11.4004c-158.8 0 -279.5 121 -279.5 281.4c0 161 120.4 281.4 279.5 281.4c125.8 0 224.5 -73.7998 258.9 -186.2h-67.5996c-33.7002 74.7998 -105.601 120.3 -191.301 120.3
c-120.2 0 -210.101 -93.2998 -210.101 -215.5c0 -121.9 90.9004 -215.5 210.101 -215.5c85.4004 0 155.9 45.2002 191.2 122.7h69c-35.2998 -114.7 -136 -188.601 -260.2 -188.601z" />
    <glyph glyph-name="ccaron" unicode="&#x10d;" horiz-adv-x="619" 
d="M420.7 756.5h61.2002l-120.2 -152h-78l-119.2 152h61.2002l97.1396 -109.7zM324.801 -11.4004c-158.8 0 -279.5 121 -279.5 281.4c0 161 120.4 281.4 279.5 281.4c125.8 0 224.5 -73.7998 258.9 -186.2h-67.5996c-33.7002 74.7998 -105.601 120.3 -191.301 120.3
c-120.2 0 -210.101 -93.2998 -210.101 -215.5c0 -121.9 90.9004 -215.5 210.101 -215.5c85.4004 0 155.9 45.2002 191.2 122.7h69c-35.2998 -114.7 -136 -188.601 -260.2 -188.601z" />
    <glyph glyph-name="ccedilla" unicode="&#xe7;" horiz-adv-x="619" 
d="M585 177.2c-33.96 -110.36 -128.461 -182.952 -246.191 -188.292l-10.1396 -36.4102c57.0703 -5.37988 96.4307 -41.4395 96.4307 -91.999c0 -54.5996 -44 -92.6992 -109.6 -92.6992h-70.7998v40.7002h63.0996c39.2998 0 66.0996 22.2998 66.0996 54.0996
c0 31.5 -27.0996 53.4004 -66.6992 53.4004h-21.9004l-7.59961 7.90039l17.46 66.1299c-143.94 14.0303 -249.86 129.71 -249.86 279.97c0 161 120.4 281.4 279.5 281.4c125.8 0 224.5 -73.7998 258.9 -186.2h-67.5996c-33.7002 74.7998 -105.601 120.3 -191.301 120.3
c-120.2 0 -210.101 -93.2998 -210.101 -215.5c0 -121.9 90.9004 -215.5 210.101 -215.5c85.4004 0 155.9 45.2002 191.2 122.7h69z" />
    <glyph glyph-name="ccircumflex" unicode="&#x109;" horiz-adv-x="619" 
d="M482.6 604.5h-61.2002l-97.8604 109.7l-97.1396 -109.7h-61.2002l119.2 152h78zM324.8 -11.4004c-158.8 0 -279.5 121 -279.5 281.4c0 161 120.4 281.4 279.5 281.4c125.8 0 224.5 -73.7998 258.9 -186.2h-67.5996c-33.7002 74.7998 -105.601 120.3 -191.301 120.3
c-120.2 0 -210.101 -93.2998 -210.101 -215.5c0 -121.9 90.9004 -215.5 210.101 -215.5c85.4004 0 155.9 45.2002 191.2 122.7h69c-35.2998 -114.7 -136 -188.601 -260.2 -188.601z" />
    <glyph glyph-name="cdotaccent" unicode="&#x10b;" horiz-adv-x="619" 
d="M284.4 642v84.0996h77.5996v-84.0996h-77.5996zM324.801 -11.4004c-158.8 0 -279.5 121 -279.5 281.4c0 161 120.4 281.4 279.5 281.4c125.8 0 224.5 -73.7998 258.9 -186.2h-67.5996c-33.7002 74.7998 -105.601 120.3 -191.301 120.3
c-120.2 0 -210.101 -93.2998 -210.101 -215.5c0 -121.9 90.9004 -215.5 210.101 -215.5c85.4004 0 155.9 45.2002 191.2 122.7h69c-35.2998 -114.7 -136 -188.601 -260.2 -188.601z" />
    <glyph glyph-name="d" unicode="d" horiz-adv-x="695" 
d="M536.9 732.1l67.9902 0.000976562v-732.1h-53.2998l-9.73047 91.8301c-49.6699 -63.75 -127.27 -103.23 -219.06 -103.23c-160.9 0 -277.5 121 -277.5 281.4c0 161.1 116.6 281.399 277.5 281.399c88.79 0 164.3 -36.7305 214.1 -96.7705v277.47zM327.69 54.501
c123 0 213.4 92.7002 213.4 215.5c0 123.5 -90.4004 215.5 -213.4 215.5c-122.4 0 -213 -91.9004 -213 -215.5c0 -123.3 90.5996 -215.5 213 -215.5z" />
    <glyph glyph-name="eth" unicode="&#xf0;" horiz-adv-x="645" 
d="M381.39 712.19c132.42 -81.79 205.759 -234.6 206.608 -436.29c0 -169.4 -110.5 -286.601 -271.4 -286.601c-157.7 0 -270.3 109.9 -270.3 263.5c0 151.5 114.7 260 262.601 260c77.5303 0 151.29 -31.8203 199.44 -86.79
c-22.5303 110.31 -84.2998 193.8 -173.229 243.16l-121.41 -112.87l-30.4004 30l110.34 102.61c-50.6104 20.4199 -108.17 31.2002 -170.939 31.29v58.9004c83.2305 -0.0898438 156.631 -15.8301 219.101 -45.4102l72.5996 67.5098l29.7002 -30.7002zM316.599 52.4004
c116.4 0 203.399 86.999 203.399 201.099c-1 116.7 -89.5996 201.101 -203.399 201.101c-117.7 0 -204.4 -87 -204.4 -201.1s87 -201.1 204.4 -201.1z" />
    <glyph glyph-name="dcaron" unicode="&#x10f;" horiz-adv-x="695" 
d="M536.9 454.63l-0.00976562 277.471h68v-732.1h-53.2998l-9.73047 91.8301c-49.6699 -63.75 -127.27 -103.23 -219.06 -103.23c-160.9 0 -277.5 121 -277.5 281.4c0 161.1 116.6 281.399 277.5 281.399c88.79 0 164.3 -36.7305 214.1 -96.7705zM667.19 732.101
l75.5996 -0.000976562v-64.0996c0 -46.5 -29.2998 -88.5 -72.5 -98.2998v35.7998c23.2002 7.2002 36.2002 29 36.2002 56.7002h-39.2998v69.9004zM327.69 54.5c123 0 213.4 92.7002 213.4 215.5c0 123.5 -90.4004 215.5 -213.4 215.5c-122.4 0 -213 -91.9004 -213 -215.5
c0 -123.3 90.5996 -215.5 213 -215.5z" />
    <glyph glyph-name="dcroat" unicode="&#x111;" horiz-adv-x="695" 
d="M686.6 656.4l-0.00976562 -57.498h-81.7002v-598.9h-53.2998l-9.73047 91.8301c-49.6699 -63.75 -127.27 -103.23 -219.06 -103.23c-160.9 0 -277.5 121 -277.5 281.4c0 161.1 116.6 281.399 277.5 281.399c88.79 0 164.3 -36.7305 214.1 -96.7705v144.27h-206.6v57.5
h206.6v75.7002h68v-75.7002h81.7002zM327.689 54.502c123 0 213.4 92.7002 213.4 215.5c0 123.5 -90.4004 215.5 -213.4 215.5c-122.4 0 -213 -91.9004 -213 -215.5c0 -123.3 90.5996 -215.5 213 -215.5z" />
    <glyph glyph-name="e" unicode="e" horiz-adv-x="633" 
d="M589.5 269.7c0 -8.2998 -0.699219 -16.9004 -1.39941 -25.2002h-474.66c10.96 -112.5 93.6602 -189.3 206.061 -189.3c81.2998 0 146.5 39.5996 183 106h71.7998c-47.4004 -109.9 -139.801 -172.601 -254.801 -172.601c-155.8 0 -273.899 121 -273.899 281.7
c0 160.1 118.1 281.1 273.899 281.1c161.1 0 270 -124.6 270 -281.699zM319.501 486.899c-108.58 0 -189.439 -72.5498 -204.689 -179.3h407.14c-15.4297 109.3 -96.7598 179.3 -202.45 179.3z" />
    <glyph glyph-name="eacute" unicode="&#xe9;" horiz-adv-x="633" 
d="M417 756.5l-89 -152h-54.5996l70.7998 152h72.7998zM589.5 269.7c0 -8.2998 -0.699219 -16.9004 -1.39941 -25.2002h-474.66c10.96 -112.5 93.6602 -189.3 206.061 -189.3c81.2998 0 146.5 39.5996 183 106h71.7998c-47.4004 -109.9 -139.801 -172.601 -254.801 -172.601
c-155.8 0 -273.899 121 -273.899 281.7c0 160.1 118.1 281.1 273.899 281.1c161.1 0 270 -124.6 270 -281.699zM319.501 486.899c-108.58 0 -189.439 -72.5498 -204.689 -179.3h407.14c-15.4297 109.3 -96.7598 179.3 -202.45 179.3z" />
    <glyph glyph-name="ebreve" unicode="&#x115;" horiz-adv-x="633" 
d="M317.2 599.2c-92.7998 0 -154.8 58.7998 -154.8 157.3h54v-2.40039c0 -69.5 40.5 -107.9 100.8 -107.9c60.5996 0 99.3994 38.4004 99.3994 107.9v2.40039h55.4004c0 -98.5 -62 -157.3 -154.8 -157.3zM589.5 269.7c0 -8.2998 -0.699219 -16.9004 -1.39941 -25.2002
h-474.66c10.96 -112.5 93.6602 -189.3 206.061 -189.3c81.2998 0 146.5 39.5996 183 106h71.7998c-47.4004 -109.9 -139.801 -172.601 -254.801 -172.601c-155.8 0 -273.899 121 -273.899 281.7c0 160.1 118.1 281.1 273.899 281.1c161.1 0 270 -124.6 270 -281.699z
M319.501 486.899c-108.58 0 -189.439 -72.5498 -204.689 -179.3h407.14c-15.4297 109.3 -96.7598 179.3 -202.45 179.3z" />
    <glyph glyph-name="ecaron" unicode="&#x11b;" horiz-adv-x="633" 
d="M355.7 604.5h-78l-119.2 152h61.2002l97.1396 -109.7l97.8604 109.7h61.2002zM589.5 269.7c0 -8.2998 -0.699219 -16.9004 -1.39941 -25.2002h-474.66c10.96 -112.5 93.6602 -189.3 206.061 -189.3c81.2998 0 146.5 39.5996 183 106h71.7998
c-47.4004 -109.9 -139.801 -172.601 -254.801 -172.601c-155.8 0 -273.899 121 -273.899 281.7c0 160.1 118.1 281.1 273.899 281.1c161.1 0 270 -124.6 270 -281.699zM319.501 486.899c-108.58 0 -189.439 -72.5498 -204.689 -179.3h407.14
c-15.4297 109.3 -96.7598 179.3 -202.45 179.3z" />
    <glyph glyph-name="ecircumflex" unicode="&#xea;" horiz-adv-x="633" 
d="M317.54 714.2l-97.1396 -109.7h-61.2002l119.2 152h78l120.2 -152h-61.2002zM589.5 269.7c0 -8.2998 -0.699219 -16.9004 -1.39941 -25.2002h-474.66c10.96 -112.5 93.6602 -189.3 206.061 -189.3c81.2998 0 146.5 39.5996 183 106h71.7998
c-47.4004 -109.9 -139.801 -172.601 -254.801 -172.601c-155.8 0 -273.899 121 -273.899 281.7c0 160.1 118.1 281.1 273.899 281.1c161.1 0 270 -124.6 270 -281.699zM319.501 486.899c-108.58 0 -189.439 -72.5498 -204.689 -179.3h407.14
c-15.4297 109.3 -96.7598 179.3 -202.45 179.3z" />
    <glyph glyph-name="edieresis" unicode="&#xeb;" horiz-adv-x="633" 
d="M264 726.1v-84.0996h-81.7998v84.0996h81.7998zM451.5 726.1v-84.0996h-81.7998v84.0996h81.7998zM589.5 269.7c0 -8.2998 -0.699219 -16.9004 -1.39941 -25.2002h-474.66c10.96 -112.5 93.6602 -189.3 206.061 -189.3c81.2998 0 146.5 39.5996 183 106h71.7998
c-47.4004 -109.9 -139.801 -172.601 -254.801 -172.601c-155.8 0 -273.899 121 -273.899 281.7c0 160.1 118.1 281.1 273.899 281.1c161.1 0 270 -124.6 270 -281.699zM319.501 486.899c-108.58 0 -189.439 -72.5498 -204.689 -179.3h407.14
c-15.4297 109.3 -96.7598 179.3 -202.45 179.3z" />
    <glyph glyph-name="edotaccent" unicode="&#x117;" horiz-adv-x="633" 
d="M356 726.1v-84.0996h-77.5996v84.0996h77.5996zM589.5 269.7c0 -8.2998 -0.699219 -16.9004 -1.39941 -25.2002h-474.66c10.96 -112.5 93.6602 -189.3 206.061 -189.3c81.2998 0 146.5 39.5996 183 106h71.7998c-47.4004 -109.9 -139.801 -172.601 -254.801 -172.601
c-155.8 0 -273.899 121 -273.899 281.7c0 160.1 118.1 281.1 273.899 281.1c161.1 0 270 -124.6 270 -281.699zM319.501 486.899c-108.58 0 -189.439 -72.5498 -204.689 -179.3h407.14c-15.4297 109.3 -96.7598 179.3 -202.45 179.3z" />
    <glyph glyph-name="egrave" unicode="&#xe8;" horiz-adv-x="633" 
d="M352.2 604.5h-54.5996l-89 152h72.7998zM589.501 269.7c0 -8.2998 -0.699219 -16.9004 -1.39941 -25.2002h-474.66c10.96 -112.5 93.6602 -189.3 206.061 -189.3c81.2998 0 146.5 39.5996 183 106h71.7998c-47.4004 -109.9 -139.801 -172.601 -254.801 -172.601
c-155.8 0 -273.899 121 -273.899 281.7c0 160.1 118.1 281.1 273.899 281.1c161.1 0 270 -124.6 270 -281.699zM319.502 486.899c-108.58 0 -189.439 -72.5498 -204.689 -179.3h407.14c-15.4297 109.3 -96.7598 179.3 -202.45 179.3z" />
    <glyph glyph-name="emacron" unicode="&#x113;" horiz-adv-x="633" 
d="M473.2 712v-54.7002h-313v54.7002h313zM589.5 269.7c0 -8.2998 -0.699219 -16.9004 -1.39941 -25.2002h-474.66c10.96 -112.5 93.6602 -189.3 206.061 -189.3c81.2998 0 146.5 39.5996 183 106h71.7998c-47.4004 -109.9 -139.801 -172.601 -254.801 -172.601
c-155.8 0 -273.899 121 -273.899 281.7c0 160.1 118.1 281.1 273.899 281.1c161.1 0 270 -124.6 270 -281.699zM319.501 486.899c-108.58 0 -189.439 -72.5498 -204.689 -179.3h407.14c-15.4297 109.3 -96.7598 179.3 -202.45 179.3z" />
    <glyph glyph-name="eogonek" unicode="&#x119;" horiz-adv-x="634" 
d="M590.9 276c0 -10.4004 -0.700195 -21.1006 -2.10059 -31.501h-474.78c10.96 -111.43 94.0596 -189.3 206.88 -189.3c80.5996 0 145.1 38.9004 182.3 106h71.7998c-30.5 -70.5 -82.0996 -121.2 -151.5 -152.8c-59.5996 -29.2002 -94.0996 -77.5 -94.0996 -120.4
c0 -41.4004 29.7002 -66.8008 77.7002 -66.8008c17.0996 0 33.8994 2.7002 49.999 9.10059v-40.2998c-19.5996 -10.2998 -43.6992 -16.5 -66.7988 -16.5c-67.5996 0 -113.5 39.7998 -113.5 97c0 41.2197 24.4902 87.1201 61.71 118.92
c-5.17969 -0.0996094 -10.9395 -0.119141 -17.6094 -0.119141c-156.5 0 -274.6 121.7 -274.6 281.7c0 158.7 118.1 279.7 274.6 279.7c159.7 0 270 -125.3 270 -274.7zM320.9 486.9c-109.5 0 -193.89 -74.1299 -205.46 -179.3h407.42
c-14.8799 108.14 -95.6602 179.3 -201.96 179.3z" />
    <glyph glyph-name="f" unicode="f" horiz-adv-x="381" 
d="M368.3 537.2l-0.000976562 -57.5h-174v-479.7h-68v479.7h-109.8v57.5h109.8v43.4004c0 118.5 50.9004 172.6 173.601 172.6h67.7002v-55.4004h-55.7998c-87.2998 0 -119.6 -31.5996 -119.6 -118.6v-42h176.1z" />
    <glyph glyph-name="g" unicode="g" horiz-adv-x="675" 
d="M538.9 540l46.2891 -0.000976562v-463.2c0 -174.3 -99.2002 -280.3 -261.8 -280.3c-128.6 0 -219.699 66.4004 -250.499 177.601h68c26.5996 -73.7002 97.1992 -115.2 182.499 -115.2c117.8 0 195.2 78.2998 195.2 209.5v44.7305
c-48.0703 -58.9502 -121.98 -95.2305 -208.2 -95.2305c-149.7 0 -264.8 115.4 -264.8 266.4c0 150.7 115.4 267.101 264.801 267.101c91.5898 0 169.84 -41.9502 217.54 -108.521zM317.39 83.0986c116.1 0 200.5 85.2998 200.5 201.2
c0 116.3 -84.7002 201.899 -200.5 201.899c-116.1 0 -202.399 -86.9004 -202.399 -201.9c0 -114.6 86.2998 -201.199 202.399 -201.199z" />
    <glyph glyph-name="gbreve" unicode="&#x11f;" horiz-adv-x="675" 
d="M321.3 599.2c-92.7998 0 -154.8 58.7998 -154.8 157.3h54v-2.40039c0 -69.5 40.5 -107.9 100.8 -107.9c60.5996 0 99.3994 38.4004 99.3994 107.9v2.40039h55.4004c0 -98.5 -62 -157.3 -154.8 -157.3zM538.899 540l46.2891 -0.000976562v-463.2
c0 -174.3 -99.2002 -280.3 -261.8 -280.3c-128.6 0 -219.699 66.4004 -250.499 177.601h68c26.5996 -73.7002 97.1992 -115.2 182.499 -115.2c117.8 0 195.2 78.2998 195.2 209.5v44.7305c-48.0703 -58.9502 -121.98 -95.2305 -208.2 -95.2305
c-149.7 0 -264.8 115.4 -264.8 266.4c0 150.7 115.4 267.101 264.801 267.101c91.5898 0 169.84 -41.9502 217.54 -108.521zM317.389 83.0986c116.1 0 200.5 85.2998 200.5 201.2c0 116.3 -84.7002 201.899 -200.5 201.899c-116.1 0 -202.399 -86.9004 -202.399 -201.9
c0 -114.6 86.2998 -201.199 202.399 -201.199z" />
    <glyph glyph-name="gcircumflex" unicode="&#x11d;" horiz-adv-x="675" 
d="M321.64 714.2l-97.1396 -109.7h-61.2002l119.2 152h78l120.2 -152h-61.2002zM538.9 540l46.2891 -0.000976562v-463.2c0 -174.3 -99.2002 -280.3 -261.8 -280.3c-128.6 0 -219.699 66.4004 -250.499 177.601h68c26.5996 -73.7002 97.1992 -115.2 182.499 -115.2
c117.8 0 195.2 78.2998 195.2 209.5v44.7305c-48.0703 -58.9502 -121.98 -95.2305 -208.2 -95.2305c-149.7 0 -264.8 115.4 -264.8 266.4c0 150.7 115.4 267.101 264.801 267.101c91.5898 0 169.84 -41.9502 217.54 -108.521zM317.39 83.0986
c116.1 0 200.5 85.2998 200.5 201.2c0 116.3 -84.7002 201.899 -200.5 201.899c-116.1 0 -202.399 -86.9004 -202.399 -201.9c0 -114.6 86.2998 -201.199 202.399 -201.199z" />
    <glyph glyph-name="gdotaccent" unicode="&#x121;" horiz-adv-x="675" 
d="M360.1 726.1v-84.0996h-77.5996v84.0996h77.5996zM538.899 540l46.2891 -0.000976562v-463.2c0 -174.3 -99.2002 -280.3 -261.8 -280.3c-128.6 0 -219.699 66.4004 -250.499 177.601h68c26.5996 -73.7002 97.1992 -115.2 182.499 -115.2
c117.8 0 195.2 78.2998 195.2 209.5v44.7305c-48.0703 -58.9502 -121.98 -95.2305 -208.2 -95.2305c-149.7 0 -264.8 115.4 -264.8 266.4c0 150.7 115.4 267.101 264.801 267.101c91.5898 0 169.84 -41.9502 217.54 -108.521zM317.389 83.0986
c116.1 0 200.5 85.2998 200.5 201.2c0 116.3 -84.7002 201.899 -200.5 201.899c-116.1 0 -202.399 -86.9004 -202.399 -201.9c0 -114.6 86.2998 -201.199 202.399 -201.199z" />
    <glyph glyph-name="h" unicode="h" horiz-adv-x="641" 
d="M351.1 551.4c128.9 0 209.501 -88.5996 209.501 -229.199v-322.2h-68v306.8c0 115.7 -57.4004 182.2 -158.301 182.2c-98.0996 0 -176.6 -83.5 -176.6 -188v-301h-68v732.1h68v-279.19c41.1299 60.6904 111.01 98.4902 193.399 98.4902z" />
    <glyph glyph-name="hbar" unicode="&#x127;" horiz-adv-x="641" 
d="M351.1 551.4c128.9 0 209.501 -88.6006 209.501 -229.2v-322.2h-68v306.8c0 115.7 -57.4004 182.2 -158.301 182.2c-98.0996 0 -176.6 -83.5 -176.6 -188v-301h-68v598.9h-96v57.5h96v75.7002h68v-75.7002h192.3v-57.5h-192.3v-145.99
c41.1299 60.6904 111.01 98.4902 193.399 98.4902z" />
    <glyph glyph-name="hcircumflex" unicode="&#x125;" horiz-adv-x="641" 
d="M220.5 793.1l-97.7695 102.37l-96.5303 -102.37h-61.2002l119.2 142h78l119.5 -142h-61.2002zM351.101 551.399c128.9 0 209.501 -88.5996 209.501 -229.199v-322.2h-68v306.8c0 115.7 -57.4004 182.2 -158.301 182.2c-98.0996 0 -176.6 -83.5 -176.6 -188v-301h-68
v732.1h68v-279.19c41.1299 60.6904 111.01 98.4902 193.399 98.4902z" />
    <glyph glyph-name="i" unicode="i" horiz-adv-x="247" 
d="M84.9004 642v84.0996h77.5996v-84.0996h-77.5996zM89.7002 -0v540h68v-540h-68z" />
    <glyph glyph-name="dotlessi" unicode="&#x131;" horiz-adv-x="247" 
d="M89.7002 0v540h68v-540h-68z" />
    <glyph glyph-name="iacute" unicode="&#xed;" horiz-adv-x="247" 
d="M92.7002 604.5l51.8994 152h71.4004l-68 -152h-55.2998zM89.6992 0v540h68v-540h-68z" />
    <glyph glyph-name="ibreve" unicode="&#x12d;" horiz-adv-x="247" 
d="M124.4 599.2c-86.7998 0 -144.8 58.7998 -144.8 157.3h54v-2.40039c0 -69.5 36.5 -107.9 90.7998 -107.9c54.5996 0 89.3994 38.4004 89.3994 107.9v2.40039h55.4004c0 -98.5 -58 -157.3 -144.8 -157.3zM89.7002 0v540h68v-540h-68z" />
    <glyph glyph-name="icircumflex" unicode="&#xee;" horiz-adv-x="247" 
d="M159 756.5l105.102 -152h-58.4004l-82.2002 109.41l-82.2002 -109.41h-57.7002l105.1 152h70.2998zM89.7012 0v540h68v-540h-68z" />
    <glyph glyph-name="idieresis" unicode="&#xef;" horiz-adv-x="247" 
d="M17.9004 641.7v84.0996h72.9502v-84.0996h-72.9502zM156 641v84.0996h72.9502v-84.0996h-72.9502zM89.7002 -0v540h68v-540h-68z" />
    <glyph glyph-name="igrave" unicode="&#xec;" horiz-adv-x="247" 
d="M150.9 604.5h-55.3008l-68 152h71.4004zM89.6992 0v540h68v-540h-68z" />
    <glyph glyph-name="ij" unicode="&#x133;" horiz-adv-x="567" 
d="M84.9004 642v84.0996h77.5996v-84.0996h-77.5996zM405.2 642v84.0996h77.5996v-84.0996h-77.5996zM89.7002 -0v540h68v-540h-68zM265.9 -192.1v62.3994h28c73.5996 0 115.399 42.5 115.399 115.8v553.9h68v-558.8c0 -104.8 -68.7998 -173.3 -174.3 -173.3h-37.0996z" />
    <glyph glyph-name="imacron" unicode="&#x12b;" horiz-adv-x="247" 
d="M0.740234 657.3v54.7002h245.91v-54.7002h-245.91zM89.7002 0v540h68v-540h-68z" />
    <glyph glyph-name="iogonek" unicode="&#x12f;" horiz-adv-x="248" 
d="M162.8 726.1v-84.0996h-77.5996v84.0996h77.5996zM129.7 -178.8c17.0996 0 33.1992 2.69922 49.999 9.09961v-41c-21 -11 -45.0996 -15.7998 -67.5 -15.7998c-64.7998 0 -113.5 37.7002 -113.5 97.7002c0 50.2002 35.0703 99.3506 91.3008 133.091v535.71h68v-533.57
l0.700195 -6.42969c-64.5 -21.5 -106.7 -67 -106.7 -113.4c0 -41.4004 31.7998 -65.4004 77.7002 -65.4004z" />
    <glyph glyph-name="itilde" unicode="&#x129;" horiz-adv-x="247" 
d="M196.2 611.4c-40.5996 0 -64.2988 26.6006 -85.5986 50.4004c-17.5 19 -32.9004 37.2998 -55.5 37.2998c-25.2002 0 -41.5 -22 -41.5 -57.0996v-21.5h-45.5996v18c0 67.2998 27.2998 112.5 82.8994 112.5c42.5996 0 65.5996 -26.9004 86.1992 -50.7002
c16.7998 -19.7002 32.5996 -37.7002 54.8994 -37.7002c24.7998 0 40.7998 21.7002 40.7998 58.5v18.7998h45.5996v-16c0 -70.7998 -30.0996 -112.5 -82.1992 -112.5zM89.7012 0.000976562v540h68v-540h-68z" />
    <glyph glyph-name="j" unicode="j" horiz-adv-x="259" 
d="M97.5996 642v84.0996h77.5996v-84.0996h-77.5996zM-41.7002 -192.101v62.3994h28c73.5996 0 115.399 42.5 115.399 115.8v553.9h68v-558.8c0 -104.8 -68.7998 -173.3 -174.3 -173.3h-37.0996z" />
    <glyph glyph-name="jcircumflex" unicode="&#x135;" horiz-adv-x="259" 
d="M169.6 756.5l105.102 -152h-58.4004l-82.2002 109.41l-82.2002 -109.41h-57.7002l105.1 152h70.2998zM101.701 -9v549h68v-552.5c0 -105.5 -69.5 -174 -174.3 -174h-35.5v62.4004h25.7002c73.5996 0 116.1 42.5 116.1 115.1z" />
    <glyph glyph-name="k" unicode="k" horiz-adv-x="539" 
d="M449.2 0l-199.11 250.101h-85.3896v-250.1h-68v732.1h68v-418.9h86.46l180.14 226.8h83.2002l-205.3 -258.71l225.3 -281.29h-85.2998z" />
    <glyph glyph-name="kgreenlandic" unicode="&#x138;" horiz-adv-x="529" 
d="M442.2 0l-199.111 250.1h-85.3896v-250.1h-68v540h68v-226.8h86.4902l180.41 226.8h83.2002l-205.59 -258.72l225.29 -281.28h-85.2998z" />
    <glyph glyph-name="l" unicode="l" horiz-adv-x="247" 
d="M89.7002 0v732.1h68v-732.1h-68z" />
    <glyph glyph-name="lacute" unicode="&#x13a;" horiz-adv-x="247" 
d="M87.2002 811.9l77.2998 142h72.7998l-95.5 -142h-54.5996zM89.7002 0v732.1h68v-732.1h-68z" />
    <glyph glyph-name="lcaron" unicode="&#x13e;" horiz-adv-x="247" 
d="M89.7002 0v732.1h68v-732.1h-68zM225.9 569.699v35.7988c23.2002 7.2002 36.2002 29 36.2002 56.7002h-39.2998v69.9004h75.5996v-64.0996c0 -46.5 -29.2998 -88.5 -72.5 -98.2998z" />
    <glyph glyph-name="ldot" unicode="&#x140;" horiz-adv-x="320" 
d="M89.7002 0v732.1h68v-732.1h-68zM242.8 316.399v92.2002h81.7998v-92.2002h-81.7998z" />
    <glyph glyph-name="lslash" unicode="&#x142;" horiz-adv-x="247" 
d="M263.6 521.3v-64.4004l-105.9 -63.1396v-393.76h-68v353.22l-106.2 -63.3203v64.4004l106.2 63.3203v314.48h68v-273.94z" />
    <glyph glyph-name="m" unicode="m" horiz-adv-x="952" 
d="M683.5 551.4c112.6 0 187.102 -85.3975 187.102 -207.497v-343.9h-67.7002l-0.299805 323.6c0 102.2 -50.2002 165.4 -132.4 165.4c-87.9004 0 -156.101 -78.2998 -156.4 -184.5v-304.5h-66.5996v323.6c0 102.8 -49.9004 165.399 -133.101 165.399
c-87.9004 0 -156.101 -78.2998 -156.4 -184.5v-304.5h-68v540h49.7998l11.5303 -83.1602c39.5898 58.9697 104.63 94.5596 177.77 94.5596c79.3301 0 139.62 -43.1104 167.67 -111.891c37.6504 69.2598 107.49 111.89 187.03 111.89z" />
    <glyph glyph-name="n" unicode="n" horiz-adv-x="641" 
d="M351.1 551.4c128.9 0 209.501 -94.8994 209.501 -229.199v-322.2h-68v306.8c0 115.7 -57.4004 182.2 -158.301 182.2c-98.0996 0 -176.6 -83.5 -176.6 -188v-301h-68v540h49.0996l13.5303 -95.4004c40.25 65.5303 112.68 106.8 198.77 106.8z" />
    <glyph glyph-name="nacute" unicode="&#x144;" horiz-adv-x="641" 
d="M427 756.5l-89 -152h-54.5996l70.7998 152h72.7998zM351.1 551.4c128.9 0 209.501 -94.8994 209.501 -229.199v-322.2h-68v306.8c0 115.7 -57.4004 182.2 -158.301 182.2c-98.0996 0 -176.6 -83.5 -176.6 -188v-301h-68v540h49.0996l13.5303 -95.4004
c40.25 65.5303 112.68 106.8 198.77 106.8z" />
    <glyph glyph-name="ncaron" unicode="&#x148;" horiz-adv-x="641" 
d="M365.7 604.5h-78l-119.2 152h61.2002l97.1396 -109.7l97.8604 109.7h61.2002zM351.101 551.4c128.9 0 209.501 -94.8994 209.501 -229.199v-322.2h-68v306.8c0 115.7 -57.4004 182.2 -158.301 182.2c-98.0996 0 -176.6 -83.5 -176.6 -188v-301h-68v540h49.0996
l13.5303 -95.4004c40.25 65.5303 112.68 106.8 198.77 106.8z" />
    <glyph glyph-name="eng" unicode="&#x14b;" horiz-adv-x="641" 
d="M351.1 550.7c128.9 0 209.502 -88.5898 209.502 -229.189v-321.7c0 -117.5 -73.7002 -191.9 -191.2 -191.9h-26.4004v62.4004h17.2998c81.7998 0 132.3 51.2002 132.3 133v302.8c0 116.4 -57.4004 182.9 -158.301 182.9c-98.0996 0 -176.6 -84.2002 -176.6 -188.7v-300.3
h-68v540h49.0996l13.9199 -95.4805c40.3203 65.1699 112.57 106.17 198.38 106.17z" />
    <glyph glyph-name="ntilde" unicode="&#xf1;" horiz-adv-x="641" 
d="M197.6 629.4l-0.00195312 -11h-42.7998v12.4004c0 70.0996 34.9004 116 92.1006 116c40.5 0 63.9004 -20 89.4004 -48.2002c21.2002 -23.2998 37.7998 -37.3994 63.0996 -37.3994c29.9004 0 49.3008 27.2998 49.3008 69.7002v9h43.5v-10.4004
c0 -70.0996 -35.5996 -116 -92.0996 -116c-42 0 -67.2002 21.0996 -93.4004 48.6992c-22.0996 22.7998 -37.2998 36.2002 -59.0996 36.2002c-28.9004 0 -50 -27.5996 -50 -69zM351.098 551.4c128.9 0 209.501 -94.8994 209.501 -229.199v-322.2h-68v306.8
c0 115.7 -57.4004 182.2 -158.301 182.2c-98.0996 0 -176.6 -83.5 -176.6 -188v-301h-68v540h49.0996l13.5303 -95.4004c40.25 65.5303 112.68 106.8 198.77 106.8z" />
    <glyph glyph-name="o" unicode="o" horiz-adv-x="660" 
d="M329.9 -11.4004c-162.5 0 -284.6 120 -284.6 281.4c0 162.4 122.1 281.4 284.6 281.4c162.8 0 284.6 -120 284.6 -281.4s-121.8 -281.4 -284.6 -281.4zM329.9 54.5c124.3 0 215.2 91.2002 215.2 215.5s-90.9004 215.5 -215.2 215.5s-215.2 -90.9004 -215.2 -215.5
c0 -124.3 91.2002 -215.5 215.2 -215.5z" />
    <glyph glyph-name="oacute" unicode="&#xf3;" horiz-adv-x="660" 
d="M286.1 604.5l70.7998 152h72.7998l-89 -152h-54.5996zM329.899 -11.4004c-162.5 0 -284.6 120 -284.6 281.4c0 162.4 122.1 281.4 284.6 281.4c162.8 0 284.6 -120 284.6 -281.4s-121.8 -281.4 -284.6 -281.4zM329.899 54.5c124.3 0 215.2 91.2002 215.2 215.5
s-90.9004 215.5 -215.2 215.5s-215.2 -90.9004 -215.2 -215.5c0 -124.3 91.2002 -215.5 215.2 -215.5z" />
    <glyph glyph-name="obreve" unicode="&#x14f;" horiz-adv-x="660" 
d="M329.9 599.2c-92.7998 0 -154.8 58.7998 -154.8 157.3h54v-2.40039c0 -69.5 40.5 -107.9 100.8 -107.9c60.5996 0 99.3994 38.4004 99.3994 107.9v2.40039h55.4004c0 -98.5 -62 -157.3 -154.8 -157.3zM329.9 -11.3994c-162.5 0 -284.6 120 -284.6 281.4
c0 162.4 122.1 281.4 284.6 281.4c162.8 0 284.6 -120 284.6 -281.4s-121.8 -281.4 -284.6 -281.4zM329.9 54.501c124.3 0 215.2 91.2002 215.2 215.5s-90.9004 215.5 -215.2 215.5s-215.2 -90.9004 -215.2 -215.5c0 -124.3 91.2002 -215.5 215.2 -215.5z" />
    <glyph glyph-name="ocircumflex" unicode="&#xf4;" horiz-adv-x="660" 
d="M489.3 604.5h-61.2002l-97.8604 109.7l-97.1396 -109.7h-61.2002l119.2 152h78zM329.899 -11.4004c-162.5 0 -284.6 120 -284.6 281.4c0 162.4 122.1 281.4 284.6 281.4c162.8 0 284.6 -120 284.6 -281.4s-121.8 -281.4 -284.6 -281.4zM329.899 54.5
c124.3 0 215.2 91.2002 215.2 215.5s-90.9004 215.5 -215.2 215.5s-215.2 -90.9004 -215.2 -215.5c0 -124.3 91.2002 -215.5 215.2 -215.5z" />
    <glyph glyph-name="odieresis" unicode="&#xf6;" horiz-adv-x="660" 
d="M194.9 642v84.0996h81.7998v-84.0996h-81.7998zM382.4 642v84.0996h81.7998v-84.0996h-81.7998zM329.9 -11.4004c-162.5 0 -284.6 120 -284.6 281.4c0 162.4 122.1 281.4 284.6 281.4c162.8 0 284.6 -120 284.6 -281.4s-121.8 -281.4 -284.6 -281.4zM329.9 54.5
c124.3 0 215.2 91.2002 215.2 215.5s-90.9004 215.5 -215.2 215.5s-215.2 -90.9004 -215.2 -215.5c0 -124.3 91.2002 -215.5 215.2 -215.5z" />
    <glyph glyph-name="ograve" unicode="&#xf2;" horiz-adv-x="660" 
d="M364.9 604.5h-54.5996l-89 152h72.7998zM329.9 -11.4004c-162.5 0 -284.6 120 -284.6 281.4c0 162.4 122.1 281.4 284.6 281.4c162.8 0 284.6 -120 284.6 -281.4s-121.8 -281.4 -284.6 -281.4zM329.9 54.5c124.3 0 215.2 91.2002 215.2 215.5
s-90.9004 215.5 -215.2 215.5s-215.2 -90.9004 -215.2 -215.5c0 -124.3 91.2002 -215.5 215.2 -215.5z" />
    <glyph glyph-name="ohungarumlaut" unicode="&#x151;" horiz-adv-x="660" 
d="M211.8 604.5l67.3008 152h69.2998l-83.4004 -152h-53.2002zM380.2 604.5l77.7998 152h67.2002l-93.2002 -152h-51.7998zM329.9 -11.4004c-162.5 0 -284.6 120 -284.6 281.4c0 162.4 122.1 281.4 284.6 281.4c162.8 0 284.6 -120 284.6 -281.4
s-121.8 -281.4 -284.6 -281.4zM329.9 54.5c124.3 0 215.2 91.2002 215.2 215.5s-90.9004 215.5 -215.2 215.5s-215.2 -90.9004 -215.2 -215.5c0 -124.3 91.2002 -215.5 215.2 -215.5z" />
    <glyph glyph-name="omacron" unicode="&#x14d;" horiz-adv-x="660" 
d="M172.9 657.3v54.7002h313v-54.7002h-313zM329.9 -11.4004c-162.5 0 -284.6 120 -284.6 281.4c0 162.4 122.1 281.4 284.6 281.4c162.8 0 284.6 -120 284.6 -281.4s-121.8 -281.4 -284.6 -281.4zM329.9 54.5c124.3 0 215.2 91.2002 215.2 215.5
s-90.9004 215.5 -215.2 215.5s-215.2 -90.9004 -215.2 -215.5c0 -124.3 91.2002 -215.5 215.2 -215.5z" />
    <glyph glyph-name="oslash" unicode="&#xf8;" horiz-adv-x="659" 
d="M484.94 506.54c78.1797 -48.4102 128.26 -134.32 128.26 -236.54c0 -159.4 -119.1 -278.101 -278.6 -278.101c-43.2197 0 -83.1895 8.41992 -118.89 24.5801l-42.9102 -77.4805h-63.0996l55.9404 100.14c-74.3799 48.7402 -121.34 132.03 -121.34 231.16
c0 159.4 120.8 278.801 280.6 278.801c38.6504 0 75.5303 -7.45996 108.53 -20.9297l39.2695 72.8301h63.0996zM110.9 270.3c0 -74.8301 31.0391 -138.029 85.8594 -176.81l207.48 378.69c-24.0498 9.00977 -51.0996 14.5195 -79.3398 14.5195
c-124.4 0 -214 -92 -214 -216.4zM334.6 54.3008c122.7 0 212.7 91.3008 212.7 215.701c0 78.2197 -35.9004 142.689 -93.75 180.249l-207.82 -377.45c26.7402 -11.7402 56.3506 -18.5 88.8701 -18.5z" />
    <glyph glyph-name="oslashacute" unicode="&#x1ff;" horiz-adv-x="659" 
d="M428.9 756.5l-89 -152h-54.5996l70.7998 152h72.7998zM484.94 506.54c78.1797 -48.4102 128.26 -134.32 128.26 -236.54c0 -159.4 -119.1 -278.101 -278.6 -278.101c-43.2197 0 -83.1895 8.41992 -118.89 24.5801l-42.9102 -77.4805h-63.0996l55.9404 100.14
c-74.3799 48.7402 -121.34 132.03 -121.34 231.16c0 159.4 120.8 278.801 280.6 278.801c38.6504 0 75.5303 -7.45996 108.53 -20.9297l39.2695 72.8301h63.0996zM110.9 270.3c0 -74.8301 31.0391 -138.029 85.8594 -176.81l207.48 378.69
c-24.0498 9.00977 -51.0996 14.5195 -79.3398 14.5195c-124.4 0 -214 -92 -214 -216.4zM334.6 54.3008c122.7 0 212.7 91.3008 212.7 215.701c0 78.2197 -35.9004 142.689 -93.75 180.249l-207.82 -377.45c26.7402 -11.7402 56.3506 -18.5 88.8701 -18.5z" />
    <glyph glyph-name="otilde" unicode="&#xf5;" horiz-adv-x="660" 
d="M402.8 613.5c-42 0 -67.2021 21.0996 -93.4023 48.6992c-22.0996 22.7998 -37.2998 36.2002 -59.0996 36.2002c-28.9004 0 -50 -27.5996 -50 -69v-11h-42.7998v12.4004c0 70.0996 34.9004 116 92.1006 116c40.5 0 63.9004 -20 89.4004 -48.2002
c21.2002 -23.2998 37.7998 -37.3994 63.0996 -37.3994c29.9004 0 49.3008 27.2998 49.3008 69.7002v9h43.5v-10.4004c0 -70.0996 -35.5996 -116 -92.0996 -116zM329.897 -11.4004c-162.5 0 -284.6 120 -284.6 281.4c0 162.4 122.1 281.4 284.6 281.4
c162.8 0 284.6 -120 284.6 -281.4s-121.8 -281.4 -284.6 -281.4zM329.897 54.5c124.3 0 215.2 91.2002 215.2 215.5s-90.9004 215.5 -215.2 215.5s-215.2 -90.9004 -215.2 -215.5c0 -124.3 91.2002 -215.5 215.2 -215.5z" />
    <glyph glyph-name="oe" unicode="&#x153;" horiz-adv-x="1130" 
d="M1086.2 271.1c0 -9 -0.697266 -17.5986 -1.39746 -26.5986h-474.66c10.9297 -111.87 93.0498 -188.601 206.06 -188.601c80.5996 0 146.5 38.2002 183 105.3h71.7998c-47.4004 -109.9 -139.801 -172.601 -254.801 -172.601c-106.37 0 -195.18 57.7598 -240.14 146.01
c-45.9004 -88.1904 -136.96 -145.311 -246.86 -145.311c-161.8 0 -283.899 120 -283.899 280.7c0 162.4 122.1 281.4 283.899 281.4c109.89 0 200.939 -57.1104 246.85 -145.53c44.96 88.0898 133.77 145.53 240.149 145.53c156.2 0 270 -121.1 270 -280.3zM816.203 487.601
c-108.82 0 -189.81 -73.4404 -204.8 -180.7h407.61c-14.2402 108.74 -95.9102 180.7 -202.811 180.7zM329.204 54.501c122.9 0 213.801 91.2002 213.801 215.5s-90.9004 215.5 -213.801 215.5c-123.6 0 -214.5 -90.9004 -214.5 -215.5c0 -124.3 91.2002 -215.5 214.5 -215.5
z" />
    <glyph glyph-name="p" unicode="p" horiz-adv-x="696" 
d="M373.5 551.4c160.7 0 276.501 -120.3 276.501 -281.399c0 -160.4 -115.8 -281.4 -276.5 -281.4c-89.2402 0 -165.931 38.5498 -215.801 100.979v-281.68h-68v732.1h47.7002l14.1699 -97.25c49.5996 67.04 128.949 108.65 221.93 108.65zM368.601 54.5
c123 0 212.7 91.2998 212.7 215.5s-89.7002 215.5 -212.7 215.5c-122.4 0 -213.7 -92.5996 -213.7 -215.5c0 -122.6 91.2998 -215.5 213.7 -215.5z" />
    <glyph glyph-name="thorn" unicode="&#xfe;" horiz-adv-x="696" 
d="M373.5 550.7c160.7 0 276.5 -120.3 276.5 -280.7s-115.8 -281.4 -276.5 -281.4c-89.2402 0 -165.931 38.5498 -215.801 100.979v-281.68h-68v924.2h68v-281.97c49.8701 62.2402 126.561 100.57 215.801 100.57zM368.6 54.5c123 0 212.7 91.2998 212.7 215.5
c0 123.5 -89.7002 214.8 -212.7 214.8c-122.4 0 -213.7 -92.5996 -213.7 -214.8c0 -122.6 91.2998 -215.5 213.7 -215.5z" />
    <glyph glyph-name="q" unicode="q" horiz-adv-x="695" 
d="M557.9 540l47.71 -0.000976562v-732.1h-68v281.04c-49.5996 -62.0498 -125.89 -100.34 -215.5 -100.34c-159.5 0 -276.8 121 -276.8 281.4c0 161.1 117.3 281.399 276.8 281.399c93.29 0 172.14 -41.2598 221.47 -107.81zM327.011 54.499c123 0 213.4 92 213.4 215.5
s-90.4004 215.5 -213.4 215.5c-122.4 0 -213 -91.9004 -213 -215.5c0 -123.3 90.5996 -215.5 213 -215.5z" />
    <glyph glyph-name="r" unicode="r" horiz-adv-x="384" 
d="M328.6 542.4h47.4004v-64.5h-53c-103.3 0 -165.3 -71.5 -165.3 -181.1v-296.8h-68v540h49.0996l11.6299 -92.5703c37.5303 60.5898 96.96 94.9697 178.17 94.9697z" />
    <glyph glyph-name="racute" unicode="&#x155;" horiz-adv-x="384" 
d="M329.9 757.2l-89 -152h-54.5996l70.7998 152h72.7998zM328.601 542.4h47.4004v-64.5h-53c-103.3 0 -165.3 -71.5 -165.3 -181.1v-296.8h-68v540h49.0996l11.6299 -92.5703c37.5303 60.5898 96.96 94.9697 178.17 94.9697z" />
    <glyph glyph-name="rcaron" unicode="&#x159;" horiz-adv-x="384" 
d="M268.6 605.2h-78l-119.2 152h61.2002l97.1396 -109.7l97.8604 109.7h61.2002zM150.43 447.431c37.5303 60.5898 96.96 94.9697 178.17 94.9697h47.4004v-64.5h-53c-103.3 0 -165.3 -71.5 -165.3 -181.1v-296.8h-68v540h49.0996z" />
    <glyph glyph-name="s" unicode="s" horiz-adv-x="511" 
d="M255.5 -11.4004c-126 0 -206.701 65.8008 -212.501 171.001h66.5996c5.7998 -69.5 64 -107.9 148 -107.9c83.2002 0 141.101 36.7998 141.101 96.7002c0 72.7998 -73.5996 86.5996 -151.8 99.7998c-92.5996 16 -193.6 34.0996 -193.6 150.899
c0 90.7002 80.2002 152.3 199.601 152.3c119.7 0 196.3 -62.7002 200.2 -161.8h-64.5c-3.90039 64.0996 -54.2002 100.8 -137.101 100.8c-80.5 0 -132.3 -35.5996 -132.3 -89.1992c0 -64.7998 67.2002 -76 144.4 -88.5c93.5996 -15.2998 202.399 -33.2002 202.399 -161.5
c0 -98.4004 -84.2002 -162.601 -210.5 -162.601z" />
    <glyph glyph-name="sacute" unicode="&#x15b;" horiz-adv-x="511" 
d="M210.7 604.5l70.7998 152h72.7998l-89 -152h-54.5996zM255.5 -11.4004c-126 0 -206.701 65.8008 -212.501 171.001h66.5996c5.7998 -69.5 64 -107.9 148 -107.9c83.2002 0 141.101 36.7998 141.101 96.7002c0 72.7998 -73.5996 86.5996 -151.8 99.7998
c-92.5996 16 -193.6 34.0996 -193.6 150.899c0 90.7002 80.2002 152.3 199.601 152.3c119.7 0 196.3 -62.7002 200.2 -161.8h-64.5c-3.90039 64.0996 -54.2002 100.8 -137.101 100.8c-80.5 0 -132.3 -35.5996 -132.3 -89.1992c0 -64.7998 67.2002 -76 144.4 -88.5
c93.5996 -15.2998 202.399 -33.2002 202.399 -161.5c0 -98.4004 -84.2002 -162.601 -210.5 -162.601z" />
    <glyph glyph-name="scaron" unicode="&#x161;" horiz-adv-x="511" 
d="M352 756.5h61.2002l-120.2 -152h-78l-119.2 152h61.2002l97.1396 -109.7zM255.5 -11.4004c-126 0 -206.701 65.8008 -212.501 171.001h66.5996c5.7998 -69.5 64 -107.9 148 -107.9c83.2002 0 141.101 36.7998 141.101 96.7002c0 72.7998 -73.5996 86.5996 -151.8 99.7998
c-92.5996 16 -193.6 34.0996 -193.6 150.899c0 90.7002 80.2002 152.3 199.601 152.3c119.7 0 196.3 -62.7002 200.2 -161.8h-64.5c-3.90039 64.0996 -54.2002 100.8 -137.101 100.8c-80.5 0 -132.3 -35.5996 -132.3 -89.1992c0 -64.7998 67.2002 -76 144.4 -88.5
c93.5996 -15.2998 202.399 -33.2002 202.399 -161.5c0 -98.4004 -84.2002 -162.601 -210.5 -162.601z" />
    <glyph glyph-name="scedilla" unicode="&#x15f;" horiz-adv-x="511" 
d="M466 151.2c0 -91.7197 -73.1523 -153.732 -185.372 -161.732l-11.6602 -41.8799c57.0703 -5.37988 96.4307 -41.4395 96.4307 -91.999c0 -54.5996 -44 -92.6992 -109.6 -92.6992h-70.7998v40.7002h63.0996c39.2998 0 66.0996 22.2998 66.0996 54.0996
c0 31.5 -27.0996 53.4004 -66.6992 53.4004h-21.9004l-7.59961 7.90039l18.5098 70.1104c-115.08 6.33008 -188.01 70.6797 -193.51 170.5h66.5996c5.7998 -69.5 64 -107.9 148 -107.9c83.2002 0 141.101 36.7998 141.101 96.7002
c0 72.7998 -73.5996 86.5996 -151.8 99.7998c-92.5996 16 -193.6 34.0996 -193.6 150.899c0 90.7002 80.2002 152.3 199.601 152.3c119.7 0 196.3 -62.7002 200.2 -161.8h-64.5c-3.90039 64.0996 -54.2002 100.8 -137.101 100.8c-80.5 0 -132.3 -35.5996 -132.3 -89.1992
c0 -64.7998 67.2002 -76 144.4 -88.5c93.5996 -15.2998 202.399 -33.2002 202.399 -161.5z" />
    <glyph glyph-name="scircumflex" unicode="&#x15d;" horiz-adv-x="511" 
d="M413.9 604.5h-61.2002l-97.8604 109.7l-97.1396 -109.7h-61.2002l119.2 152h78zM255.5 -11.4004c-126 0 -206.701 65.8008 -212.501 171.001h66.5996c5.7998 -69.5 64 -107.9 148 -107.9c83.2002 0 141.101 36.7998 141.101 96.7002
c0 72.7998 -73.5996 86.5996 -151.8 99.7998c-92.5996 16 -193.6 34.0996 -193.6 150.899c0 90.7002 80.2002 152.3 199.601 152.3c119.7 0 196.3 -62.7002 200.2 -161.8h-64.5c-3.90039 64.0996 -54.2002 100.8 -137.101 100.8c-80.5 0 -132.3 -35.5996 -132.3 -89.1992
c0 -64.7998 67.2002 -76 144.4 -88.5c93.5996 -15.2998 202.399 -33.2002 202.399 -161.5c0 -98.4004 -84.2002 -162.601 -210.5 -162.601z" />
    <glyph glyph-name="germandbls" unicode="&#xdf;" horiz-adv-x="607" 
d="M446.81 385.82c70.0898 -25.6602 113.389 -92.6709 113.389 -179.721c0 -123 -96.2002 -206.1 -239.9 -206.1h-68.5v65.9004h68.5c103.8 0 173.3 58.5 173.3 145.8c0 80.5 -61.0996 138.7 -148.399 138.7h-84.0996v63.7998h76.4004
c74.4004 0 131.301 56.7002 131.301 131.5c0 78.4004 -62.5996 134.4 -149 134.4c-102.7 0 -162.101 -67 -162.101 -183.3v-496.8h-68v496.8c0 156.9 84.7002 248.5 230.101 248.5c121.8 0 211.399 -83.7002 211.399 -196.101c0 -71.0098 -33.7598 -134.1 -84.3896 -163.38z
" />
    <glyph glyph-name="longs" unicode="&#x17f;" horiz-adv-x="267" 
d="M89.7002 0l-0.000976562 590.9c0 91.7998 49.7002 141.2 143.2 141.2h86.5v-62.4004h-67.5996c-65.0996 0 -94.0996 -29 -94.0996 -92.7998v-576.9h-68z" />
    <glyph glyph-name="t" unicode="t" horiz-adv-x="390" 
d="M303 63.0996h59.002v-63.0996h-67.4004c-111.1 0 -179.3 68.5 -179.3 180.9v297.4h-92.7002v13.2998l149.1 153.8h11.5996v-105.4h175.1v-61.7002h-175.1v-295.3c0 -76.7002 42.5996 -119.9 119.699 -119.9z" />
    <glyph glyph-name="tbar" unicode="&#x167;" horiz-adv-x="398" 
d="M310 63.0996l59.002 0.000976562v-63.0996h-67.4004c-111.1 0 -179.3 68.5 -179.3 180.9v73.2998h-93.6904v61.7002h93.6904v162.4h-92.7002v13.2998l149.1 153.8h11.5996v-105.4h175.1v-61.7002h-175.1v-162.4h174.96v-61.7002h-174.96v-71.2002
c0 -76.7002 42.5996 -119.9 119.699 -119.9z" />
    <glyph glyph-name="tcaron" unicode="&#x165;" horiz-adv-x="382" 
d="M362.4 732.1l75.5996 -0.00195312v-64.0996c0 -48.2998 -29.5996 -88.7998 -70.6992 -98.8994l-2.09961 33.4004c24.0996 8.40039 37.6992 29.9004 37.6992 59.7002h-40.5v69.9004zM174 182.998c0 -76.7002 42.6006 -119.901 119.7 -119.901h59v-63.0996h-67.4004
c-111.1 0 -179.3 68.5 -179.3 180.9v297.4h-92.7002v11.9004l150.5 155.2h10.2002v-105.4h166.7v-61.7002h-166.7v-295.3z" />
    <glyph glyph-name="u" unicode="u" horiz-adv-x="631" 
d="M315.7 -11.4004c-143.3 0 -235.601 94.1006 -235.601 238.801v312.6h68v-302.1c0 -113.5 64.2002 -183.4 167.601 -183.4c104.1 0 167.6 70.5996 167.6 183.399v302.1h68v-312.6c0 -144.7 -91.5996 -238.8 -235.6 -238.8z" />
    <glyph glyph-name="uacute" unicode="&#xfa;" horiz-adv-x="631" 
d="M271.9 604.5l70.7998 152h72.7998l-89 -152h-54.5996zM315.7 -11.4004c-143.3 0 -235.601 94.1006 -235.601 238.801v312.6h68v-302.1c0 -113.5 64.2002 -183.4 167.601 -183.4c104.1 0 167.6 70.5996 167.6 183.399v302.1h68v-312.6
c0 -144.7 -91.5996 -238.8 -235.6 -238.8z" />
    <glyph glyph-name="ubreve" unicode="&#x16d;" horiz-adv-x="631" 
d="M315.7 599.2c-92.7998 0 -154.8 58.7998 -154.8 157.3h54v-2.40039c0 -69.5 40.5 -107.9 100.8 -107.9c60.5996 0 99.3994 38.4004 99.3994 107.9v2.40039h55.4004c0 -98.5 -62 -157.3 -154.8 -157.3zM315.7 -11.3994c-143.3 0 -235.601 94.1006 -235.601 238.801v312.6
h68v-302.1c0 -113.5 64.2002 -183.4 167.601 -183.4c104.1 0 167.6 70.5996 167.6 183.399v302.1h68v-312.6c0 -144.7 -91.5996 -238.8 -235.6 -238.8z" />
    <glyph glyph-name="ucircumflex" unicode="&#xfb;" horiz-adv-x="631" 
d="M475.1 604.5h-61.2002l-97.8604 109.69l-97.1396 -109.69h-61.2002l119.2 152h78zM315.699 -11.4004c-143.3 0 -235.601 94.1006 -235.601 238.801v312.6h68v-302.1c0 -113.5 64.2002 -183.4 167.601 -183.4c104.1 0 167.6 70.5996 167.6 183.399v302.1h68v-312.6
c0 -144.7 -91.5996 -238.8 -235.6 -238.8z" />
    <glyph glyph-name="udieresis" unicode="&#xfc;" horiz-adv-x="631" 
d="M180.7 642v84.0996h81.7998v-84.0996h-81.7998zM368.2 642v84.0996h81.7998v-84.0996h-81.7998zM315.7 -11.4004c-143.3 0 -235.601 94.1006 -235.601 238.801v312.6h68v-302.1c0 -113.5 64.2002 -183.4 167.601 -183.4c104.1 0 167.6 70.5996 167.6 183.399v302.1h68
v-312.6c0 -144.7 -91.5996 -238.8 -235.6 -238.8z" />
    <glyph glyph-name="ugrave" unicode="&#xf9;" horiz-adv-x="631" 
d="M350.7 604.5h-54.5996l-89 152h72.7998zM315.7 -11.4004c-143.3 0 -235.601 94.1006 -235.601 238.801v312.6h68v-302.1c0 -113.5 64.2002 -183.4 167.601 -183.4c104.1 0 167.6 70.5996 167.6 183.399v302.1h68v-312.6c0 -144.7 -91.5996 -238.8 -235.6 -238.8z" />
    <glyph glyph-name="uhungarumlaut" unicode="&#x171;" horiz-adv-x="631" 
d="M197.6 604.5l67.3008 152h69.2998l-83.4004 -152h-53.2002zM366 604.5l77.7998 152h67.2002l-93.2002 -152h-51.7998zM315.7 -11.4004c-143.3 0 -235.601 94.1006 -235.601 238.801v312.6h68v-302.1c0 -113.5 64.2002 -183.4 167.601 -183.4
c104.1 0 167.6 70.5996 167.6 183.399v302.1h68v-312.6c0 -144.7 -91.5996 -238.8 -235.6 -238.8z" />
    <glyph glyph-name="umacron" unicode="&#x16b;" horiz-adv-x="631" 
d="M158.7 657.3v54.7002h313v-54.7002h-313zM315.7 -11.4004c-143.3 0 -235.601 94.1006 -235.601 238.801v312.6h68v-302.1c0 -113.5 64.2002 -183.4 167.601 -183.4c104.1 0 167.6 70.5996 167.6 183.399v302.1h68v-312.6c0 -144.7 -91.5996 -238.8 -235.6 -238.8z" />
    <glyph glyph-name="uni0123" unicode="&#x123;" horiz-adv-x="675" 
d="M358.6 709.7l0.000976562 -69.8984h-75.5996v64.0996c0 48.2998 29.5996 88.7998 70.6992 98.8994l2.09961 -33.4004c-24.2197 -8.16016 -37.6602 -29.8906 -37.8398 -59.7002h40.6396zM538.9 540.002l46.2891 -0.000976562v-463.2
c0 -174.3 -99.2002 -280.3 -261.8 -280.3c-128.6 0 -219.699 66.4004 -250.499 177.601h68c26.5996 -73.7002 97.1992 -115.2 182.499 -115.2c117.8 0 195.2 78.2998 195.2 209.5v44.7305c-48.0703 -58.9502 -121.98 -95.2305 -208.2 -95.2305
c-149.7 0 -264.8 115.4 -264.8 266.4c0 150.7 115.4 267.101 264.801 267.101c91.5898 0 169.84 -41.9502 217.54 -108.521zM317.39 83.1006c116.1 0 200.5 85.2998 200.5 201.2c0 116.3 -84.7002 201.899 -200.5 201.899c-116.1 0 -202.399 -86.9004 -202.399 -201.9
c0 -114.6 86.2998 -201.199 202.399 -201.199z" />
    <glyph glyph-name="uni0137" unicode="&#x137;" horiz-adv-x="539" 
d="M309.2 281.29l225.3 -281.289h-85.2998l-199.11 250.1h-85.3896v-250.1h-68v732.1h68v-418.9h86.46l180.14 226.8h83.2002zM238.8 -129.899v69.8994h75.5996v-64.0996c0 -46.5 -29.2998 -88.5 -72.5 -98.2998v35.7998c23.2002 7.2002 36.2002 29 36.2002 56.7002
h-39.2998z" />
    <glyph glyph-name="uni013C" unicode="&#x13c;" horiz-adv-x="247" 
d="M89.7002 0v732.1h68v-732.1h-68zM88.5 -222.4v35.7988c23.2002 7.2002 36.2002 29 36.2002 56.7002h-39.2998v69.9004h75.5996v-64.0996c0 -46.5 -29.2998 -88.5 -72.5 -98.2998z" />
    <glyph glyph-name="uni0146" unicode="&#x146;" horiz-adv-x="641" 
d="M351.1 551.4c128.9 0 209.501 -94.8994 209.501 -229.199v-322.2h-68v306.8c0 115.7 -57.4004 182.2 -158.301 182.2c-98.0996 0 -176.6 -83.5 -176.6 -188v-301h-68v540h49.0996l13.5303 -95.4004c40.25 65.5303 112.68 106.8 198.77 106.8zM284.301 -129.898v69.8994
h75.5996v-64.0996c0 -46.5 -29.2998 -88.5 -72.5 -98.2998v35.7998c23.2002 7.2002 36.2002 29 36.2002 56.7002h-39.2998z" />
    <glyph glyph-name="uni0157" unicode="&#x157;" horiz-adv-x="384" 
d="M328.6 542.4h47.4004v-64.5h-53c-103.3 0 -165.3 -71.5 -165.3 -181.1v-296.8h-68v540h49.0996l11.6299 -92.5703c37.5303 60.5898 96.96 94.9697 178.17 94.9697zM86.0996 -129.899v69.8994h75.5996v-64.0996c0 -46.5 -29.2998 -88.5 -72.5 -98.2998v35.7998
c23.2002 7.2002 36.2002 29 36.2002 56.7002h-39.2998z" />
    <glyph glyph-name="uni0163" unicode="&#x163;" horiz-adv-x="379" 
d="M262.87 -47.5c57.0703 -5.37988 96.4287 -41.4424 96.4287 -92.002c0 -54.5996 -44 -92.6992 -109.6 -92.6992h-70.7998v40.7002h63.0996c39.2998 0 66.0996 22.2998 66.0996 54.0996c0 31.5 -27.0996 53.4004 -66.6992 53.4004h-21.9004l-7.59961 7.90039
l21.5596 81.6904c-80.0898 18.4502 -127.46 81.6299 -127.46 175.31v297.4h-92.7002v11.9004l150.5 155.2h10.2002v-105.4h175.8v-61.7002h-175.8v-295.3c0 -76.7002 42.5996 -119.9 119.699 -119.9h59.7002v-63.0996h-68.0996
c-3.08984 -0 -6.14941 0.0498047 -9.16895 0.160156z" />
    <glyph glyph-name="uni0219" unicode="&#x219;" horiz-adv-x="511" 
d="M255.5 -11.4004c-126 0 -206.701 65.8008 -212.501 171.001h66.5996c5.7998 -69.5 64 -107.9 148 -107.9c83.2002 0 141.101 36.7998 141.101 96.7002c0 72.7998 -73.5996 86.5996 -151.8 99.7998c-92.5996 16 -193.6 34.0996 -193.6 150.899
c0 90.7002 80.2002 152.3 199.601 152.3c119.7 0 196.3 -62.7002 200.2 -161.8h-64.5c-3.90039 64.0996 -54.2002 100.8 -137.101 100.8c-80.5 0 -132.3 -35.5996 -132.3 -89.1992c0 -64.7998 67.2002 -76 144.4 -88.5c93.5996 -15.2998 202.399 -33.2002 202.399 -161.5
c0 -98.4004 -84.2002 -162.601 -210.5 -162.601zM233.499 -227.3v35.7988c23.2002 7.2002 36.2002 29 36.2002 56.7002h-39.2998v69.9004h75.5996v-64.0996c0 -46.5 -29.2998 -88.5 -72.5 -98.2998z" />
    <glyph glyph-name="uni021B" unicode="&#x21b;" horiz-adv-x="390" 
d="M303 63.0996h59.002v-63.0996h-67.4004c-111.1 0 -179.3 68.5 -179.3 180.9v297.4h-92.7002v13.2998l149.1 153.8h11.5996v-105.4h175.1v-61.7002h-175.1v-295.3c0 -76.7002 42.5996 -119.9 119.699 -119.9zM214.402 -129.9v69.8994h75.5996v-64.0996
c0 -46.5 -29.2998 -88.5 -72.5 -98.2998v35.7998c23.2002 7.2002 36.2002 29 36.2002 56.7002h-39.2998z" />
    <glyph glyph-name="uogonek" unicode="&#x173;" horiz-adv-x="631" 
d="M482.6 540l68 -0.000976562v-311.9c0 -103.7 -46.2002 -176.9 -138.4 -219c-53.7998 -24.4004 -91 -71.8008 -91 -117.601c0 -42.0996 31.7998 -66.7998 78.3994 -66.7998c16.7002 0 32.7998 3.40039 49.2998 9.10059v-41.7002
c-21 -10.2998 -44.4004 -15.0996 -66.1006 -15.0996c-63.7998 0 -113.5 37.4004 -113.5 99.8008c0 43.2402 21.5996 86.0303 49.9199 112.84c-4.26953 -0.219727 -8.51953 -0.339844 -12.6191 -0.339844c-131.4 0 -226.5 99 -226.5 240.2v310.5h68v-302.8
c0 -112.8 63.5 -182 166.9 -182s167.601 69.2002 167.601 182v302.8z" />
    <glyph glyph-name="uring" unicode="&#x16f;" horiz-adv-x="631" 
d="M315.7 591.1c-64.4004 0 -109.4 43.2998 -109.4 103.899c0 61.2998 45 103.899 109.4 103.899s109.4 -42.5996 109.4 -103.899c0 -60.5996 -45 -103.899 -109.4 -103.899zM315.7 631.1c39.2002 0 66.6006 25.7002 66.6006 63.9004
c0 38.9004 -27.4004 64.6006 -66.6006 64.6006s-66.6006 -25.7002 -66.6006 -64.6006c0 -38.2002 27.4004 -63.9004 66.6006 -63.9004zM315.7 -11.4004c-143.3 0 -235.601 94.1006 -235.601 238.801v312.6h68v-302.1c0 -113.5 64.2002 -183.4 167.601 -183.4
c104.1 0 167.6 70.5996 167.6 183.399v302.1h68v-312.6c0 -144.7 -91.5996 -238.8 -235.6 -238.8z" />
    <glyph glyph-name="utilde" unicode="&#x169;" horiz-adv-x="631" 
d="M388.6 613.5c-42 0 -67.2021 21.0996 -93.4023 48.6992c-22.0996 22.7998 -37.2998 36.2002 -59.0996 36.2002c-28.9004 0 -50 -27.5996 -50 -69v-11h-42.7998v12.4004c0 70.0996 34.9004 116 92.1006 116c40.5 0 63.9004 -20 89.4004 -48.2002
c21.2002 -23.2998 37.7998 -37.3994 63.0996 -37.3994c29.9004 0 49.3008 27.2998 49.3008 69.7002v9h43.5v-10.4004c0 -70.0996 -35.5996 -116 -92.0996 -116zM315.697 -11.4004c-143.3 0 -235.601 94.1006 -235.601 238.801v312.6h68v-302.1
c0 -113.5 64.2002 -183.4 167.601 -183.4c104.1 0 167.6 70.5996 167.6 183.399v302.1h68v-312.6c0 -144.7 -91.5996 -238.8 -235.6 -238.8z" />
    <glyph glyph-name="v" unicode="v" horiz-adv-x="569" 
d="M478.8 540h69.7012l-231.7 -540h-61.2002l-237.4 540h71.0996l196.77 -450.71z" />
    <glyph glyph-name="w" unicode="w" horiz-adv-x="849" 
d="M758.4 540h69.001l-186.3 -540h-54.9004l-162.73 397.42l-162.17 -397.42h-54.9004l-183.5 540h71.0996l144.33 -425.41l172.37 414.21h25.5l173.54 -416.96z" />
    <glyph glyph-name="wacute" unicode="&#x1e83;" horiz-adv-x="849" 
d="M521.5 756.5l-89 -152h-54.5996l70.7998 152h72.7998zM758.4 540h69.001l-186.3 -540h-54.9004l-162.73 397.42l-162.17 -397.42h-54.9004l-183.5 540h71.0996l144.33 -425.41l172.37 414.21h25.5l173.54 -416.96z" />
    <glyph glyph-name="wcircumflex" unicode="&#x175;" horiz-adv-x="849" 
d="M422.04 714.19l-97.1396 -109.69h-61.2002l119.2 152h78l120.2 -152h-61.2002zM758.4 540h69.001l-186.3 -540h-54.9004l-162.73 397.42l-162.17 -397.42h-54.9004l-183.5 540h71.0996l144.33 -425.41l172.37 414.21h25.5l173.54 -416.96z" />
    <glyph glyph-name="wdieresis" unicode="&#x1e85;" horiz-adv-x="849" 
d="M286.7 642v84.0996h81.7998v-84.0996h-81.7998zM474.2 642v84.0996h81.7998v-84.0996h-81.7998zM758.4 540h69.001l-186.3 -540h-54.9004l-162.73 397.42l-162.17 -397.42h-54.9004l-183.5 540h71.0996l144.33 -425.41l172.37 414.21h25.5l173.54 -416.96z" />
    <glyph glyph-name="wgrave" unicode="&#x1e81;" horiz-adv-x="849" 
d="M456.7 604.5h-54.5996l-89 152h72.7998zM758.4 540h69.001l-186.3 -540h-54.9004l-162.73 397.42l-162.17 -397.42h-54.9004l-183.5 540h71.0996l144.33 -425.41l172.37 414.21h25.5l173.54 -416.96z" />
    <glyph glyph-name="x" unicode="x" horiz-adv-x="505" 
d="M496.3 0h-76.5996l-167.51 236.82l-167.89 -236.82h-75.2002l202.13 281.53l-184.33 258.47h76.5996l149.37 -210.78l151.13 210.78h75.2002l-185.79 -255.67z" />
    <glyph glyph-name="y" unicode="y" horiz-adv-x="582" 
d="M491.3 540h72.499l-263.1 -570.4c-56.2998 -122.8 -106.2 -161.7 -203 -161.7h-48.0996v61.7002h42.5c72.9004 0 102 22.2998 146.5 115.5l23.6602 49.4404l-244.06 505.46h74.2002l205.34 -429.91z" />
    <glyph glyph-name="yacute" unicode="&#xfd;" horiz-adv-x="582" 
d="M394 756.5l-89 -152h-54.5996l70.7998 152h72.7998zM491.3 540h72.499l-263.1 -570.4c-56.2998 -122.8 -106.2 -161.7 -203 -161.7h-48.0996v61.7002h42.5c72.9004 0 102 22.2998 146.5 115.5l23.6602 49.4404l-244.06 505.46h74.2002l205.34 -429.91z" />
    <glyph glyph-name="ycircumflex" unicode="&#x177;" horiz-adv-x="582" 
d="M294.54 714.19l-97.1396 -109.69h-61.2002l119.2 152h78l120.2 -152h-61.2002zM491.301 540h72.499l-263.1 -570.4c-56.2998 -122.8 -106.2 -161.7 -203 -161.7h-48.0996v61.7002h42.5c72.9004 0 102 22.2998 146.5 115.5l23.6602 49.4404l-244.06 505.46h74.2002
l205.34 -429.91z" />
    <glyph glyph-name="ydieresis" unicode="&#xff;" horiz-adv-x="582" 
d="M159.2 642v84.0996h81.7998v-84.0996h-81.7998zM346.7 642v84.0996h81.7998v-84.0996h-81.7998zM491.3 540h72.5l-263.1 -570.4c-56.2998 -122.8 -106.2 -161.7 -203 -161.7h-48.0996v61.7002h42.5c72.9004 0 102 22.2998 146.5 115.5l23.6699 49.4404l-244.07 505.46
h74.2002l205.35 -429.91z" />
    <glyph glyph-name="ygrave" unicode="&#x1ef3;" horiz-adv-x="582" 
d="M329.2 604.5h-54.5996l-89 152h72.7998zM491.301 540h72.499l-263.1 -570.4c-56.2998 -122.8 -106.2 -161.7 -203 -161.7h-48.0996v61.7002h42.5c72.9004 0 102 22.2998 146.5 115.5l23.6602 49.4404l-244.06 505.46h74.2002l205.34 -429.91z" />
    <glyph glyph-name="z" unicode="z" horiz-adv-x="473" 
d="M134.8 63.7998l307.5 -0.000976562v-63.7998h-417v11.5l305.39 465.4h-287.29v63.0996h395.5v-12.5996z" />
    <glyph glyph-name="zacute" unicode="&#x17a;" horiz-adv-x="473" 
d="M345.9 756.5l-89 -152h-54.5996l70.7998 152h72.7998zM134.801 63.7998l307.5 -0.000976562v-63.7998h-417v11.5l305.39 465.4h-287.29v63.0996h395.5v-12.5996z" />
    <glyph glyph-name="zcaron" unicode="&#x17e;" horiz-adv-x="473" 
d="M284.6 604.5h-78l-119.2 152h61.2002l97.1396 -109.7l97.8604 109.7h61.2002zM134.8 63.7998l307.5 -0.000976562v-63.7998h-417v11.5l305.39 465.4h-287.29v63.0996h395.5v-12.5996z" />
    <glyph glyph-name="zdotaccent" unicode="&#x17c;" horiz-adv-x="473" 
d="M284.9 726.1v-84.0996h-77.5996v84.0996h77.5996zM134.801 63.7998l307.5 -0.000976562v-63.7998h-417v11.5l305.39 465.4h-287.29v63.0996h395.5v-12.5996z" />
    <glyph glyph-name="germandbls.calt" horiz-adv-x="676" 
d="M426.9 444.92c123.82 -12.1504 202.2 -93.501 202.2 -216.221c0 -132.9 -96.7998 -228.7 -253 -228.7h-91.2002v68h91.2002c108.8 0 181.5 65.5 181.5 160.7c0 94.7002 -72.4004 159.3 -180.601 159.3h-54.7002v15.7002l138.72 229h-127.92
c-111.1 0 -171.199 -59.0996 -171.199 -170.199v-462.5h-70.0996v469.5c0 144.4 86.0996 230.5 230.8 230.5h249.6v-14.2998z" />
    <glyph glyph-name="i.loclTRK" horiz-adv-x="247" 
d="M84.9004 642v84.0996h77.5996v-84.0996h-77.5996zM89.7002 -0v540h68v-540h-68z" />
    <glyph glyph-name="k.ss01" horiz-adv-x="511" 
d="M89.7002 0v732.1h68v-732.1h-68zM264.91 281.52l249.391 -281.52h-87.7002l-241.2 276.6v8.7002l225.4 254.7h85.5996z" />
    <glyph glyph-name="k.ss03" horiz-adv-x="511" 
d="M89.7002 0v732.1h68v-732.1h-68zM264.91 281.52l249.391 -281.52h-87.7002l-241.2 276.6v8.7002l225.4 254.7h85.5996z" />
    <glyph glyph-name="k.ss04" horiz-adv-x="511" 
d="M89.7002 0v732.1h68v-732.1h-68zM264.91 281.52l249.391 -281.52h-87.7002l-241.2 276.6v8.7002l225.4 254.7h85.5996z" />
    <glyph glyph-name="ordfeminine" unicode="&#xaa;" horiz-adv-x="465" 
d="M349.01 706.51l42.1289 -0.000976562v-332.67h-43.7197l-6.25977 56.5303c-29.79 -37.8301 -75.5596 -61.54 -129.5 -61.54c-93.1904 0 -166.08 75.3701 -166.08 171.7c0 95.6299 72.8896 171 166.08 171c54.29 0 100.29 -24.0195 130.07 -62.1494zM217.709 418.969
c66.8301 0 116.64 51.46 116.64 121.56c0 69.5898 -49.8096 121.55 -116.64 121.55c-67.21 0 -117.34 -53.0898 -117.34 -121.55c0 -69.1699 50.8096 -121.56 117.34 -121.56z" />
    <glyph glyph-name="ordmasculine" unicode="&#xba;" horiz-adv-x="442" 
d="M221.69 368.95c-99.5303 0 -174.681 73.0811 -174.681 170.981c0 98.0898 75.1504 170.979 174.681 170.979c99.5195 0 173.979 -73.0703 173.979 -170.98c0 -97.9004 -74.46 -170.98 -173.979 -170.98zM221.69 419.852c69.6797 0 120.029 50.4199 120.029 120.08
c0 69.4805 -50.3496 120.08 -120.029 120.08c-69.8799 0 -120.22 -50.5996 -120.22 -120.08c0 -69.3799 50.4297 -120.08 120.22 -120.08z" />
    <glyph glyph-name="uni0410" unicode="&#x410;" horiz-adv-x="692" 
d="M595.9 0l-75.3105 178.9h-352.22l-74.1699 -178.9h-74.5996l289.8 700h64.7002l297.8 -700h-76zM342.78 602.94l-147.9 -359.54h298.9z" />
    <glyph glyph-name="uni0411" unicode="&#x411;" horiz-adv-x="612" 
d="M349.9 425.8c129.8 0 222.199 -88.9004 222.199 -211.9c0 -124 -94.4004 -213.9 -224.5 -213.9h-248.2v700h423.2v-66.5996h-353.1v-207.6h180.4zM342.699 68.7002c91.5996 0 157.899 61.1016 157.899 145.201s-65 143.199 -156.3 143.199h-174.8v-288.4h173.2z" />
    <glyph glyph-name="uni0412" unicode="&#x412;" horiz-adv-x="645" 
d="M472.04 364.94c68.29 -26.1104 112.771 -94.0107 112.771 -173.15c0 -107.5 -88.5 -191.8 -209.7 -191.8h-275.7v700h272.9c113.2 0 193.3 -76.0996 193.3 -175.8c0 -65.9697 -37.3398 -130.46 -93.5703 -159.25zM373.2 631.301h-204.399v-233.3h206.5
c67.5 0 118.8 53.2998 118.8 117.1c0 65.7002 -53.2002 116.2 -120.9 116.2zM376.701 69.4004c77.2002 0 135.9 55.6006 135.9 130.101c0 73.2002 -58.4004 129.8 -134.4 129.8h-209.4v-259.9h207.9z" />
    <glyph glyph-name="uni0413" unicode="&#x413;" horiz-adv-x="490" 
d="M469 700v-65.9004h-299.5v-634.1h-70.0996v700h369.6z" />
    <glyph glyph-name="uni0403" unicode="&#x403;" horiz-adv-x="490" 
d="M371.2 921.8l-95.5 -142h-54.5996l77.2998 142h72.7998zM469 700v-65.9004h-299.5v-634.1h-70.0996v700h369.6z" />
    <glyph glyph-name="uni0490" unicode="&#x490;" horiz-adv-x="490" 
d="M403.1 805h65.8994v-170.9h-299.5v-634.1h-70.0996v700h303.7v105z" />
    <glyph glyph-name="uni0414" unicode="&#x414;" horiz-adv-x="750" 
d="M633.3 65.9004h74.4111v-211.8h-65.2002v145.9h-558.1v-145.9h-65.2002v211.8h53.6699c70.5596 40.8096 87.1191 132.18 131.119 634.1h429.3v-634.1zM268.341 634.101c-31.96 -398 -52.29 -516 -114.57 -568.2h408.74v568.2h-294.17z" />
    <glyph glyph-name="uni0415" unicode="&#x415;" horiz-adv-x="549" 
d="M169.5 67.2998l330.9 -0.000976562v-67.2998h-401v700h390v-66.5996h-319.9v-239.1h293.9v-65.2002h-293.9v-261.8z" />
    <glyph glyph-name="uni0401" unicode="&#x401;" horiz-adv-x="549" 
d="M144.7 797.8v84.0996h81.7998v-84.0996h-81.7998zM357.4 797.8v84.0996h81.7998v-84.0996h-81.7998zM169.5 67.2998l330.9 -0.000976562v-67.2998h-401v700h390v-66.5996h-319.9v-239.1h293.9v-65.2002h-293.9v-261.8z" />
    <glyph glyph-name="uni0416" unicode="&#x416;" horiz-adv-x="939" 
d="M847.4 0l-251.67 329.6h-90.8301v-329.6h-70.7998v329.6h-90.8301l-251.67 -329.6h-88.7998l278.41 364.67l-252.11 335.33h86l228.53 -304.5h90.4697v304.5h70.7998v-304.5h90.46l228.54 304.5h85.2998l-251.43 -335.31l278.43 -364.69h-88.7998z" />
    <glyph glyph-name="uni0417" unicode="&#x417;" horiz-adv-x="572" 
d="M407.04 371.08c63.6699 -28.5596 106.061 -96.6123 106.061 -175.272c0 -119.1 -100 -206.199 -236.1 -206.199c-130.2 0 -225.2 82.4004 -233.601 201.801h68.7002c9.40039 -81.2998 75 -135.899 164.9 -135.899c96.9004 0 166.7 59.4004 166.7 143.101
c0 81.0996 -58.7998 139.899 -139.3 139.899h-85.9004v61.7002h85.9004c72.7998 0 125.3 51.4004 125.3 121.301c0 74.5996 -62.2002 125.8 -152.7 125.8c-79.0996 0 -141.399 -49.7002 -153.1 -120.4h-67.2998c11 108.4 103.3 184.2 220.399 184.2
c128.1 0 220.699 -77.2998 220.699 -187.5c0 -67.4404 -35.9697 -126.11 -90.6602 -152.53z" />
    <glyph glyph-name="uni0418" unicode="&#x418;" horiz-adv-x="737" 
d="M587.1 700h50.7002v-700h-70.0996v565.44l-419.7 -565.44h-48.5996v700h70.0996v-562.41z" />
    <glyph glyph-name="uni0419" unicode="&#x419;" horiz-adv-x="737" 
d="M224.4 819v54h279.4v-54h-279.4zM587.101 700h50.7002v-700h-70.0996v565.44l-419.7 -565.44h-48.5996v700h70.0996v-562.4z" />
    <glyph glyph-name="uni041A" unicode="&#x41a;" horiz-adv-x="625" 
d="M534.2 0l-262.719 329.6h-101.98v-329.6h-70.0996v700h70.0996v-304.5h101.68l239.52 304.5h89.5l-265.59 -336.25l289.79 -363.75h-90.2002z" />
    <glyph glyph-name="uni041B" unicode="&#x41b;" horiz-adv-x="733" 
d="M210.8 700h422.6v-700h-70.0996v634.1h-287.91l-33.6904 -422.9c-11.5 -141.1 -79.2998 -211.899 -201.5 -211.899h-24.5996v69.4004h23.9004c79.5 0 122.7 46.2002 130.7 140.7z" />
    <glyph glyph-name="uni041C" unicode="&#x41c;" horiz-adv-x="952" 
d="M905.1 0h-71.5l-97.6797 575.75l-249.92 -553.45h-19.9004l-249.74 552.78l-98.5596 -575.08h-71.5l119.7 700h66.7998l242.43 -543.84l243.67 543.84h68.2002z" />
    <glyph glyph-name="uni041D" unicode="&#x41d;" horiz-adv-x="729" 
d="M559.2 700h70.0996v-700h-70.0996v328.1h-389.7v-328.1h-70.0996v700h70.0996v-304.6h389.7v304.6z" />
    <glyph glyph-name="uni041E" unicode="&#x41e;" horiz-adv-x="830" 
d="M414.9 -11.4004c-211.4 0 -364.601 155.001 -364.601 361.101c0 206.4 153.2 361.7 364.601 361.7s364.601 -155 364.601 -361.7c0 -206.4 -153.2 -361.101 -364.601 -361.101zM414.9 57.3008c169.4 0 293.101 125.2 293.101 292.4c0 167.5 -123.7 293 -293.101 293
s-293.101 -126.5 -293.101 -293c0 -166.2 123.7 -292.4 293.101 -292.4z" />
    <glyph glyph-name="uni041F" unicode="&#x41f;" horiz-adv-x="699" 
d="M99.4004 700h500.199v-700h-70.7998v634.1h-359.3v-634.1h-70.0996v700z" />
    <glyph glyph-name="uni0420" unicode="&#x420;" horiz-adv-x="606" 
d="M345.5 700c129.7 0 228.3 -93.6006 228.3 -219.7c0 -125.7 -97.5996 -220 -228.3 -220h-176v-260.3h-70.0996v700h246.1zM342 328.299c92.9004 0 160.301 64.7998 160.301 152c0 86.9004 -67.4004 151.7 -160.301 151.7h-172.5v-303.7h172.5z" />
    <glyph glyph-name="uni0421" unicode="&#x421;" horiz-adv-x="777" 
d="M408.4 -10.7002c-208.3 0 -358.1 150.7 -358.1 360.4s150.1 361 358.1 361c159.4 0 286.2 -92.5996 328.8 -239h-71.7998c-40.2002 106.5 -135.4 170.3 -257 170.3c-166.4 0 -286.601 -121.5 -286.601 -292.3s119.9 -291.7 286.601 -291.7
c124.9 0 221.7 67.7998 261.2 181.2h71.5c-42.2998 -154 -170 -249.9 -332.7 -249.9z" />
    <glyph glyph-name="uni0422" unicode="&#x422;" horiz-adv-x="549" 
d="M527.2 700v-65.9004h-217.9v-634.1h-70.0996v634.1h-217.9v65.9004h505.9z" />
    <glyph glyph-name="uni0423" unicode="&#x423;" horiz-adv-x="597" 
d="M512.4 700h75.2988l-221.2 -487.5c-76.7998 -170.7 -128.899 -214.5 -248.999 -214.5h-33.7998v65.9004h39.4004c78.4805 0 108.32 24.2695 162.03 132.88l-270.13 503.22h80.5l226.09 -423.01z" />
    <glyph glyph-name="uni040E" unicode="&#x40e;" horiz-adv-x="597" 
d="M173 819v54h279.4v-54h-279.4zM512.4 700l75.2988 -0.0107422l-221.2 -487.5c-76.7998 -170.7 -128.899 -214.5 -248.999 -214.5h-33.7998v65.9004h39.4004c78.4805 0 108.32 24.2803 162.03 132.891l-270.13 503.22h80.5l226.09 -423.01z" />
    <glyph glyph-name="uni0424" unicode="&#x424;" horiz-adv-x="864" 
d="M813.4 350.4c0 -192.11 -134.73 -353.569 -346.9 -360.85v-106.95h-68.7002v106.98c-211.18 7.63965 -347.5 169.189 -347.5 359.42c0 191.2 136.32 353.73 347.5 361.41v95.8896h68.7002v-95.8604c212.17 -7.25 346.9 -168.32 346.9 -360.04zM466.5 56.9316
c164.93 7.40039 275.399 136.56 275.399 292.77c0 155.82 -110.47 285.25 -275.399 292.66v-585.43zM121.8 349.7c0 -155.71 111.11 -285.001 276 -292.741v585.37c-164.62 -7.75977 -276 -137.319 -276 -292.629z" />
    <glyph glyph-name="uni0425" unicode="&#x425;" horiz-adv-x="593" 
d="M584.3 0h-79.4004l-207.96 310.47l-207.04 -310.47h-80.0996l243.85 366.43l-224.35 333.57h79.4004l188.66 -280.95l187.64 280.95h79.4004l-223.7 -335.92z" />
    <glyph glyph-name="uni0427" unicode="&#x427;" horiz-adv-x="634" 
d="M463.3 700h70.7988v-700h-70.7998v286.45c-60.3203 -23.7598 -118.23 -35.3496 -170.5 -35.3496c-144.3 0 -243.399 87.7002 -243.399 244.2v204.7h70.7998v-199.8c0 -115.7 64.2002 -180.4 178.9 -180.4c47.4102 0 102.15 12.5996 164.2 37.5693v342.63z" />
    <glyph glyph-name="uni0426" unicode="&#x426;" horiz-adv-x="711" 
d="M594.5 65.9004l73.7002 -0.000976562v-211.8h-65.2002v145.9h-503.6v700h70.0996v-634.1h354.9v634.1h70.0996v-634.1z" />
    <glyph glyph-name="uni0428" unicode="&#x428;" horiz-adv-x="970" 
d="M800.7 700h70.1006v-700h-771.4v700h70.0996v-634.1h280.9v634.1h68.7002v-634.1h281.6v634.1z" />
    <glyph glyph-name="uni0429" unicode="&#x429;" horiz-adv-x="988" 
d="M870.8 65.9004l75.8008 -0.000976562v-211.8h-65.2002v145.9h-782v700h70.0996v-634.1h280.9v634.1h68.7002v-634.1h281.6v634.1h70.0996v-634.1z" />
    <glyph glyph-name="uni040F" unicode="&#x40f;" horiz-adv-x="722" 
d="M623 700l0.000976562 -700h-227.9v-143.8h-68.7998v143.8h-226.9v700h70.0996v-634.1h382.7v634.1h70.7998z" />
    <glyph glyph-name="uni042C" unicode="&#x42c;" horiz-adv-x="615" 
d="M351.4 441.8c133.5 0 230.4 -92.9004 230.4 -221.4c0 -126.8 -97.9004 -220.399 -230.4 -220.399h-252v700h70.0996v-258.2h181.9zM346.5 65.8994c95 0 163.8 66.2002 163.8 155.2c0 90 -68.7998 155.5 -163.8 155.5h-177v-310.7h177z" />
    <glyph glyph-name="uni042A" unicode="&#x42a;" horiz-adv-x="699" 
d="M435.2 441.8c133.5 0 230.4 -92.9004 230.4 -221.4c0 -126.8 -97.9004 -220.399 -230.4 -220.399h-252v634.1h-165v65.9004h235.1v-258.2h181.9zM430.3 65.8994c95 0 163.8 66.2002 163.8 155.2c0 90 -68.7998 155.5 -163.8 155.5h-177v-310.7h177z" />
    <glyph glyph-name="uni042B" unicode="&#x42b;" horiz-adv-x="865" 
d="M351.4 441.8c133.5 0 230.4 -92.9004 230.4 -221.4c0 -126.8 -97.9004 -220.399 -230.4 -220.399h-252v700h70.0996v-258.2h181.9zM695.4 700h70.0996v-700h-70.0996v700zM346.5 65.9004c95 0 163.8 66.2002 163.8 155.2c0 90 -68.7998 155.5 -163.8 155.5h-177v-310.7
h177z" />
    <glyph glyph-name="uni0409" unicode="&#x409;" horiz-adv-x="1078" 
d="M814.6 441.8c133.5 0 230.4 -92.9004 230.4 -221.4c0 -126.8 -97.9004 -220.399 -230.4 -220.399h-252.7v634.1h-287.91l-33.6904 -422.9c-12.2002 -141.1 -79.2998 -211.899 -201.5 -211.899h-23.2002v69.4004h23.9004c79.5 0 122.7 46.2002 130.7 140.7l42 490.6h420.5
v-258.2h181.9zM809.699 65.8994c94.2998 0 163.8 66.2002 163.8 155.2c0 90 -69.5 155.5 -163.8 155.5h-177v-310.7h177z" />
    <glyph glyph-name="uni040A" unicode="&#x40a;" horiz-adv-x="1015" 
d="M758.7 411.6c137.1 0 223.5 -85.5986 223.5 -205.299c0 -120.4 -86.0996 -206.301 -223.5 -206.301h-247.3v341.5h-341.9v-341.5h-70.0996v700h70.0996v-291.9h341.9v291.9h70.0996v-288.4h177.2zM755.2 66.6006c95.7002 0 155.5 54.6006 155.5 139.7
c0 84.7998 -59.7998 138.7 -155.5 138.7h-173.7v-278.4h173.7z" />
    <glyph glyph-name="uni0405" unicode="&#x405;" horiz-adv-x="592" 
d="M302.3 -8.7002c-152 0 -254.3 86.1006 -254.3 221.2h71.5c0 -94.5 75.2998 -152.5 182.1 -152.5c96.9004 0 170.301 53 170.301 134.8c0 91.2002 -87.9004 111.101 -183.2 133.001c-108.3 25.0996 -226.8 52.8994 -226.8 189.399c0 118.1 91.9004 191.5 234 191.5
c141 0 228.8 -79.5 228.8 -203.3h-69.4004c0 84.5996 -67.0996 136 -160.8 136c-94.7998 0 -162.5 -46.7002 -162.5 -121.4c0 -86.2002 86.4004 -106.101 180.4 -127.7c110.3 -26.0996 231.7 -54.5996 231.7 -196.8c0 -128 -103.9 -204.2 -241.801 -204.2z" />
    <glyph glyph-name="uni0404" unicode="&#x404;" horiz-adv-x="782" 
d="M677.8 239.5l70.1006 0.000976562c-43.9004 -155 -173.801 -250.9 -338.201 -250.9c-206.7 0 -359.4 154.7 -359.4 361.4c0 207.4 154.4 361.4 359.4 361.4c160.1 0 284 -88.9004 334.3 -239.601h-71.0996c-46.5 108 -141.3 170.2 -263.2 170.2
c-153.46 0 -270.97 -106.95 -286.79 -257.101h355.09v-65.2002h-355.55c13.75 -152.8 131.27 -261.7 287.25 -261.7c126.2 0 225.9 67.7998 268.101 181.5z" />
    <glyph glyph-name="uni042D" unicode="&#x42d;" horiz-adv-x="782" 
d="M372.3 711.4c205 0 359.391 -154 359.391 -361.4c0 -206.7 -152.7 -361.4 -359.4 -361.4c-164.4 0 -294.301 95.9004 -338.201 250.9h70.0996c42.2002 -114.4 141.9 -182.2 268.101 -182.2c155.36 0 272.87 108.96 286.57 262.4h-354.86v65.2002h354.4
c-15.75 150.78 -133.25 257.8 -286.1 257.8c-121.9 0 -216.7 -62.2002 -263.2 -170.9h-71.0996c50.2998 150.7 174.2 239.601 334.3 239.601z" />
    <glyph glyph-name="uni0406" unicode="&#x406;" horiz-adv-x="269" 
d="M99.4004 0v700h70.0996v-700h-70.0996z" />
    <glyph glyph-name="uni0407" unicode="&#x407;" horiz-adv-x="269" 
d="M26.7998 797.8v84.0996h74.7998v-84.0996h-74.7998zM167.7 797.8v84.0996h74.7998v-84.0996h-74.7998zM99.4004 -0.000976562v700h70.0996v-700h-70.0996z" />
    <glyph glyph-name="uni0408" unicode="&#x408;" horiz-adv-x="594" 
d="M267.1 -11.4004c-135.2 0 -238 102.101 -238 241.101v11.7002h69.4004v-8.90039c0 -100.9 72 -175.2 168.6 -175.2c94.2002 0 166.2 74.5996 166.2 175.199v467.5h69.4004v-470.3c0 -139 -100.7 -241.1 -235.601 -241.1z" />
    <glyph glyph-name="uni040B" unicode="&#x40b;" horiz-adv-x="758" 
d="M470 457.7c138.9 0 236.8 -82.0996 236.8 -240v-217.7h-70.7998v210.7c0 121.6 -67.5 180.399 -174.4 180.399c-44.4502 0 -96.0498 -10.79 -151.6 -30.6797v-360.42h-70.7998v634.1h-217.9v65.9004h505.9v-65.9004h-217.2v-207.84
c56.3398 20.96 110.71 31.4404 160 31.4404z" />
    <glyph glyph-name="uni042E" unicode="&#x42e;" horiz-adv-x="1041" 
d="M635 711.7c204.6 0 355.49 -153.299 355.49 -361.699c0 -209.1 -150.2 -361.399 -355.5 -361.399c-191.91 0 -337.521 136.74 -352.351 328.8h-113.15v-317.4h-70.0996v700h70.0996v-316.7h113.2c15.0703 191.72 159.971 328.399 352.311 328.399zM632.891 58.001
c165.7 0 286.101 123.5 286.101 292s-120.7 293 -286.101 293c-162.7 0 -284.9 -124.6 -284.9 -293s121.9 -292 284.9 -292z" />
    <glyph glyph-name="uni042F" unicode="&#x42f;" horiz-adv-x="644" 
d="M279.9 700l264.8 0.00976562v-700h-70.7998v282.1h-171.95l-170.95 -282.1h-82.5996l177.36 289.83c-102.66 21.21 -170.36 99.4297 -170.36 201.06c0 119.7 95.4004 209.101 224.5 209.101zM282.7 348.01h191.199v285.4h-191.2
c-90.5996 0 -155.8 -59.2002 -155.8 -142.5c0 -83 64.9004 -142.9 155.801 -142.9z" />
    <glyph glyph-name="uni0402" unicode="&#x402;" horiz-adv-x="737" 
d="M458.2 471.1c143.3 0 240 -96.6992 240 -240.699c0 -143.7 -97.4004 -239.7 -244.2 -239.7h-6.09961v68.7002h6.09961c106.2 -0.700195 173.4 71.0996 173.4 171c0 100.6 -67.9004 172 -174.101 172c-53.8496 0 -111.35 -23.6699 -147.5 -61.6504v-340.75h-70.0996v634.1
h-214.4v65.9004h501.7v-65.9004h-217.2v-214.26c42.6104 31.7598 96.25 51.2598 152.4 51.2598z" />
    <glyph glyph-name="uni0414.loclBGR" horiz-adv-x="761" 
d="M668.03 65.9004h59.2705v-207.6h-65.2002v141.7h-563.1v-141.7h-65.2002v207.6h60.0898l251.51 634.1h63.2998zM377.221 596.9l-210.14 -531h426.77z" />
    <glyph glyph-name="uni041B.loclBGR" horiz-adv-x="664" 
d="M642.3 0h-76.001l-234.6 597.28l-234.6 -597.28h-73.9004l276 700h64.7002z" />
    <glyph glyph-name="uni0416.ss01" horiz-adv-x="901" 
d="M25.2002 700h91.5996l279.2 -332.4v-9.5l-301.4 -358.1h-95.0996l308.66 364.62zM415.5 0v700h70.0996v-700h-70.0996zM592.87 364.64l308.73 -364.64h-95.0996l-301.4 358.1v9.5l279.2 332.4h91.5996z" />
    <glyph glyph-name="uni041A.ss01" horiz-adv-x="610" 
d="M99.4004 0v700h70.0996v-700h-70.0996zM278.44 363.89l336.26 -363.89h-95.4004l-330.3 357.8v9.5l307.5 332.7h91.9004z" />
    <glyph glyph-name="uni0424.ss01" horiz-adv-x="864" 
d="M813.4 350.4c0 -192.11 -134.73 -353.569 -346.9 -360.85v-106.95h-68.7002v106.98c-211.18 7.63965 -347.5 169.189 -347.5 359.42c0 191.2 136.32 353.73 347.5 361.41v95.8896h68.7002v-95.8604c212.17 -7.25 346.9 -168.32 346.9 -360.04zM466.5 56.9316
c164.93 7.40039 275.399 136.56 275.399 292.77c0 155.82 -110.47 285.25 -275.399 292.66v-585.43zM121.8 349.7c0 -155.71 111.11 -285.001 276 -292.741v585.37c-164.62 -7.75977 -276 -137.319 -276 -292.629z" />
    <glyph glyph-name="uni0414.ss02" horiz-adv-x="761" 
d="M668.03 65.9004h59.2705v-207.6h-65.2002v141.7h-563.1v-141.7h-65.2002v207.6h60.0898l251.51 634.1h63.2998zM377.221 596.9l-210.14 -531h426.77z" />
    <glyph glyph-name="uni041B.ss02" horiz-adv-x="664" 
d="M642.3 0h-76.001l-234.6 597.28l-234.6 -597.28h-73.9004l276 700h64.7002z" />
    <glyph glyph-name="uni0414.ss03" horiz-adv-x="761" 
d="M668.03 65.9004h59.2705v-207.6h-65.2002v141.7h-563.1v-141.7h-65.2002v207.6h60.0898l251.51 634.1h63.2998zM377.221 596.9l-210.14 -531h426.77z" />
    <glyph glyph-name="uni0416.ss03" horiz-adv-x="901" 
d="M25.2002 700h91.5996l279.2 -332.4v-9.5l-301.4 -358.1h-95.0996l308.66 364.62zM415.5 0v700h70.0996v-700h-70.0996zM592.87 364.64l308.73 -364.64h-95.0996l-301.4 358.1v9.5l279.2 332.4h91.5996z" />
    <glyph glyph-name="uni041A.ss03" horiz-adv-x="610" 
d="M99.4004 0v700h70.0996v-700h-70.0996zM278.44 363.89l336.26 -363.89h-95.4004l-330.3 357.8v9.5l307.5 332.7h91.9004z" />
    <glyph glyph-name="uni041B.ss03" horiz-adv-x="664" 
d="M642.3 0h-76.001l-234.6 597.28l-234.6 -597.28h-73.9004l276 700h64.7002z" />
    <glyph glyph-name="uni0416.ss04" horiz-adv-x="901" 
d="M25.2002 700h91.5996l279.2 -332.4v-9.5l-301.4 -358.1h-95.0996l308.66 364.62zM415.5 0v700h70.0996v-700h-70.0996zM592.87 364.64l308.73 -364.64h-95.0996l-301.4 358.1v9.5l279.2 332.4h91.5996z" />
    <glyph glyph-name="uni041A.ss04" horiz-adv-x="610" 
d="M99.4004 0v700h70.0996v-700h-70.0996zM278.44 363.89l336.26 -363.89h-95.4004l-330.3 357.8v9.5l307.5 332.7h91.9004z" />
    <glyph glyph-name="uni0424.ss04" horiz-adv-x="805" 
d="M437.6 674.1c195 -6.2998 320.3 -151.1 320.3 -323.699c0 -171.6 -125.3 -314.699 -320.3 -321.699v-82.5h-70.0996v82.5c-194.3 7 -320.899 151.1 -320.899 321.699c0 172.6 126.6 317.399 320.899 323.699v76.0996h70.0996v-76.0996zM118.1 350.399
c0 -140.14 102.43 -252.64 250.1 -256.46v516.29c-147.67 -5.20996 -250.1 -119.4 -250.1 -259.83zM436.899 93.9395c148.35 3.80957 248.8 116.02 248.8 256.46c0 141.43 -100.45 254.63 -248.8 259.83v-516.29z" />
    <glyph glyph-name="uni0424.ss05" horiz-adv-x="805" 
d="M437.6 674.1c195 -6.2998 320.3 -151.1 320.3 -323.699c0 -171.6 -125.3 -314.699 -320.3 -321.699v-82.5h-70.0996v82.5c-194.3 7 -320.899 151.1 -320.899 321.699c0 172.6 126.6 317.399 320.899 323.699v76.0996h70.0996v-76.0996zM118.1 350.399
c0 -140.14 102.43 -252.64 250.1 -256.46v516.29c-147.67 -5.20996 -250.1 -119.4 -250.1 -259.83zM436.899 93.9395c148.35 3.80957 248.8 116.02 248.8 256.46c0 141.43 -100.45 254.63 -248.8 259.83v-516.29z" />
    <glyph glyph-name="uni0430" unicode="&#x430;" horiz-adv-x="700" 
d="M555.8 540h54.6885v-540h-56.7998l-7.65039 96.71c-49.1396 -66.6104 -128.02 -108.11 -222.539 -108.11c-158.8 0 -278.2 121 -278.2 281.4c0 161.1 119.4 281.399 278.2 281.399c94.9902 0 174.181 -41.6699 223.271 -108.8zM328.389 54.5
c123 0 212.7 91.2998 212.7 215.5s-89.7002 215.5 -212.7 215.5c-122.4 0 -213.7 -92.9004 -213.7 -215.5c0 -122.9 91.2998 -215.5 213.7 -215.5z" />
    <glyph glyph-name="uni0431" unicode="&#x431;" horiz-adv-x="657" 
d="M347.5 511.4c153.2 0 263.001 -108.8 263.001 -258.6c0 -153.3 -113.3 -264.2 -272.1 -264.2c-164.7 0 -274.5 114.8 -274.5 287.3c0 284 90.0996 408.3 340.199 467.899l153.6 36.5996v-67.5996l-151.3 -35.5996c-158.79 -37.04 -241.75 -115.8 -265.01 -259.55
c48.1797 61.3203 118.18 93.75 206.109 93.75zM338.401 54.5c115.7 0 202.7 85.5996 202.7 198.3s-87 199 -202.7 199c-117 0 -203.7 -85.5996 -203.7 -199c0 -112.7 87 -198.3 203.7 -198.3z" />
    <glyph glyph-name="uni0432" unicode="&#x432;" horiz-adv-x="573" 
d="M423.06 281.36c57.4404 -18.9805 95.3301 -69.5605 95.3301 -131.86c0 -85.7002 -70.5 -149.5 -164.3 -149.5h-264.4v540h262c88.5 0 148.7 -55.7998 148.7 -135.6c0 -55.9502 -30.3301 -102.63 -77.3301 -123.04zM433.089 393.2c0 50 -36.2998 83 -90.5 83h-186.3
v-165.3h186.3c54.5996 0 90.5 33.2998 90.5 82.2998zM346.389 64.5c59.0996 0 101.899 38.5 101.899 92s-42.7998 92 -102.899 92h-189.1v-184h190.1z" />
    <glyph glyph-name="uni0433" unicode="&#x433;" horiz-adv-x="438" 
d="M420.9 540l-0.000976562 -61h-264.6v-479h-66.5996v540h331.2z" />
    <glyph glyph-name="uni0453" unicode="&#x453;" horiz-adv-x="438" 
d="M354.3 756.5l-89 -152h-54.5996l70.7998 152h72.7998zM420.899 540l-0.000976562 -61h-264.6v-479h-66.5996v540h331.2z" />
    <glyph glyph-name="uni0491" unicode="&#x491;" horiz-adv-x="438" 
d="M355.7 661h65.1992v-182h-264.6v-479h-66.5996v540h266v121z" />
    <glyph glyph-name="uni0434" unicode="&#x434;" horiz-adv-x="643" 
d="M530.5 64.5h74.4014v-210.4h-62.4004v145.9h-462.7v-145.9h-62.4004v210.4h58.9102c47.7402 42.3096 58.04 104.149 87.0898 475.8h367.1v-475.8zM224.722 480c-20.1504 -292.38 -35.0303 -369.6 -74.8301 -415.5h314.01v415.5h-239.18z" />
    <glyph glyph-name="uni0435" unicode="&#x435;" horiz-adv-x="633" 
d="M589.5 269.7c0 -8.2998 -0.699219 -16.9004 -1.39941 -25.2002h-474.66c10.96 -112.5 93.6602 -189.3 206.061 -189.3c81.2998 0 146.5 39.5996 183 106h71.7998c-47.4004 -109.9 -139.801 -172.601 -254.801 -172.601c-155.8 0 -273.899 121 -273.899 281.7
c0 160.1 118.1 281.1 273.899 281.1c161.1 0 270 -124.6 270 -281.699zM319.501 486.899c-108.58 0 -189.439 -72.5498 -204.689 -179.3h407.14c-15.4297 109.3 -96.7598 179.3 -202.45 179.3z" />
    <glyph glyph-name="uni0451" unicode="&#x451;" horiz-adv-x="633" 
d="M264 726.1v-84.0996h-81.7998v84.0996h81.7998zM451.5 726.1v-84.0996h-81.7998v84.0996h81.7998zM589.5 269.7c0 -8.2998 -0.699219 -16.9004 -1.39941 -25.2002h-474.66c10.96 -112.5 93.6602 -189.3 206.061 -189.3c81.2998 0 146.5 39.5996 183 106h71.7998
c-47.4004 -109.9 -139.801 -172.601 -254.801 -172.601c-155.8 0 -273.899 121 -273.899 281.7c0 160.1 118.1 281.1 273.899 281.1c161.1 0 270 -124.6 270 -281.699zM319.501 486.899c-108.58 0 -189.439 -72.5498 -204.689 -179.3h407.14
c-15.4297 109.3 -96.7598 179.3 -202.45 179.3z" />
    <glyph glyph-name="uni0436" unicode="&#x436;" horiz-adv-x="787" 
d="M699 0l-193.409 250.1h-78.9902v-250.1h-65.9004v250.1h-79.0195l-193.68 -250.1h-83.9004l220.08 284.21l-200.08 255.79h79.7002l178.3 -228.9h78.5996v228.9h65.9004v-228.9h78.5596l178.04 228.9h79.7002l-199.8 -255.79l219.8 -284.21h-83.9004z" />
    <glyph glyph-name="uni0437" unicode="&#x437;" horiz-adv-x="485" 
d="M353.35 285.29c49.9297 -24.0303 80.4385 -72.3584 80.4385 -133.378c0 -95.9004 -84.9004 -163.301 -203.601 -163.301c-108.5 0 -187.1 60.2002 -199.399 152.4h62.4004c13 -54.0996 65 -87.8994 137 -87.8994c80.2002 0 137 42.7998 137 103.7
c0 55.2998 -45.9004 98.3994 -110.9 98.3994h-85.7002v56.0996h85.4004c60.2998 0 100.5 35.5996 100.5 85.5996c0 55.4004 -51.0996 94.2002 -124.8 94.2002c-64.5996 0 -112.199 -31.5 -123.899 -81.5h-62.4004c11 85 87 141.8 187.7 141.8
c108.4 0 187.9 -63.4004 187.9 -149.601c0 -52.4004 -25.04 -94.0801 -67.6396 -116.521z" />
    <glyph glyph-name="uni0438" unicode="&#x438;" horiz-adv-x="616" 
d="M488.5 540h38.1006v-540h-64.5v416.05l-332.9 -416.05h-39.5v540h65.2002v-413.71z" />
    <glyph glyph-name="uni0439" unicode="&#x439;" horiz-adv-x="616" 
d="M438.3 709.2v-51.9004h-258.6v51.9004h258.6zM488.5 540h38.1006v-540h-64.5v416.05l-332.9 -416.05h-39.5v540h65.2002v-413.71z" />
    <glyph glyph-name="uni045D" unicode="&#x45d;" horiz-adv-x="616" 
d="M344 604.5h-54.5996l-89 152h72.7998zM488.5 540h38.1006v-540h-64.5v416.05l-332.9 -416.05h-39.5v540h65.2002v-413.71z" />
    <glyph glyph-name="uni043A" unicode="&#x43a;" horiz-adv-x="529" 
d="M442.2 0l-199.111 250.1h-85.3896v-250.1h-68v540h68v-226.8h86.4902l180.41 226.8h83.2002l-205.59 -258.72l225.29 -281.28h-85.2998z" />
    <glyph glyph-name="uni045C" unicode="&#x45c;" horiz-adv-x="529" 
d="M393.1 756.5l-89 -152h-54.5996l70.7998 152h72.7998zM442.199 0l-199.111 250.1h-85.3896v-250.1h-68v540h68v-226.8h86.4902l180.41 226.8h83.2002l-205.59 -258.72l225.29 -281.28h-85.2998z" />
    <glyph glyph-name="uni043B" unicode="&#x43b;" horiz-adv-x="613" 
d="M178.8 540h344.2v-540h-67.2998v480.4h-219.53l-31.3701 -295.2c-14.4004 -138 -65.7002 -187.3 -176.601 -187.3h-12.0996v63.7998h15.5996c66.4004 0 98 34.0996 107.2 120.3z" />
    <glyph glyph-name="uni043C" unicode="&#x43c;" horiz-adv-x="793" 
d="M752.1 0h-65.8984l-85.5 427.12l-196.3 -412.32h-16.4004l-195.49 412.44l-85.6104 -427.24h-65.9004l107.4 540h56.2998l191.77 -403.97l191.93 403.97h56.2998z" />
    <glyph glyph-name="uni043D" unicode="&#x43d;" horiz-adv-x="626" 
d="M470.1 540h66.5996v-540h-66.5996v247.4h-313.8v-247.4h-66.5996v540h66.5996v-228.8h313.8v228.8z" />
    <glyph glyph-name="uni043E" unicode="&#x43e;" horiz-adv-x="660" 
d="M329.9 -11.4004c-162.5 0 -284.6 120 -284.6 281.4c0 162.4 122.1 281.4 284.6 281.4c162.8 0 284.6 -120 284.6 -281.4s-121.8 -281.4 -284.6 -281.4zM329.9 54.5c124.3 0 215.2 91.2002 215.2 215.5s-90.9004 215.5 -215.2 215.5s-215.2 -90.9004 -215.2 -215.5
c0 -124.3 91.2002 -215.5 215.2 -215.5z" />
    <glyph glyph-name="uni043F" unicode="&#x43f;" horiz-adv-x="630" 
d="M89.7002 540h450.6v-540h-67.2998v477.6h-315.3v-477.6h-68v540z" />
    <glyph glyph-name="uni0440" unicode="&#x440;" horiz-adv-x="696" 
d="M373.5 551.4c160.7 0 276.501 -120.3 276.501 -281.399c0 -160.4 -115.8 -281.4 -276.5 -281.4c-89.2402 0 -165.931 38.5498 -215.801 100.979v-281.68h-68v732.1h47.7002l14.1699 -97.25c49.5996 67.04 128.949 108.65 221.93 108.65zM368.601 54.5
c123 0 212.7 91.2998 212.7 215.5s-89.7002 215.5 -212.7 215.5c-122.4 0 -213.7 -92.5996 -213.7 -215.5c0 -122.6 91.2998 -215.5 213.7 -215.5z" />
    <glyph glyph-name="uni0441" unicode="&#x441;" horiz-adv-x="619" 
d="M324.8 -11.4004c-158.8 0 -279.5 121 -279.5 281.4c0 161 120.4 281.4 279.5 281.4c125.8 0 224.5 -73.7998 258.9 -186.2h-67.5996c-33.7002 74.7998 -105.601 120.3 -191.301 120.3c-120.2 0 -210.101 -93.2998 -210.101 -215.5
c0 -121.9 90.9004 -215.5 210.101 -215.5c85.4004 0 155.9 45.2002 191.2 122.7h69c-35.2998 -114.7 -136 -188.601 -260.2 -188.601z" />
    <glyph glyph-name="uni0442" unicode="&#x442;" horiz-adv-x="516" 
d="M499.1 540v-61.7002h-207.9v-478.3h-66.5996v478.3h-207.6v61.7002h482.1z" />
    <glyph glyph-name="uni0443" unicode="&#x443;" horiz-adv-x="582" 
d="M491.3 540h72.499l-263.1 -570.4c-56.2998 -122.8 -106.2 -161.7 -203 -161.7h-48.0996v61.7002h42.5c72.9004 0 102 22.2998 146.5 115.5l23.6602 49.4404l-244.06 505.46h74.2002l205.34 -429.91z" />
    <glyph glyph-name="uni045E" unicode="&#x45e;" horiz-adv-x="582" 
d="M164.9 657.3v51.9004h258.6v-51.9004h-258.6zM491.301 540h72.499l-263.1 -570.4c-56.2998 -122.8 -106.2 -161.7 -203 -161.7h-48.0996v61.7002h42.5c72.9004 0 102 22.2998 146.5 115.5l23.6602 49.4404l-244.06 505.46h74.2002l205.34 -429.91z" />
    <glyph glyph-name="uni0444" unicode="&#x444;" horiz-adv-x="727" 
d="M681.5 268.6c0 -163.04 -120.149 -275.261 -284.1 -279.86v-158.74h-68v158.74c-163.96 4.59961 -284.1 116.819 -284.1 279.859c0 163.41 120.79 277.94 284.1 282.65v150.85h68v-150.85c163.3 -4.67969 284.1 -118.55 284.1 -282.649zM112.601 269.299
c0 -122.09 88.7207 -208.729 216.801 -213.22v427.83c-127.44 -4.59961 -216.801 -92.8301 -216.801 -214.61zM397.401 56.0791c127.43 4.5498 216.8 91.8301 216.8 213.22c0 121.76 -90 209.99 -216.8 214.61v-427.83z" />
    <glyph glyph-name="uni0445" unicode="&#x445;" horiz-adv-x="505" 
d="M496.3 0h-76.5996l-167.51 236.82l-167.89 -236.82h-75.2002l202.13 281.53l-184.33 258.47h76.5996l149.37 -210.78l151.13 210.78h75.2002l-185.79 -255.67z" />
    <glyph glyph-name="uni0447" unicode="&#x447;" horiz-adv-x="544" 
d="M388.7 540l65.9014 0.000976562v-540h-65.9004v216.05c-42.3604 -16.9902 -90.0303 -26.75 -136.4 -26.75c-122.8 0 -210.2 72.2002 -210.2 206.101v144.6h66.5996v-139.7c0 -92.4004 53.5996 -145.101 148.5 -145.101c43.2598 0 91.3301 11.7998 131.5 31.2598v253.54z
" />
    <glyph glyph-name="uni0446" unicode="&#x446;" horiz-adv-x="634" 
d="M521.4 63.0996h75.8008v-209h-62.4004v145.9h-445.1v540h66.5996v-476.9h298.5v476.9h66.5996v-476.9z" />
    <glyph glyph-name="uni0448" unicode="&#x448;" horiz-adv-x="843" 
d="M686.4 540h67.3008v-540h-664v540h66.5996v-476.9h232.8v476.9h65.2002v-476.9h232.1v476.9z" />
    <glyph glyph-name="uni0449" unicode="&#x449;" horiz-adv-x="866" 
d="M753.7 63.0996h75.8018v-209h-62.4004v145.9h-677.4v540h66.5996v-476.9h232.8v476.9h65.2002v-476.9h232.1v476.9h67.2998v-476.9z" />
    <glyph glyph-name="uni045F" unicode="&#x45f;" horiz-adv-x="634" 
d="M544.1 540v-540h-194.1v-143.8h-65.2002v143.8h-195.1v540h66.5996v-476.9h321.2v476.9h66.5996z" />
    <glyph glyph-name="uni044C" unicode="&#x44c;" horiz-adv-x="523" 
d="M303.3 361.9c109.9 0 188.7 -73.9004 188.7 -181.301c0 -107 -78.7998 -180.6 -188.7 -180.6h-213.6v540h66.5996v-178.1h147zM294.899 61c75.7998 0 127.7 48.8994 127.7 119.6c0 70.4004 -51.9004 120.301 -127.7 120.301h-138.6v-239.9h138.6z" />
    <glyph glyph-name="uni044A" unicode="&#x44a;" horiz-adv-x="617" 
d="M397.1 361.9c109.9 0 188.699 -73.9004 188.699 -181.301c0 -107 -78.7998 -180.6 -188.7 -180.6h-213.6v480.4h-165.8v59.5996h232.4v-178.1h147zM388.698 61c75.7998 0 127.7 48.8994 127.7 119.6c0 70.4004 -51.9004 120.301 -127.7 120.301h-138.6v-239.9h138.6z" />
    <glyph glyph-name="uni044B" unicode="&#x44b;" horiz-adv-x="751" 
d="M303.3 361.9c109.9 0 188.7 -73.9004 188.7 -181.301c0 -107 -78.7998 -180.6 -188.7 -180.6h-213.6v540h66.5996v-178.1h147zM593.7 540h68v-540h-68v540zM294.9 61c75.7998 0 127.7 48.8994 127.7 119.6c0 70.4004 -51.9004 120.301 -127.7 120.301h-138.6v-239.9
h138.6z" />
    <glyph glyph-name="uni0459" unicode="&#x459;" horiz-adv-x="870" 
d="M651.1 359.1c109.2 0 188.001 -73.2002 188.001 -179.9c0 -106.3 -78.7998 -179.2 -188 -179.2h-214.3v480.4h-199.37l-31.2305 -294.5c-14.4004 -138 -65.7002 -187.3 -176.601 -187.3h-13.5v62.4004h17c66.0996 0 98 33.7998 107.2 120.3l39.9004 358.7h321.1v-180.9
h149.8zM644.801 57.5c75.0996 0 127.699 49.6006 127.699 121.7c0 71.7998 -52.5996 122.399 -127.699 122.399h-143.5v-244.1h143.5z" />
    <glyph glyph-name="uni045A" unicode="&#x45a;" horiz-adv-x="851" 
d="M639.9 343.9c110.2 0 179.9 -69.3994 179.9 -171.6c0 -102.9 -69.7002 -172.301 -179.9 -172.301h-208.8v259.8h-274.8v-259.8h-66.5996v540h66.5996v-216.4h274.8v216.4h66.5996v-196.1h142.2zM630.801 62.4014c73.5 0 119.6 42.1006 119.6 109.9
c0 67.0996 -46.0996 109.199 -119.6 109.199h-133.1v-219.1h133.1z" />
    <glyph glyph-name="uni0455" unicode="&#x455;" horiz-adv-x="511" 
d="M255.5 -11.4004c-126 0 -206.701 65.8008 -212.501 171.001h66.5996c5.7998 -69.5 64 -107.9 148 -107.9c83.2002 0 141.101 36.7998 141.101 96.7002c0 72.7998 -73.5996 86.5996 -151.8 99.7998c-92.5996 16 -193.6 34.0996 -193.6 150.899
c0 90.7002 80.2002 152.3 199.601 152.3c119.7 0 196.3 -62.7002 200.2 -161.8h-64.5c-3.90039 64.0996 -54.2002 100.8 -137.101 100.8c-80.5 0 -132.3 -35.5996 -132.3 -89.1992c0 -64.7998 67.2002 -76 144.4 -88.5c93.5996 -15.2998 202.399 -33.2002 202.399 -161.5
c0 -98.4004 -84.2002 -162.601 -210.5 -162.601z" />
    <glyph glyph-name="uni0454" unicode="&#x454;" horiz-adv-x="625" 
d="M522.3 192.5h67.5996c-31.9004 -120.7 -136.101 -203.9 -264.7 -203.9c-158.5 0 -279.9 123 -279.9 283.4c0 158.7 120.4 279.4 279.9 279.4c127.6 0 230.8 -79.2002 262.7 -197.2h-66.2002c-29.7998 81.9004 -106.3 136.2 -197.2 136.2
c-114.22 0 -199.47 -79.0303 -212.319 -189.7h257.42v-56.7998h-257.63c12.1699 -112.2 98.7998 -193.601 212.53 -193.601c91.9004 0 169 56.2002 197.8 142.2z" />
    <glyph glyph-name="uni044D" unicode="&#x44d;" horiz-adv-x="625" 
d="M299.3 551.4c159.5 0 279.9 -120.7 279.9 -279.4c0 -160.4 -121.4 -283.4 -279.9 -283.4c-128.6 0 -232.8 83.2002 -264.7 203.9h67.5996c28.7998 -86 105.899 -142.2 197.8 -142.2c113.73 0 200.36 81.4004 212.53 193.601h-257.63v56.7998h257.42
c-12.8496 110.67 -98.0996 189.7 -212.319 189.7c-90.9004 0 -167.4 -54.2998 -197.2 -136.2h-66.2002c31.9004 118 135.101 197.2 262.7 197.2z" />
    <glyph glyph-name="uni0456" unicode="&#x456;" horiz-adv-x="247" 
d="M84.9004 642v84.0996h77.5996v-84.0996h-77.5996zM89.7002 -0v540h68v-540h-68z" />
    <glyph glyph-name="uni0457" unicode="&#x457;" horiz-adv-x="247" 
d="M17.9004 641.7v84.0996h72.9502v-84.0996h-72.9502zM156 641v84.0996h72.9502v-84.0996h-72.9502zM89.7002 -0v540h68v-540h-68z" />
    <glyph glyph-name="uni0458" unicode="&#x458;" horiz-adv-x="259" 
d="M97.5996 642v84.0996h77.5996v-84.0996h-77.5996zM-41.7002 -192.101v62.3994h28c73.5996 0 115.399 42.5 115.399 115.8v553.9h68v-558.8c0 -104.8 -68.7998 -173.3 -174.3 -173.3h-37.0996z" />
    <glyph glyph-name="uni045B" unicode="&#x45b;" horiz-adv-x="641" 
d="M351.1 551.4c128.9 0 209.501 -88.6006 209.501 -229.2v-322.2h-68v306.8c0 115.7 -57.4004 182.2 -158.301 182.2c-98.0996 0 -176.6 -83.5 -176.6 -188v-301h-68v598.9h-96v57.5h96v75.7002h68v-75.7002h192.3v-57.5h-192.3v-145.99
c41.1299 60.6904 111.01 98.4902 193.399 98.4902z" />
    <glyph glyph-name="uni044E" unicode="&#x44e;" horiz-adv-x="854" 
d="M532.8 551.4c157.8 0 275.501 -120.3 275.501 -282.1c0 -161.4 -117 -280.7 -275.5 -280.7c-148.38 0 -260.53 104.16 -274.61 249.5h-100.49v-239.4h-68v541.3h68v-238.1h100.62c14.6797 145.33 127.18 249.5 274.479 249.5zM532.801 54.5
c118.2 0 206.101 91.9004 206.101 214.801c0 123.6 -88.9004 216.199 -206.101 216.199c-118.5 0 -206.7 -92.5996 -206.7 -216.199c0 -122.9 88.2002 -214.801 206.7 -214.801z" />
    <glyph glyph-name="uni044F" unicode="&#x44f;" horiz-adv-x="556" 
d="M226.1 540l240.198 -0.000976562v-539.7h-66.5996v212.7h-151.42l-135.28 -213h-75.5996l140.85 222.03c-74.6797 18.3301 -123.449 77.7402 -123.449 154.471c0 94.5996 71.9004 163.5 171.301 163.5zM229.897 278.899l169.8 -0.000976562v195.2h-168
c-64.0996 0 -107.5 -39.7998 -107.5 -97.5996c0 -57.5 42.7998 -97.5996 105.7 -97.5996z" />
    <glyph glyph-name="uni0452" unicode="&#x452;" horiz-adv-x="641" 
d="M351.1 550.7c128.9 0 209.501 -88.6025 209.501 -229.202v-319.6c0 -116.1 -75.7998 -191.899 -191.899 -191.899h-25.7002v63.0996h16.5996c81.7998 0 133 51.2002 133 133v300c0 116.4 -57.4004 182.9 -158.301 182.9c-98.0996 0 -176.6 -84.2002 -176.6 -188.7v-300.3
h-68v598.9h-97.4004v57.5h97.4004v75.7002h68v-75.7002h190.9v-57.5h-190.9v-143.47c41.1299 58.6104 111.01 95.2705 193.399 95.2705z" />
    <glyph glyph-name="uni0432.loclBGR" horiz-adv-x="622" 
d="M455.42 385.2c74.8896 -32.2998 119.479 -104.681 119.479 -184.4c0 -127.1 -107.3 -211.5 -248.3 -211.5c-157.8 0 -249.8 105 -249.8 288v187.4c0 179.2 91.9004 280.601 247 280.601c131.3 0 226.899 -78.4004 226.899 -194.5
c0 -69.0303 -35.7598 -133.721 -95.2793 -165.601zM323.81 679.399c-113.8 0 -180.4 -71.5996 -180.4 -214.699v-50.2002h197.1c86.7002 0 147.101 54.5 147.101 132.1c0 79.7002 -65.0996 132.8 -163.8 132.8zM326.608 55.1992c108.4 0 180.299 60.501 180.299 150.501
c0 85.7998 -66.0996 144.3 -162.899 144.3h-200.6v-72.7002c0 -145.9 65.2998 -222.101 183.2 -222.101z" />
    <glyph glyph-name="uni0433.loclBGR" horiz-adv-x="514" 
d="M256.8 -6.7998c-128.3 0 -213.499 61.9004 -213.499 156.601c0 120.1 106.7 140.8 201.3 157.8c78.9004 14.9004 148.801 28.1006 148.801 94.3008c0 52.2998 -52.5 87.5996 -134 87.5996c-86.4004 0 -136.601 -38.2998 -136.601 -107.2h-61.7002
c0 105.9 78.7998 166.801 197.6 166.801c119 0 199.2 -59.9004 199.2 -147.2c0 -115.4 -100.9 -134.101 -193.101 -151.101c-79.9004 -14.2002 -154.2 -28 -154.2 -101c0 -56.2002 58.2002 -91.4004 146.2 -91.4004c92.5996 0 147.8 41.5996 147.8 114h65.2002
c0 -113.9 -84.9004 -179.2 -213 -179.2z" />
    <glyph glyph-name="uni0434.loclBGR" horiz-adv-x="675" 
d="M538.9 540l46.2891 -0.000976562v-463.2c0 -174.3 -99.2002 -280.3 -261.8 -280.3c-128.6 0 -219.699 66.4004 -250.499 177.601h68c26.5996 -73.7002 97.1992 -115.2 182.499 -115.2c117.8 0 195.2 78.2998 195.2 209.5v44.7305
c-48.0703 -58.9502 -121.98 -95.2305 -208.2 -95.2305c-149.7 0 -264.8 115.4 -264.8 266.4c0 150.7 115.4 267.101 264.801 267.101c91.5898 0 169.84 -41.9502 217.54 -108.521zM317.39 83.0986c116.1 0 200.5 85.2998 200.5 201.2
c0 116.3 -84.7002 201.899 -200.5 201.899c-116.1 0 -202.399 -86.9004 -202.399 -201.9c0 -114.6 86.2998 -201.199 202.399 -201.199z" />
    <glyph glyph-name="uni0436.loclBGR" horiz-adv-x="765" 
d="M678.2 0l-184.368 250.1h-78.0303v-250.1h-65.9004v250.1h-78.0703l-184.63 -250.1h-82.7998l208.34 282.56l-188.34 257.44h78.5996l169.31 -228.9h77.5898v423.9h65.9004v-423.9h77.5498l169.05 228.9h78.5996l-188.06 -257.43l208.06 -282.57h-82.7998z" />
    <glyph glyph-name="uni0437.loclBGR" horiz-adv-x="565" 
d="M414.6 193.25c64.6299 -29.8896 107.903 -100.282 107.903 -181.252c0 -127.4 -100.7 -216.2 -242.601 -216.2c-133.8 0 -232.5 80.7002 -246.6 198.5h68c14.0996 -78.5996 85.7998 -132.6 178.6 -132.6c101.1 0 173.899 63.2998 173.899 155.2
c0 78.4004 -59.5996 140.4 -141.5 140.4h-106.9l-0.700195 65.2002h107c67.7002 0 117.3 57.5 117.3 128c0 79.7002 -64.4004 134.3 -155.101 134.3c-85.2998 0 -149.1 -51.0996 -159.8 -126.8h-65.9004c10 114.9 101.2 192.7 225.7 192.7
c129.8 0 223.8 -81.9004 223.8 -196c0 -68.3398 -32.9404 -129.149 -83.1006 -161.449z" />
    <glyph glyph-name="uni0438.loclBGR" horiz-adv-x="641" 
d="M483.7 540h68.001v-540h-51.2002l-12.21 94.1602c-40.4004 -64.8203 -112.45 -105.561 -197.99 -105.561c-128.9 0 -209.5 94.9004 -209.5 229.2v322.2h68v-306.8c0 -115.7 56.7002 -182.2 158.3 -182.2c98.0996 0 176.6 83.5 176.6 188v301z" />
    <glyph glyph-name="uni0439.loclBGR" horiz-adv-x="641" 
d="M452.5 709.2v-51.9004h-258.6v51.9004h258.6zM483.7 540h68.001v-540h-51.2002l-12.21 94.1602c-40.4004 -64.8203 -112.45 -105.561 -197.99 -105.561c-128.9 0 -209.5 94.9004 -209.5 229.2v322.2h68v-306.8c0 -115.7 56.7002 -182.2 158.3 -182.2
c98.0996 0 176.6 83.5 176.6 188v301z" />
    <glyph glyph-name="uni043A.loclBGR" horiz-adv-x="539" 
d="M449.2 0l-199.11 250.101h-85.3896v-250.1h-68v732.1h68v-418.9h86.46l180.14 226.8h83.2002l-205.3 -258.71l225.3 -281.29h-85.2998z" />
    <glyph glyph-name="uni043B.loclBGR" horiz-adv-x="530" 
d="M507.2 0h-69.7012l-171.76 446.67l-175.54 -446.67h-68.2998l213.5 540h59.9004z" />
    <glyph glyph-name="uni043F.loclBGR" horiz-adv-x="641" 
d="M351.1 551.4c128.9 0 209.501 -94.8994 209.501 -229.199v-322.2h-68v306.8c0 115.7 -57.4004 182.2 -158.301 182.2c-98.0996 0 -176.6 -83.5 -176.6 -188v-301h-68v540h49.0996l13.5303 -95.4004c40.25 65.5303 112.68 106.8 198.77 106.8z" />
    <glyph glyph-name="uni0442.loclBGR" horiz-adv-x="952" 
d="M683.5 551.4c112.6 0 187.102 -85.3975 187.102 -207.497v-343.9h-67.7002l-0.299805 323.6c0 102.2 -50.2002 165.4 -132.4 165.4c-87.9004 0 -156.101 -78.2998 -156.4 -184.5v-304.5h-66.5996v323.6c0 102.8 -49.9004 165.399 -133.101 165.399
c-87.9004 0 -156.101 -78.2998 -156.4 -184.5v-304.5h-68v540h49.7998l11.5303 -83.1602c39.5898 58.9697 104.63 94.5596 177.77 94.5596c79.3301 0 139.62 -43.1104 167.67 -111.891c37.6504 69.2598 107.49 111.89 187.03 111.89z" />
    <glyph glyph-name="uni0446.loclBGR" horiz-adv-x="671" 
d="M551.7 160.7c0 -78.7998 31.5986 -114.399 101.299 -114.399v-192.2h-63.0996v151.1c-52.1396 6.61035 -81.7998 38.21 -93.2998 95.3701c-41.4697 -65.9004 -116.85 -111.971 -206.3 -111.971c-128.9 0 -209.5 94.2002 -209.5 228.5v322.9h68v-306.1
c0 -116.4 57.4004 -182.9 158.301 -182.9c98.0996 0 176.6 84.2002 176.6 188.7v300.3h68v-379.3z" />
    <glyph glyph-name="uni0448.loclBGR" horiz-adv-x="951" 
d="M793 540l67.998 -0.000976562v-540h-51.2002l-10.46 81.6504c-39.6797 -58.0703 -104.229 -93.0508 -176.739 -93.0508c-79.3301 0 -139.62 43.0996 -167.67 111.89c-37.6504 -69.2695 -107.5 -111.89 -187.03 -111.89c-112.6 0 -187.1 85.4004 -187.1 207.5v343.9
h67.7002l0.299805 -323.6c0.299805 -102.2 50.2002 -165.4 132.4 -165.4c87.9004 0 156.101 78.2998 156.4 184.5v304.5h66.5996v-323.6c0 -102.8 49.9004 -165.399 133.101 -165.399c87.2002 0 155.4 78.2998 155.7 184.5v304.5z" />
    <glyph glyph-name="uni0449.loclBGR" horiz-adv-x="981" 
d="M861.7 160.7c0 -80.2002 32.999 -114.401 100.599 -114.401v-192.2h-62.4004v150.73c-48.5801 6.59961 -80.2803 34.96 -93.5303 83.9297c-38.8096 -62.21 -106.899 -100.16 -183.77 -100.16c-79.3301 0 -139.62 43.0996 -167.67 111.89
c-37.6504 -69.2695 -107.5 -111.89 -187.03 -111.89c-112.6 0 -187.1 85.4004 -187.1 207.5v343.9h67.7002l0.299805 -323.6c0.299805 -102.2 50.2002 -165.4 132.4 -165.4c87.9004 0 156.101 78.2998 156.4 184.5v304.5h66.5996v-323.6
c0 -102.8 49.9004 -165.399 133.101 -165.399c87.9004 0 156.4 78.2998 156.4 184.5v304.5h68v-379.3z" />
    <glyph glyph-name="uni044E.loclBGR" horiz-adv-x="853" 
d="M531.3 551.4c158.5 0 276.2 -120.3 276.2 -282.1c0 -161.4 -117 -280.7 -276.2 -280.7c-149.04 0 -261.23 104.16 -275.311 249.5h-98.29v-239.4h-68v733.4h68v-430.2h98.4199c14.6904 145.33 127.221 249.5 275.181 249.5zM531.3 54.5
c118.9 0 206.801 91.9004 206.801 214.801c0 123.6 -88.9004 216.199 -206.801 216.199c-119.2 0 -207.4 -92.5996 -207.4 -216.199c0 -122.9 88.2002 -214.801 207.4 -214.801z" />
    <glyph glyph-name="uni0436.ss01" horiz-adv-x="769" 
d="M18.7998 540h81.0996l224.5 -256.1v-8.7002l-244.5 -275.2h-81.0996l246.36 281.49zM351.399 0v540h65.9004v-540h-65.9004zM523.419 281.65l246.48 -281.65h-81.0996l-244.5 275.2v8.7002l224.5 256.1h81.0996z" />
    <glyph glyph-name="uni043A.ss01" horiz-adv-x="513" 
d="M89.7002 0v540h68v-540h-68zM265.03 282.05l251.37 -282.05h-82.7998l-244 276.6v8.7002l228.2 254.7h78.5996z" />
    <glyph glyph-name="uni0432.ss02" horiz-adv-x="622" 
d="M455.42 385.2c74.8896 -32.2998 119.479 -104.681 119.479 -184.4c0 -127.1 -107.3 -211.5 -248.3 -211.5c-157.8 0 -249.8 105 -249.8 288v187.4c0 179.2 91.9004 280.601 247 280.601c131.3 0 226.899 -78.4004 226.899 -194.5
c0 -69.0303 -35.7598 -133.721 -95.2793 -165.601zM323.81 679.399c-113.8 0 -180.4 -71.5996 -180.4 -214.699v-50.2002h197.1c86.7002 0 147.101 54.5 147.101 132.1c0 79.7002 -65.0996 132.8 -163.8 132.8zM326.608 55.1992c108.4 0 180.299 60.501 180.299 150.501
c0 85.7998 -66.0996 144.3 -162.899 144.3h-200.6v-72.7002c0 -145.9 65.2998 -222.101 183.2 -222.101z" />
    <glyph glyph-name="uni0433.ss02" horiz-adv-x="514" 
d="M256.8 -6.7998c-128.3 0 -213.499 61.9004 -213.499 156.601c0 120.1 106.7 140.8 201.3 157.8c78.9004 14.9004 148.801 28.1006 148.801 94.3008c0 52.2998 -52.5 87.5996 -134 87.5996c-86.4004 0 -136.601 -38.2998 -136.601 -107.2h-61.7002
c0 105.9 78.7998 166.801 197.6 166.801c119 0 199.2 -59.9004 199.2 -147.2c0 -115.4 -100.9 -134.101 -193.101 -151.101c-79.9004 -14.2002 -154.2 -28 -154.2 -101c0 -56.2002 58.2002 -91.4004 146.2 -91.4004c92.5996 0 147.8 41.5996 147.8 114h65.2002
c0 -113.9 -84.9004 -179.2 -213 -179.2z" />
    <glyph glyph-name="uni0434.ss02" horiz-adv-x="675" 
d="M538.9 540l46.2891 -0.000976562v-463.2c0 -174.3 -99.2002 -280.3 -261.8 -280.3c-128.6 0 -219.699 66.4004 -250.499 177.601h68c26.5996 -73.7002 97.1992 -115.2 182.499 -115.2c117.8 0 195.2 78.2998 195.2 209.5v44.7305
c-48.0703 -58.9502 -121.98 -95.2305 -208.2 -95.2305c-149.7 0 -264.8 115.4 -264.8 266.4c0 150.7 115.4 267.101 264.801 267.101c91.5898 0 169.84 -41.9502 217.54 -108.521zM317.39 83.0986c116.1 0 200.5 85.2998 200.5 201.2
c0 116.3 -84.7002 201.899 -200.5 201.899c-116.1 0 -202.399 -86.9004 -202.399 -201.9c0 -114.6 86.2998 -201.199 202.399 -201.199z" />
    <glyph glyph-name="uni0436.ss02" horiz-adv-x="765" 
d="M678.2 0l-184.368 250.1h-78.0303v-250.1h-65.9004v250.1h-78.0703l-184.63 -250.1h-82.7998l208.34 282.56l-188.34 257.44h78.5996l169.31 -228.9h77.5898v423.9h65.9004v-423.9h77.5498l169.05 228.9h78.5996l-188.06 -257.43l208.06 -282.57h-82.7998z" />
    <glyph glyph-name="uni0437.ss02" horiz-adv-x="565" 
d="M414.6 193.25c64.6299 -29.8896 107.903 -100.282 107.903 -181.252c0 -127.4 -100.7 -216.2 -242.601 -216.2c-133.8 0 -232.5 80.7002 -246.6 198.5h68c14.0996 -78.5996 85.7998 -132.6 178.6 -132.6c101.1 0 173.899 63.2998 173.899 155.2
c0 78.4004 -59.5996 140.4 -141.5 140.4h-106.9l-0.700195 65.2002h107c67.7002 0 117.3 57.5 117.3 128c0 79.7002 -64.4004 134.3 -155.101 134.3c-85.2998 0 -149.1 -51.0996 -159.8 -126.8h-65.9004c10 114.9 101.2 192.7 225.7 192.7
c129.8 0 223.8 -81.9004 223.8 -196c0 -68.3398 -32.9404 -129.149 -83.1006 -161.449z" />
    <glyph glyph-name="uni0438.ss02" horiz-adv-x="641" 
d="M483.7 540h68.001v-540h-51.2002l-12.21 94.1602c-40.4004 -64.8203 -112.45 -105.561 -197.99 -105.561c-128.9 0 -209.5 94.9004 -209.5 229.2v322.2h68v-306.8c0 -115.7 56.7002 -182.2 158.3 -182.2c98.0996 0 176.6 83.5 176.6 188v301z" />
    <glyph glyph-name="uni0439.ss02" horiz-adv-x="641" 
d="M452.5 709.2v-51.9004h-258.6v51.9004h258.6zM483.7 540h68.001v-540h-51.2002l-12.21 94.1602c-40.4004 -64.8203 -112.45 -105.561 -197.99 -105.561c-128.9 0 -209.5 94.9004 -209.5 229.2v322.2h68v-306.8c0 -115.7 56.7002 -182.2 158.3 -182.2
c98.0996 0 176.6 83.5 176.6 188v301z" />
    <glyph glyph-name="uni043A.ss02" horiz-adv-x="539" 
d="M449.2 0l-199.11 250.101h-85.3896v-250.1h-68v732.1h68v-418.9h86.46l180.14 226.8h83.2002l-205.3 -258.71l225.3 -281.29h-85.2998z" />
    <glyph glyph-name="uni043B.ss02" horiz-adv-x="530" 
d="M507.2 0h-69.7012l-171.76 446.67l-175.54 -446.67h-68.2998l213.5 540h59.9004z" />
    <glyph glyph-name="uni043F.ss02" horiz-adv-x="641" 
d="M351.1 551.4c128.9 0 209.501 -94.8994 209.501 -229.199v-322.2h-68v306.8c0 115.7 -57.4004 182.2 -158.301 182.2c-98.0996 0 -176.6 -83.5 -176.6 -188v-301h-68v540h49.0996l13.5303 -95.4004c40.25 65.5303 112.68 106.8 198.77 106.8z" />
    <glyph glyph-name="uni0442.ss02" horiz-adv-x="952" 
d="M683.5 551.4c112.6 0 187.102 -85.3975 187.102 -207.497v-343.9h-67.7002l-0.299805 323.6c0 102.2 -50.2002 165.4 -132.4 165.4c-87.9004 0 -156.101 -78.2998 -156.4 -184.5v-304.5h-66.5996v323.6c0 102.8 -49.9004 165.399 -133.101 165.399
c-87.9004 0 -156.101 -78.2998 -156.4 -184.5v-304.5h-68v540h49.7998l11.5303 -83.1602c39.5898 58.9697 104.63 94.5596 177.77 94.5596c79.3301 0 139.62 -43.1104 167.67 -111.891c37.6504 69.2598 107.49 111.89 187.03 111.89z" />
    <glyph glyph-name="uni0446.ss02" horiz-adv-x="671" 
d="M551.7 160.7c0 -78.7998 31.5986 -114.399 101.299 -114.399v-192.2h-63.0996v151.1c-52.1396 6.61035 -81.7998 38.21 -93.2998 95.3701c-41.4697 -65.9004 -116.85 -111.971 -206.3 -111.971c-128.9 0 -209.5 94.2002 -209.5 228.5v322.9h68v-306.1
c0 -116.4 57.4004 -182.9 158.301 -182.9c98.0996 0 176.6 84.2002 176.6 188.7v300.3h68v-379.3z" />
    <glyph glyph-name="uni0448.ss02" horiz-adv-x="951" 
d="M793 540l67.998 -0.000976562v-540h-51.2002l-10.46 81.6504c-39.6797 -58.0703 -104.229 -93.0508 -176.739 -93.0508c-79.3301 0 -139.62 43.0996 -167.67 111.89c-37.6504 -69.2695 -107.5 -111.89 -187.03 -111.89c-112.6 0 -187.1 85.4004 -187.1 207.5v343.9
h67.7002l0.299805 -323.6c0.299805 -102.2 50.2002 -165.4 132.4 -165.4c87.9004 0 156.101 78.2998 156.4 184.5v304.5h66.5996v-323.6c0 -102.8 49.9004 -165.399 133.101 -165.399c87.2002 0 155.4 78.2998 155.7 184.5v304.5z" />
    <glyph glyph-name="uni0449.ss02" horiz-adv-x="981" 
d="M861.7 160.7c0 -80.2002 32.999 -114.401 100.599 -114.401v-192.2h-62.4004v150.73c-48.5801 6.59961 -80.2803 34.96 -93.5303 83.9297c-38.8096 -62.21 -106.899 -100.16 -183.77 -100.16c-79.3301 0 -139.62 43.0996 -167.67 111.89
c-37.6504 -69.2695 -107.5 -111.89 -187.03 -111.89c-112.6 0 -187.1 85.4004 -187.1 207.5v343.9h67.7002l0.299805 -323.6c0.299805 -102.2 50.2002 -165.4 132.4 -165.4c87.9004 0 156.101 78.2998 156.4 184.5v304.5h66.5996v-323.6
c0 -102.8 49.9004 -165.399 133.101 -165.399c87.9004 0 156.4 78.2998 156.4 184.5v304.5h68v-379.3z" />
    <glyph glyph-name="uni044E.ss02" horiz-adv-x="853" 
d="M531.3 551.4c158.5 0 276.2 -120.3 276.2 -282.1c0 -161.4 -117 -280.7 -276.2 -280.7c-149.04 0 -261.23 104.16 -275.311 249.5h-98.29v-239.4h-68v733.4h68v-430.2h98.4199c14.6904 145.33 127.221 249.5 275.181 249.5zM531.3 54.5
c118.9 0 206.801 91.9004 206.801 214.801c0 123.6 -88.9004 216.199 -206.801 216.199c-119.2 0 -207.4 -92.5996 -207.4 -216.199c0 -122.9 88.2002 -214.801 207.4 -214.801z" />
    <glyph glyph-name="uni0432.ss03" horiz-adv-x="622" 
d="M455.42 385.2c74.8896 -32.2998 119.479 -104.681 119.479 -184.4c0 -127.1 -107.3 -211.5 -248.3 -211.5c-157.8 0 -249.8 105 -249.8 288v187.4c0 179.2 91.9004 280.601 247 280.601c131.3 0 226.899 -78.4004 226.899 -194.5
c0 -69.0303 -35.7598 -133.721 -95.2793 -165.601zM323.81 679.399c-113.8 0 -180.4 -71.5996 -180.4 -214.699v-50.2002h197.1c86.7002 0 147.101 54.5 147.101 132.1c0 79.7002 -65.0996 132.8 -163.8 132.8zM326.608 55.1992c108.4 0 180.299 60.501 180.299 150.501
c0 85.7998 -66.0996 144.3 -162.899 144.3h-200.6v-72.7002c0 -145.9 65.2998 -222.101 183.2 -222.101z" />
    <glyph glyph-name="uni0433.ss03" horiz-adv-x="514" 
d="M256.8 -6.7998c-128.3 0 -213.499 61.9004 -213.499 156.601c0 120.1 106.7 140.8 201.3 157.8c78.9004 14.9004 148.801 28.1006 148.801 94.3008c0 52.2998 -52.5 87.5996 -134 87.5996c-86.4004 0 -136.601 -38.2998 -136.601 -107.2h-61.7002
c0 105.9 78.7998 166.801 197.6 166.801c119 0 199.2 -59.9004 199.2 -147.2c0 -115.4 -100.9 -134.101 -193.101 -151.101c-79.9004 -14.2002 -154.2 -28 -154.2 -101c0 -56.2002 58.2002 -91.4004 146.2 -91.4004c92.5996 0 147.8 41.5996 147.8 114h65.2002
c0 -113.9 -84.9004 -179.2 -213 -179.2z" />
    <glyph glyph-name="uni0434.ss03" horiz-adv-x="675" 
d="M538.9 540l46.2891 -0.000976562v-463.2c0 -174.3 -99.2002 -280.3 -261.8 -280.3c-128.6 0 -219.699 66.4004 -250.499 177.601h68c26.5996 -73.7002 97.1992 -115.2 182.499 -115.2c117.8 0 195.2 78.2998 195.2 209.5v44.7305
c-48.0703 -58.9502 -121.98 -95.2305 -208.2 -95.2305c-149.7 0 -264.8 115.4 -264.8 266.4c0 150.7 115.4 267.101 264.801 267.101c91.5898 0 169.84 -41.9502 217.54 -108.521zM317.39 83.0986c116.1 0 200.5 85.2998 200.5 201.2
c0 116.3 -84.7002 201.899 -200.5 201.899c-116.1 0 -202.399 -86.9004 -202.399 -201.9c0 -114.6 86.2998 -201.199 202.399 -201.199z" />
    <glyph glyph-name="uni0436.ss03" horiz-adv-x="769" 
d="M351.4 0v732.1h65.9004v-732.1h-65.9004zM18.8008 540h81.0996l224.5 -256.1v-8.7002l-244.5 -275.2h-81.0996l246.36 281.49zM523.42 281.65l246.48 -281.65h-81.0996l-244.5 275.2v8.7002l224.5 256.1h81.0996z" />
    <glyph glyph-name="uni0437.ss03" horiz-adv-x="565" 
d="M414.6 193.25c64.6299 -29.8896 107.903 -100.282 107.903 -181.252c0 -127.4 -100.7 -216.2 -242.601 -216.2c-133.8 0 -232.5 80.7002 -246.6 198.5h68c14.0996 -78.5996 85.7998 -132.6 178.6 -132.6c101.1 0 173.899 63.2998 173.899 155.2
c0 78.4004 -59.5996 140.4 -141.5 140.4h-106.9l-0.700195 65.2002h107c67.7002 0 117.3 57.5 117.3 128c0 79.7002 -64.4004 134.3 -155.101 134.3c-85.2998 0 -149.1 -51.0996 -159.8 -126.8h-65.9004c10 114.9 101.2 192.7 225.7 192.7
c129.8 0 223.8 -81.9004 223.8 -196c0 -68.3398 -32.9404 -129.149 -83.1006 -161.449z" />
    <glyph glyph-name="uni0438.ss03" horiz-adv-x="641" 
d="M483.7 540h68.001v-540h-51.2002l-12.21 94.1602c-40.4004 -64.8203 -112.45 -105.561 -197.99 -105.561c-128.9 0 -209.5 94.9004 -209.5 229.2v322.2h68v-306.8c0 -115.7 56.7002 -182.2 158.3 -182.2c98.0996 0 176.6 83.5 176.6 188v301z" />
    <glyph glyph-name="uni0439.ss03" horiz-adv-x="641" 
d="M452.5 709.2v-51.9004h-258.6v51.9004h258.6zM483.7 540h68.001v-540h-51.2002l-12.21 94.1602c-40.4004 -64.8203 -112.45 -105.561 -197.99 -105.561c-128.9 0 -209.5 94.9004 -209.5 229.2v322.2h68v-306.8c0 -115.7 56.7002 -182.2 158.3 -182.2
c98.0996 0 176.6 83.5 176.6 188v301z" />
    <glyph glyph-name="uni043A.ss03" horiz-adv-x="513" 
d="M89.7002 0v732.1h68v-732.1h-68zM265.03 282.05l251.37 -282.05h-82.7998l-244 276.6v8.7002l228.2 254.7h78.5996z" />
    <glyph glyph-name="uni043B.ss03" horiz-adv-x="530" 
d="M507.2 0h-69.7012l-171.76 446.67l-175.54 -446.67h-68.2998l213.5 540h59.9004z" />
    <glyph glyph-name="uni043F.ss03" horiz-adv-x="641" 
d="M351.1 551.4c128.9 0 209.501 -94.8994 209.501 -229.199v-322.2h-68v306.8c0 115.7 -57.4004 182.2 -158.301 182.2c-98.0996 0 -176.6 -83.5 -176.6 -188v-301h-68v540h49.0996l13.5303 -95.4004c40.25 65.5303 112.68 106.8 198.77 106.8z" />
    <glyph glyph-name="uni0442.ss03" horiz-adv-x="952" 
d="M683.5 551.4c112.6 0 187.102 -85.3975 187.102 -207.497v-343.9h-67.7002l-0.299805 323.6c0 102.2 -50.2002 165.4 -132.4 165.4c-87.9004 0 -156.101 -78.2998 -156.4 -184.5v-304.5h-66.5996v323.6c0 102.8 -49.9004 165.399 -133.101 165.399
c-87.9004 0 -156.101 -78.2998 -156.4 -184.5v-304.5h-68v540h49.7998l11.5303 -83.1602c39.5898 58.9697 104.63 94.5596 177.77 94.5596c79.3301 0 139.62 -43.1104 167.67 -111.891c37.6504 69.2598 107.49 111.89 187.03 111.89z" />
    <glyph glyph-name="uni0446.ss03" horiz-adv-x="671" 
d="M551.7 160.7c0 -78.7998 31.5986 -114.399 101.299 -114.399v-192.2h-63.0996v151.1c-52.1396 6.61035 -81.7998 38.21 -93.2998 95.3701c-41.4697 -65.9004 -116.85 -111.971 -206.3 -111.971c-128.9 0 -209.5 94.2002 -209.5 228.5v322.9h68v-306.1
c0 -116.4 57.4004 -182.9 158.301 -182.9c98.0996 0 176.6 84.2002 176.6 188.7v300.3h68v-379.3z" />
    <glyph glyph-name="uni0448.ss03" horiz-adv-x="951" 
d="M793 540l67.998 -0.000976562v-540h-51.2002l-10.46 81.6504c-39.6797 -58.0703 -104.229 -93.0508 -176.739 -93.0508c-79.3301 0 -139.62 43.0996 -167.67 111.89c-37.6504 -69.2695 -107.5 -111.89 -187.03 -111.89c-112.6 0 -187.1 85.4004 -187.1 207.5v343.9
h67.7002l0.299805 -323.6c0.299805 -102.2 50.2002 -165.4 132.4 -165.4c87.9004 0 156.101 78.2998 156.4 184.5v304.5h66.5996v-323.6c0 -102.8 49.9004 -165.399 133.101 -165.399c87.2002 0 155.4 78.2998 155.7 184.5v304.5z" />
    <glyph glyph-name="uni0449.ss03" horiz-adv-x="981" 
d="M861.7 160.7c0 -80.2002 32.999 -114.401 100.599 -114.401v-192.2h-62.4004v150.73c-48.5801 6.59961 -80.2803 34.96 -93.5303 83.9297c-38.8096 -62.21 -106.899 -100.16 -183.77 -100.16c-79.3301 0 -139.62 43.0996 -167.67 111.89
c-37.6504 -69.2695 -107.5 -111.89 -187.03 -111.89c-112.6 0 -187.1 85.4004 -187.1 207.5v343.9h67.7002l0.299805 -323.6c0.299805 -102.2 50.2002 -165.4 132.4 -165.4c87.9004 0 156.101 78.2998 156.4 184.5v304.5h66.5996v-323.6
c0 -102.8 49.9004 -165.399 133.101 -165.399c87.9004 0 156.4 78.2998 156.4 184.5v304.5h68v-379.3z" />
    <glyph glyph-name="uni044E.ss03" horiz-adv-x="853" 
d="M531.3 551.4c158.5 0 276.2 -120.3 276.2 -282.1c0 -161.4 -117 -280.7 -276.2 -280.7c-149.04 0 -261.23 104.16 -275.311 249.5h-98.29v-239.4h-68v733.4h68v-430.2h98.4199c14.6904 145.33 127.221 249.5 275.181 249.5zM531.3 54.5
c118.9 0 206.801 91.9004 206.801 214.801c0 123.6 -88.9004 216.199 -206.801 216.199c-119.2 0 -207.4 -92.5996 -207.4 -216.199c0 -122.9 88.2002 -214.801 207.4 -214.801z" />
    <glyph glyph-name="uni0436.ss04" horiz-adv-x="769" 
d="M18.7998 540h81.0996l224.5 -256.1v-8.7002l-244.5 -275.2h-81.0996l246.36 281.49zM351.399 0v540h65.9004v-540h-65.9004zM523.419 281.65l246.48 -281.65h-81.0996l-244.5 275.2v8.7002l224.5 256.1h81.0996z" />
    <glyph glyph-name="uni043A.ss04" horiz-adv-x="513" 
d="M89.7002 0v540h68v-540h-68zM265.03 282.05l251.37 -282.05h-82.7998l-244 276.6v8.7002l228.2 254.7h78.5996z" />
    <glyph glyph-name="Alpha" unicode="&#x391;" horiz-adv-x="692" 
d="M595.9 0l-75.3105 178.9h-352.22l-74.1699 -178.9h-74.5996l289.8 700h64.7002l297.8 -700h-76zM342.78 602.94l-147.9 -359.54h298.9z" />
    <glyph glyph-name="Beta" unicode="&#x392;" horiz-adv-x="645" 
d="M472.04 364.94c68.29 -26.1104 112.771 -94.0107 112.771 -173.15c0 -107.5 -88.5 -191.8 -209.7 -191.8h-275.7v700h272.9c113.2 0 193.3 -76.0996 193.3 -175.8c0 -65.9697 -37.3398 -130.46 -93.5703 -159.25zM373.2 631.301h-204.399v-233.3h206.5
c67.5 0 118.8 53.2998 118.8 117.1c0 65.7002 -53.2002 116.2 -120.9 116.2zM376.701 69.4004c77.2002 0 135.9 55.6006 135.9 130.101c0 73.2002 -58.4004 129.8 -134.4 129.8h-209.4v-259.9h207.9z" />
    <glyph glyph-name="Gamma" unicode="&#x393;" horiz-adv-x="490" 
d="M469 700v-65.9004h-299.5v-634.1h-70.0996v700h369.6z" />
    <glyph glyph-name="uni0394" unicode="&#x394;" horiz-adv-x="691" 
d="M372.7 700l300.399 -700h-651.5l289.4 700h61.7002zM342.319 598.54l-215.609 -532.64h436.81z" />
    <glyph glyph-name="Epsilon" unicode="&#x395;" horiz-adv-x="549" 
d="M169.5 67.2998l330.9 -0.000976562v-67.2998h-401v700h390v-66.5996h-319.9v-239.1h293.9v-65.2002h-293.9v-261.8z" />
    <glyph glyph-name="Zeta" unicode="&#x396;" horiz-adv-x="555" 
d="M136.87 65.9004h394.329v-65.9004h-505.8v13l382.04 621.1h-366.64v65.9004h477.7v-13.7998z" />
    <glyph glyph-name="Eta" unicode="&#x397;" horiz-adv-x="729" 
d="M559.2 700h70.0996v-700h-70.0996v328.1h-389.7v-328.1h-70.0996v700h70.0996v-304.6h389.7v304.6z" />
    <glyph glyph-name="Theta" unicode="&#x398;" horiz-adv-x="830" 
d="M414.9 -11.4004c-209.3 0 -364.6 155 -364.6 360.4c0 206.4 155.3 362.4 364.6 362.4c210 0 364.6 -155 364.6 -362.4c0 -206.4 -154.6 -360.4 -364.6 -360.4zM414.9 57.2998c168 0 293.1 125.2 293.1 292.4c0 167.5 -125.1 293 -293.1 293s-293.1 -126.5 -293.1 -293
c0 -166.9 118.8 -292.4 293.1 -292.4zM208.4 316.7v68h409.4v-68h-409.4z" />
    <glyph glyph-name="Iota" unicode="&#x399;" horiz-adv-x="269" 
d="M99.4004 0v700h70.0996v-700h-70.0996z" />
    <glyph glyph-name="Kappa" unicode="&#x39a;" horiz-adv-x="625" 
d="M534.2 0l-262.719 329.6h-101.98v-329.6h-70.0996v700h70.0996v-304.5h101.68l239.52 304.5h89.5l-265.59 -336.25l289.79 -363.75h-90.2002z" />
    <glyph glyph-name="Lambda" unicode="&#x39b;" horiz-adv-x="664" 
d="M642.3 0h-76.001l-234.6 597.28l-234.6 -597.28h-73.9004l276 700h64.7002z" />
    <glyph glyph-name="Mu" unicode="&#x39c;" horiz-adv-x="952" 
d="M905.1 0h-71.5l-97.6797 575.75l-249.92 -553.45h-19.9004l-249.74 552.78l-98.5596 -575.08h-71.5l119.7 700h66.7998l242.43 -543.84l243.67 543.84h68.2002z" />
    <glyph glyph-name="Nu" unicode="&#x39d;" horiz-adv-x="748" 
d="M579.8 700h68.6992v-700h-59.2998l-421.1 576.93v-576.93h-68.7002v700h63.5l416.9 -572.19v572.19z" />
    <glyph glyph-name="Xi" unicode="&#x39e;" horiz-adv-x="557" 
d="M55.5 631.3v68.7002h446.7v-68.7002h-446.7zM94.5 329.1v67.2998h368.7v-67.2998h-368.7zM47.5 -0.000976562v69.4004h461.7v-69.4004h-461.7z" />
    <glyph glyph-name="Omicron" unicode="&#x39f;" horiz-adv-x="830" 
d="M414.9 -11.4004c-211.4 0 -364.601 155.001 -364.601 361.101c0 206.4 153.2 361.7 364.601 361.7s364.601 -155 364.601 -361.7c0 -206.4 -153.2 -361.101 -364.601 -361.101zM414.9 57.3008c169.4 0 293.101 125.2 293.101 292.4c0 167.5 -123.7 293 -293.101 293
s-293.101 -126.5 -293.101 -293c0 -166.2 123.7 -292.4 293.101 -292.4z" />
    <glyph glyph-name="Pi" unicode="&#x3a0;" horiz-adv-x="699" 
d="M99.4004 700h500.199v-700h-70.7998v634.1h-359.3v-634.1h-70.0996v700z" />
    <glyph glyph-name="Rho" unicode="&#x3a1;" horiz-adv-x="606" 
d="M345.5 700c129.7 0 228.3 -93.6006 228.3 -219.7c0 -125.7 -97.5996 -220 -228.3 -220h-176v-260.3h-70.0996v700h246.1zM342 328.299c92.9004 0 160.301 64.7998 160.301 152c0 86.9004 -67.4004 151.7 -160.301 151.7h-172.5v-303.7h172.5z" />
    <glyph glyph-name="Sigma" unicode="&#x3a3;" horiz-adv-x="557" 
d="M145.52 65.9004l377.079 0.000976562v-65.9004h-499.2v18.2998l248.2 336.65l-242.2 326.75v18.2998h484.2v-65.9004h-362.02l202.82 -273v-12.9004z" />
    <glyph glyph-name="Tau" unicode="&#x3a4;" horiz-adv-x="549" 
d="M527.2 700v-65.9004h-217.9v-634.1h-70.0996v634.1h-217.9v65.9004h505.9z" />
    <glyph glyph-name="Upsilon" unicode="&#x3a5;" horiz-adv-x="652" 
d="M624 700l-262.1 -421.79v-278.21h-72.2002v278.09l-259.8 421.91h77l219.34 -355.5l220.76 355.5h77z" />
    <glyph glyph-name="Phi" unicode="&#x3a6;" horiz-adv-x="864" 
d="M813.4 350.4c0 -192.11 -134.73 -353.569 -346.9 -360.85v-106.95h-68.7002v106.98c-211.18 7.63965 -347.5 169.189 -347.5 359.42c0 191.2 136.32 353.73 347.5 361.41v95.8896h68.7002v-95.8604c212.17 -7.25 346.9 -168.32 346.9 -360.04zM466.5 56.9316
c164.93 7.40039 275.399 136.56 275.399 292.77c0 155.82 -110.47 285.25 -275.399 292.66v-585.43zM121.8 349.7c0 -155.71 111.11 -285.001 276 -292.741v585.37c-164.62 -7.75977 -276 -137.319 -276 -292.629z" />
    <glyph glyph-name="Chi" unicode="&#x3a7;" horiz-adv-x="593" 
d="M584.3 0h-79.4004l-207.96 310.47l-207.04 -310.47h-80.0996l243.85 366.43l-224.35 333.57h79.4004l188.66 -280.95l187.64 280.95h79.4004l-223.7 -335.92z" />
    <glyph glyph-name="Psi" unicode="&#x3a8;" horiz-adv-x="793" 
d="M670.9 699.7h70.0986v-232.7c0 -173.2 -119.6 -291.7 -294.3 -291.7h-14.5v-175.3h-70.7998v175.3h-14.5c-174.7 0 -294.3 118.5 -294.3 291.7v232.7h70.0996v-225c0 -138.2 88.7002 -227.2 224.9 -227.2h15.2002v452.5h68v-452.5h15.2002c136.2 0 224.9 89 224.9 227.2
v225z" />
    <glyph glyph-name="uni03A9" unicode="&#x3a9;" horiz-adv-x="857" 
d="M636.67 65.9004h160.731v-65.9004h-308.5v64.5c139.7 37.2002 232.2 155.4 232.2 295c0 159.4 -127.9 283.2 -292.4 283.2c-163.8 0 -291.7 -123.8 -291.7 -283.2c0 -139.6 92.2002 -257.8 230.9 -295v-64.5h-308.5v65.9004h161.28
c-95.3203 66.6602 -155.181 170.65 -155.181 298.5c0 195.8 158.8 347 363.2 347c204.1 0 363.899 -151.2 363.899 -347c0 -127.85 -60.2002 -231.84 -155.931 -298.5z" />
    <glyph glyph-name="Alphatonos" unicode="&#x386;" horiz-adv-x="692" 
d="M595.9 0l-75.3105 178.9h-352.22l-74.1699 -178.9h-74.5996l289.8 700h64.7002l297.8 -700h-76zM79.7998 558l76.5996 142h73.5l-95.5 -142h-54.5996zM342.779 602.94l-147.9 -359.54h298.9z" />
    <glyph glyph-name="Epsilontonos" unicode="&#x388;" horiz-adv-x="549" 
d="M-90.2998 558l76.5996 142h73.5l-95.5 -142h-54.5996zM169.5 67.2998l330.9 -0.000976562v-67.2998h-401v700h390v-66.5996h-319.9v-239.1h293.9v-65.2002h-293.9v-261.8z" />
    <glyph glyph-name="Etatonos" unicode="&#x389;" horiz-adv-x="729" 
d="M-90.5996 558l76.5996 142h73.5l-95.5 -142h-54.5996zM559.2 700h70.0996v-700h-70.0996v328.1h-389.7v-328.1h-70.0996v700h70.0996v-304.6h389.7v304.6z" />
    <glyph glyph-name="Iotatonos" unicode="&#x38a;" horiz-adv-x="269" 
d="M-92 558l76.5996 142h73.5l-95.5 -142h-54.5996zM99.3994 0v700h70.0996v-700h-70.0996z" />
    <glyph glyph-name="Omicrontonos" unicode="&#x38c;" horiz-adv-x="830" 
d="M414.9 -11.4004c-211.4 0 -364.601 155.001 -364.601 361.101c0 206.4 153.2 361.7 364.601 361.7s364.601 -155 364.601 -361.7c0 -206.4 -153.2 -361.101 -364.601 -361.101zM-30.0996 558.001l76.5996 142h73.5l-95.5 -142h-54.5996zM414.9 57.3008
c169.4 0 293.101 125.2 293.101 292.4c0 167.5 -123.7 293 -293.101 293s-293.101 -126.5 -293.101 -293c0 -166.2 123.7 -292.4 293.101 -292.4z" />
    <glyph glyph-name="Upsilontonos" unicode="&#x38e;" horiz-adv-x="652" 
d="M547 700h77l-262.1 -421.79v-278.21h-72.2002v278.09l-259.13 420.82l-94.7695 -140.91h-54.5996l76.5996 142h149.1l219.34 -355.5z" />
    <glyph glyph-name="Omegatonos" unicode="&#x38f;" horiz-adv-x="857" 
d="M636.67 65.9004h160.731v-65.9004h-308.5v64.5c139.7 37.2002 232.2 155.4 232.2 295c0 159.4 -127.9 283.2 -292.4 283.2c-163.8 0 -291.7 -123.8 -291.7 -283.2c0 -139.6 92.2002 -257.8 230.9 -295v-64.5h-308.5v65.9004h161.28
c-95.3203 66.6602 -155.181 170.65 -155.181 298.5c0 195.8 158.8 347 363.2 347c204.1 0 363.899 -151.2 363.899 -347c0 -127.85 -60.2002 -231.84 -155.931 -298.5zM57.9014 700h73.5l-95.5 -142h-54.5996z" />
    <glyph glyph-name="Iotadieresis" unicode="&#x3aa;" horiz-adv-x="269" 
d="M26.7998 797.8v84.0996h74.7998v-84.0996h-74.7998zM167.7 797.8v84.0996h74.7998v-84.0996h-74.7998zM99.4004 -0.000976562v700h70.0996v-700h-70.0996z" />
    <glyph glyph-name="Upsilondieresis" unicode="&#x3ab;" horiz-adv-x="652" 
d="M179.5 797.8v84.0996h81.7998v-84.0996h-81.7998zM392.2 797.8v84.0996h81.7998v-84.0996h-81.7998zM624 699.999l-262.1 -421.79v-278.21h-72.2002v278.09l-259.8 421.91h77l219.35 -355.49l220.75 355.49h77z" />
    <glyph glyph-name="alpha" unicode="&#x3b1;" horiz-adv-x="700" 
d="M555.8 540h54.6885v-540h-56.7998l-7.65039 96.71c-49.1396 -66.6104 -128.02 -108.11 -222.539 -108.11c-158.8 0 -278.2 121 -278.2 281.4c0 161.1 119.4 281.399 278.2 281.399c94.9902 0 174.181 -41.6699 223.271 -108.8zM328.389 54.5
c123 0 212.7 91.2998 212.7 215.5s-89.7002 215.5 -212.7 215.5c-122.4 0 -213.7 -92.9004 -213.7 -215.5c0 -122.9 91.2998 -215.5 213.7 -215.5z" />
    <glyph glyph-name="beta" unicode="&#x3b2;" horiz-adv-x="623" 
d="M456.55 384.44c74.6904 -26.9102 118.841 -92.6104 118.841 -182.94c0 -122.9 -102.9 -212.9 -243.4 -212.9c-65.5996 0 -124.59 18.3096 -174.59 53.7598v-226.06h-68v645.8c0 180 86.2998 281.4 240 281.4c130.9 0 222.5 -80.2002 222.5 -194.601
c0 -76.0996 -35.8701 -136.399 -95.3506 -164.459zM325.69 54.5c112.1 0 183.8 59.7998 183.8 152.6c0 84.2002 -63.2002 142.3 -154.5 142.3h-110.5v61.7002h108.4c80.5 0 137.3 52.7002 137.3 128.7c0 84.2998 -64.5996 141.3 -159.399 141.3
c-112.4 0 -173.4 -77.2002 -173.4 -219v-346c43.7598 -40.8799 102.6 -61.5996 168.3 -61.5996z" />
    <glyph glyph-name="gamma" unicode="&#x3b3;" horiz-adv-x="565" 
d="M545 540l-225.101 -512.96v-217.04h-66.5996v216.48l-234.1 513.52h72.5l194.04 -428.96l186.76 428.96h72.5z" />
    <glyph glyph-name="delta" unicode="&#x3b4;" horiz-adv-x="610" 
d="M209.72 646.7c187.03 -80.0996 355.68 -229.091 355.68 -404.4c0 -139 -105.9 -253.7 -260.2 -253.7c-149.4 0 -260.9 108.8 -260.9 254.399c0 139.3 111.9 249.5 246.2 249.5c34.9404 0 64.0605 -6.17969 89.6807 -17.8594
c-76.1396 68.1104 -186.399 129.811 -312.479 171.561v62.2002h464.5v-61.7002h-322.48zM305.199 51.6992c111.9 0 194.3 82.4004 194.3 191.301c0 110.2 -83.4004 192 -194.301 192c-112.5 0 -193.6 -82.4004 -193.6 -192c0 -108.9 81.4004 -191.301 193.601 -191.301z" />
    <glyph glyph-name="epsilon" unicode="&#x3b5;" horiz-adv-x="485" 
d="M389.5 141.1l64.498 -0.000976562c-12.2998 -92.5996 -90.8994 -152.5 -198.699 -152.5c-119.4 0 -204.301 68.7998 -204.301 165.7c0 61.8701 31.0195 110.04 82.5596 133.28c-44.0596 22.9902 -69.7598 63.5303 -69.7598 115.62c0 85.5 80.2002 148.2 187.9 148.2
c101.4 0 177.4 -56.0996 188.4 -140.399h-63.0996c-11 51.4004 -58.5996 84.3008 -123.199 84.3008c-73 0 -124.8 -39.5 -124.8 -96.2998c0 -51.4004 40.2002 -88.4004 100.5 -88.4004h85.4004v-51.9004h-85.7002c-65.7002 0 -110.9 -43.7998 -110.9 -100.2
c0 -63.2998 56.7998 -107.5 137 -107.5c72 0 124 35.5996 134.2 90.0996z" />
    <glyph glyph-name="zeta" unicode="&#x3b6;" horiz-adv-x="503" 
d="M498 692.1c-254.2 -199 -383.898 -334.399 -383.898 -461.3c0 -206.8 364.1 -129.5 364.1 -329.8c0 -25.2998 -5 -62.0996 -14.0996 -93.0996h-65.9004c8.09961 25.5996 12.6992 59.3994 12.6992 78.3994c0 153.7 -366.2 82.5 -366.2 336.1
c0 140.56 106.81 262.67 324.38 443.8h-296.38v65.9004h425.3v-40z" />
    <glyph glyph-name="eta" unicode="&#x3b7;" horiz-adv-x="641" 
d="M351.1 551.4c128.9 0 209.501 -88.6006 209.501 -229.2v-514.3h-68v498.9c0 115.7 -57.4004 182.2 -158.301 182.2c-98.0996 0 -176.6 -83.5 -176.6 -188v-301h-68v540h49.0996l13.8398 -94.9102c40.3096 65.25 112.59 106.31 198.46 106.31z" />
    <glyph glyph-name="theta" unicode="&#x3b8;" horiz-adv-x="696" 
d="M347.4 738.6c184.4 0 292.601 -160 292.601 -375s-108.2 -375 -292.601 -375c-185.7 0 -291.9 161 -291.9 375s106.2 375 291.9 375zM347.4 672.699c-130.36 0 -213.68 -106.48 -223.02 -276.5h446.73c-9.4502 170.02 -93.6406 276.5 -223.711 276.5zM347.401 54.499
c129.43 0 214.54 108.22 223.76 277.899h-446.84c9.15039 -169.93 93.7305 -277.899 223.08 -277.899z" />
    <glyph glyph-name="iota" unicode="&#x3b9;" horiz-adv-x="341" 
d="M261 -3c-111.2 0 -178.601 66 -178.601 175.8v367.2h68v-360.9c0 -74.7998 44.2002 -118.3 120.4 -118.3h58v-63.7998h-67.7998z" />
    <glyph glyph-name="kappa" unicode="&#x3ba;" horiz-adv-x="529" 
d="M442.2 0l-199.111 250.1h-85.3896v-250.1h-68v540h68v-226.8h86.4902l180.41 226.8h83.2002l-205.59 -258.72l225.29 -281.28h-85.2998z" />
    <glyph glyph-name="lambda" unicode="&#x3bb;" horiz-adv-x="563" 
d="M536.9 0h-73.9004l-175.13 427.38l-199.87 -427.38h-74.5996l239.43 509.66l-18.4297 41.8398c-30.4004 73.5 -56.2002 96.0996 -113.5 96.0996h-29.5v63.7998h36.5c84 0 126.4 -38.2002 170 -142.3z" />
    <glyph glyph-name="uni03BC" unicode="&#x3bc;" horiz-adv-x="647" 
d="M489.7 540l68 0.000976562v-540h-47l-13.7598 102.67c-38.79 -65.8398 -117.12 -113.37 -194.64 -113.37c-60.9004 0 -117.391 19.7002 -146.001 58.7002v-240.1h-66.5996v732.1h68v-311.9c0 -110.7 55.0996 -172.9 151.6 -172.9c97.9004 0 180.4 82.0996 180.4 180.3
v304.5z" />
    <glyph glyph-name="nu" unicode="&#x3bd;" horiz-adv-x="569" 
d="M478.8 540h69.7012l-231.7 -540h-61.2002l-237.4 540h71.0996l196.77 -450.71z" />
    <glyph glyph-name="xi" unicode="&#x3be;" horiz-adv-x="519" 
d="M303 47.2002c84.7002 -27.2998 169.19 -55.3008 169.19 -145.9c0 -23.9004 -5.7002 -63 -14.7998 -93.4004h-68.7002c7.40039 22.0996 12.7002 57.5996 12.7002 79.3994c0 48.7002 -41.9004 71.6006 -137.101 101.7c-138 44 -215.7 95.7998 -215.7 217.1
c0 86.3301 46.8896 156.34 119.319 184.24c-62 25.71 -101.81 84.5898 -101.81 156.66c0 111.5 92.4004 191.4 220.801 191.4c119.6 0 210.5 -75 221.8 -184.1h-67.2998c-12.2998 73.4004 -74.0996 123.101 -154.5 123.101c-88.5 0 -150 -53.9004 -150 -132.5
c0 -72.2002 54.7998 -124.9 127.8 -124.9h105.3v-61h-106c-82.0996 0 -142.5 -62.5 -142.5 -146.6c0 -106.7 92.5 -135.9 181.5 -165.2z" />
    <glyph glyph-name="omicron" unicode="&#x3bf;" horiz-adv-x="660" 
d="M329.9 -11.4004c-162.5 0 -284.6 120 -284.6 281.4c0 162.4 122.1 281.4 284.6 281.4c162.8 0 284.6 -120 284.6 -281.4s-121.8 -281.4 -284.6 -281.4zM329.9 54.5c124.3 0 215.2 91.2002 215.2 215.5s-90.9004 215.5 -215.2 215.5s-215.2 -90.9004 -215.2 -215.5
c0 -124.3 91.2002 -215.5 215.2 -215.5z" />
    <glyph glyph-name="pi" unicode="&#x3c0;" horiz-adv-x="630" 
d="M89.7002 540h450.6v-540h-67.2998v477.6h-315.3v-477.6h-68v540z" />
    <glyph glyph-name="rho" unicode="&#x3c1;" horiz-adv-x="675" 
d="M352.2 550.7c158.2 0 276 -121 276 -280.7c0 -160 -117.8 -281.4 -273.899 -281.4c-84.9805 0 -169.811 43.4404 -210.7 104.841v-285.54h-69.4004v457.2c0 165.6 116 285.6 278 285.6zM351.5 54.5c121.4 0 208.699 91.2002 208.699 215.5
c0 123.6 -87.5996 214.8 -208.699 214.8c-121.7 0 -209.3 -91.2002 -209.3 -214.8c0 -124.3 88.2998 -215.5 209.3 -215.5z" />
    <glyph glyph-name="uni03C2" unicode="&#x3c2;" horiz-adv-x="603" 
d="M461.2 -192.1c7.40039 25.5996 12.7002 60.4004 12.7002 79.4004c0 70.0996 -72.5996 89.7998 -157.899 112.8c-121.3 33 -269.7 73.7002 -269.7 282.9c0 153.2 120.1 267.7 280.199 267.7c124.2 0 226.2 -71.7998 259.101 -186.399h-67.5996
c-35.4004 77.5 -106.9 119.8 -192.2 119.8c-120.2 0 -210.101 -85.4004 -210.101 -201.101c0 -160.3 120.5 -192.399 233.4 -223.3c97.2002 -26.5 191.4 -51.7002 191.4 -158.4c0 -23.9004 -5.7002 -63 -14.1006 -93.4004h-65.2002z" />
    <glyph glyph-name="sigma" unicode="&#x3c3;" horiz-adv-x="690" 
d="M671.1 540.7l0.000976562 -62.3994h-180.05c70.96 -43.1602 115.85 -123.021 115.85 -213.301c0 -159.4 -117.4 -276.4 -279.601 -276.4c-161.9 0 -281.7 118.4 -281.7 276.4c0 158.3 119.8 275.7 283.8 275.7h341.7zM538.9 265.701
c0 120.9 -88.5996 209.101 -212.3 209.101s-212.3 -87.9004 -212.3 -209.101c0 -123 88.5996 -211.2 212.3 -211.2s212.3 88.2002 212.3 211.2z" />
    <glyph glyph-name="tau" unicode="&#x3c4;" horiz-adv-x="483" 
d="M443.9 478.3h-182.801v-299.2c0 -74.7998 44.2002 -118.3 120.4 -118.3h58v-63.7998h-67.7998c-111.2 0 -178.601 66 -178.601 175.8v305.5h-178.1v61.7002h428.9v-61.7002z" />
    <glyph glyph-name="upsilon" unicode="&#x3c5;" horiz-adv-x="631" 
d="M315.7 -11.4004c-143.3 0 -235.601 94.1006 -235.601 238.801v312.6h68v-302.1c0 -113.5 64.2002 -183.4 167.601 -183.4c104.1 0 167.6 70.5996 167.6 183.399v302.1h68v-312.6c0 -144.7 -91.5996 -238.8 -235.6 -238.8z" />
    <glyph glyph-name="phi" unicode="&#x3c6;" horiz-adv-x="731" 
d="M685.2 266.6c0 -159.54 -117.012 -272.819 -285.602 -277.169v-181.53h-66.5996v181.49c-165.65 3.67969 -287.7 121.699 -287.7 277.209c0 123.7 76 226.7 197.7 267.4l19.4004 -57.9004c-94.2998 -34.0996 -149.8 -111.8 -149.8 -209.5
c0 -119.42 92.6104 -207.75 220.4 -211.29v484.69h56.5c175.4 0 295.7 -111.4 295.7 -273.4zM399.108 55.3506c128.69 4.08984 218.79 90.4307 218.79 211.251c0 120.52 -89.96 204.489 -219.7 208.079v-381.68z" />
    <glyph glyph-name="chi" unicode="&#x3c7;" horiz-adv-x="505" 
d="M496.3 0h-76.5996l-167.51 236.82l-167.89 -236.82h-75.2002l202.13 281.53l-184.33 258.47h76.5996l149.37 -210.78l151.13 210.78h75.2002l-185.79 -255.67z" />
    <glyph glyph-name="psi" unicode="&#x3c8;" horiz-adv-x="780" 
d="M635 540h68.001v-279.3c0 -156.7 -109 -271.4 -260 -271.4h-17.5v-181.4h-72.2002v181.4h-16.7998c-151 0 -260 115.7 -260 271.4v279.3h68v-276.5c0 -115.4 83.2998 -203.4 194.8 -203.4h16.7998v478.9h67.2998v-478.9h17.5c111.1 0 194.1 87 194.1 203.4v276.5z" />
    <glyph glyph-name="omega" unicode="&#x3c9;" horiz-adv-x="886" 
d="M770 540c38.7002 -90.4004 59.7021 -187.301 59.7021 -274.9c0 -164 -71.9004 -275.5 -198.4 -275.5c-93.5098 0 -164.62 48.71 -188.521 120.85c-24.5 -72.1396 -96.0898 -120.85 -188.979 -120.85c-126.8 0 -197.7 109.8 -197.7 274.5
c0 87.5996 20.2998 183.1 59 275.899h71.7998c-40.0996 -86.2002 -62.7998 -184.7 -62.7998 -268.9c0 -135.3 53.2998 -216.3 142.3 -216.3c82.7998 0 144.6 64.9004 144.6 150.801v183.8h63.0996v-183.8c0 -85.9004 61.7998 -150.801 143.899 -150.801
c89.4004 0 142.301 80.9004 142.301 217.301c0 84.2002 -22.7002 183 -61.4004 267.9h71.0996z" />
    <glyph glyph-name="iotatonos" unicode="&#x3af;" horiz-adv-x="341" 
d="M82.4004 604.2l70.7998 152h72.7998l-89 -152h-54.5996zM261 -3c-111.2 0 -178.601 66 -178.601 175.8v367.2h68v-360.9c0 -74.7998 44.2002 -118.3 120.4 -118.3h58v-63.7998h-67.7998z" />
    <glyph glyph-name="iotadieresis" unicode="&#x3ca;" horiz-adv-x="341" 
d="M-17.2002 642v84.0996h81.7998v-84.0996h-81.7998zM170.3 642v84.0996h81.7998v-84.0996h-81.7998zM261 -3c-111.2 0 -178.601 66 -178.601 175.8v367.2h68v-360.9c0 -74.7998 44.2002 -118.3 120.4 -118.3h58v-63.7998h-67.7998z" />
    <glyph glyph-name="iotadieresistonos" unicode="&#x390;" horiz-adv-x="341" 
d="M89.7002 604.5l37.7998 152h60.2998l-52.5 -152h-45.5996zM-12.2998 648.3v71.5h65.7002v-71.5h-65.7002zM225.4 648.3v71.5h65.7002v-71.5h-65.7002zM261 -3c-111.2 0 -178.601 66 -178.601 175.8v367.2h68v-360.9c0 -74.7998 44.2002 -118.3 120.4 -118.3h58v-63.7998
h-67.7998z" />
    <glyph glyph-name="upsilontonos" unicode="&#x3cd;" horiz-adv-x="631" 
d="M280.3 604.2l70.7998 152h72.7998l-89 -152h-54.5996zM315.699 -11.3994c-143.3 0 -235.601 94.1006 -235.601 238.801v312.6h68v-302.1c0 -113.5 64.2002 -183.4 167.601 -183.4c104.1 0 167.6 70.5996 167.6 183.399v302.1h68v-312.6
c0 -144.7 -91.5996 -238.8 -235.6 -238.8z" />
    <glyph glyph-name="upsilondieresis" unicode="&#x3cb;" horiz-adv-x="631" 
d="M180.7 642v84.0996h81.7998v-84.0996h-81.7998zM368.2 642v84.0996h81.7998v-84.0996h-81.7998zM315.7 -11.4004c-143.3 0 -235.601 94.1006 -235.601 238.801v312.6h68v-302.1c0 -113.5 64.2002 -183.4 167.601 -183.4c104.1 0 167.6 70.5996 167.6 183.399v302.1h68
v-312.6c0 -144.7 -91.5996 -238.8 -235.6 -238.8z" />
    <glyph glyph-name="upsilondieresistonos" unicode="&#x3b0;" horiz-adv-x="631" 
d="M262 604.5l51.501 152h65.0996l-63.4004 -152h-53.2002zM159.801 648v71.5h65.7002v-71.5h-65.7002zM417.201 648v71.5h65.7002v-71.5h-65.7002zM315.701 -11.4004c-143.3 0 -235.601 94.1006 -235.601 238.801v312.6h68v-302.1c0 -113.5 64.2002 -183.4 167.601 -183.4
c104.1 0 167.6 70.5996 167.6 183.399v302.1h68v-312.6c0 -144.7 -91.5996 -238.8 -235.6 -238.8z" />
    <glyph glyph-name="omicrontonos" unicode="&#x3cc;" horiz-adv-x="660" 
d="M294.5 604.2l70.7998 152h72.7998l-89 -152h-54.5996zM329.899 -11.3994c-162.5 0 -284.6 120 -284.6 281.4c0 162.4 122.1 281.4 284.6 281.4c162.8 0 284.6 -120 284.6 -281.4s-121.8 -281.4 -284.6 -281.4zM329.899 54.501c124.3 0 215.2 91.2002 215.2 215.5
s-90.9004 215.5 -215.2 215.5s-215.2 -90.9004 -215.2 -215.5c0 -124.3 91.2002 -215.5 215.2 -215.5z" />
    <glyph glyph-name="omegatonos" unicode="&#x3ce;" horiz-adv-x="886" 
d="M548.2 756.2l-89 -152h-54.5996l70.7998 152h72.7998zM770 540c38.7002 -90.4004 59.7021 -187.301 59.7021 -274.9c0 -164 -71.9004 -275.5 -198.4 -275.5c-93.5098 0 -164.62 48.71 -188.521 120.85c-24.5 -72.1396 -96.0898 -120.85 -188.979 -120.85
c-126.8 0 -197.7 109.8 -197.7 274.5c0 87.5996 20.2998 183.1 59 275.899h71.7998c-40.0996 -86.2002 -62.7998 -184.7 -62.7998 -268.9c0 -135.3 53.2998 -216.3 142.3 -216.3c82.7998 0 144.6 64.9004 144.6 150.801v183.8h63.0996v-183.8
c0 -85.9004 61.7998 -150.801 143.899 -150.801c89.4004 0 142.301 80.9004 142.301 217.301c0 84.2002 -22.7002 183 -61.4004 267.9h71.0996z" />
    <glyph glyph-name="alphatonos" unicode="&#x3ac;" horiz-adv-x="700" 
d="M444.5 756.2l-89 -152h-54.5996l70.7998 152h72.7998zM555.8 540h54.6885v-540h-56.7998l-7.65039 96.71c-49.1396 -66.6104 -128.02 -108.11 -222.539 -108.11c-158.8 0 -278.2 121 -278.2 281.4c0 161.1 119.4 281.399 278.2 281.399
c94.9902 0 174.181 -41.6699 223.271 -108.8zM328.389 54.5c123 0 212.7 91.2998 212.7 215.5s-89.7002 215.5 -212.7 215.5c-122.4 0 -213.7 -92.9004 -213.7 -215.5c0 -122.9 91.2998 -215.5 213.7 -215.5z" />
    <glyph glyph-name="epsilontonos" unicode="&#x3ad;" horiz-adv-x="485" 
d="M348.3 756.2l-89 -152h-54.5996l70.7998 152h72.7998zM389.5 141.101l64.498 -0.000976562c-12.2998 -92.5996 -90.8994 -152.5 -198.699 -152.5c-119.4 0 -204.301 68.7998 -204.301 165.7c0 61.8701 31.0195 110.04 82.5596 133.28
c-44.0596 22.9902 -69.7598 63.5303 -69.7598 115.62c0 85.5 80.2002 148.2 187.9 148.2c101.4 0 177.4 -56.0996 188.4 -140.399h-63.0996c-11 51.4004 -58.5996 84.3008 -123.199 84.3008c-73 0 -124.8 -39.5 -124.8 -96.2998c0 -51.4004 40.2002 -88.4004 100.5 -88.4004
h85.4004v-51.9004h-85.7002c-65.7002 0 -110.9 -43.7998 -110.9 -100.2c0 -63.2998 56.7998 -107.5 137 -107.5c72 0 124 35.5996 134.2 90.0996z" />
    <glyph glyph-name="etatonos" unicode="&#x3ae;" horiz-adv-x="641" 
d="M442.6 756.2l-89 -152h-54.5996l70.7998 152h72.7998zM351.1 551.4c128.9 0 209.501 -88.6006 209.501 -229.2v-514.3h-68v498.9c0 115.7 -57.4004 182.2 -158.301 182.2c-98.0996 0 -176.6 -83.5 -176.6 -188v-301h-68v540h49.0996l13.8398 -94.9102
c40.3096 65.25 112.59 106.31 198.46 106.31z" />
    <glyph glyph-name="zero" unicode="0" horiz-adv-x="619" 
d="M309.9 -11.4004c-155.67 0 -253.66 132.7 -253.66 344.22c0 212.09 97.29 343.53 253.66 343.53c155.66 0 252.95 -131.44 252.95 -343.53c0 -211.52 -97.9902 -344.22 -252.95 -344.22zM309.9 51.6992c115.05 0 186.351 105.89 186.351 281.12
c0 174.94 -71.2002 280.431 -186.351 280.431c-115.86 0 -187.061 -105.49 -187.061 -280.431c0 -175.23 70.6104 -281.12 187.061 -281.12z" />
    <glyph glyph-name="one" unicode="1" horiz-adv-x="324" 
d="M25.0996 665h199.2v-665h-65.2002v604h-134v61z" />
    <glyph glyph-name="two" unicode="2" horiz-adv-x="519" 
d="M165.9 63.0996l312.801 0.00195312v-63.0996h-441.5v23.7998c311.1 320.81 346.1 378.199 346.1 465.499c0 74 -51.5996 124 -129.5 124c-80.2998 0 -134.5 -51.2998 -134.5 -124.7v-16.9004h-65.9004v16.9004c0 113.2 82.5 187.8 200.4 187.8
c116.1 0 196.1 -76.7002 196.1 -187.101c0 -94.8301 -35.1504 -162.79 -284 -426.2z" />
    <glyph glyph-name="three" unicode="3" horiz-adv-x="528" 
d="M280.55 411.83c116.62 -9.2998 197.551 -96.458 197.551 -208.528c0 -125.2 -95.5 -214.7 -219.3 -214.7c-120.7 0 -208.9 83.5996 -215.801 201.699h65.2002c6.2002 -82.7002 66.7002 -138.601 150.601 -138.601c87.9004 0 152.7 65.0996 152.7 153.699
c0 87.7002 -69.4004 152.4 -163 152.4h-68.2998v14.9004l169.06 231.6h-283.16v61h386.6v-17z" />
    <glyph glyph-name="four" unicode="4" horiz-adv-x="534" 
d="M506.4 202.7l0.000976562 -58.8994h-74.2998v-143.8h-64.5v143.8h-346.4v17.5996l238.3 505.1h69l-218.36 -463.8h258.09l10.5703 218.6h53.2998v-218.6h74.2998z" />
    <glyph glyph-name="five" unicode="5" horiz-adv-x="521" 
d="M251.8 416c131.3 0 226.11 -93.4004 226.11 -212.7c0 -124.5 -95.5 -214.7 -217.9 -214.7c-122.1 0 -211.699 85 -217.199 201.7h65.2002c5.5 -82 67.4004 -138.6 152 -138.6c86.5 0 151.3 64.4004 151.3 151.601c0 87 -69.4004 153.1 -161.601 153.1h-165
l-10.2002 11.5996l32.5 297.3h325.8v-61h-270.91l-20.5195 -188.3h110.42z" />
    <glyph glyph-name="six" unicode="6" horiz-adv-x="549" 
d="M292.5 426.6c120.4 0 224.901 -86.8984 224.901 -215.698c0 -129.4 -97.9004 -222.301 -233.301 -222.301c-136.5 0 -234.7 93.2002 -234.7 222.3c0 62.7998 26.5996 140.899 73.2998 224.199l133.6 237.1h72.5c-102.8 -183.81 -131.26 -234.619 -152.02 -277.77
c34.6396 20.8701 75.0898 32.1699 115.72 32.1699zM283.401 51.7012c96.5996 0 167.399 67.2002 167.399 159.2c0 92.7002 -70.7998 158.9 -167.399 158.9s-167.399 -66.9004 -167.399 -158.9c0 -91.2998 70.7998 -159.2 167.399 -159.2z" />
    <glyph glyph-name="seven" unicode="7" horiz-adv-x="491" 
d="M25.4004 665.3h442.5v-13.2002l-264 -652.1h-71l246.33 604.3h-353.83v61z" />
    <glyph glyph-name="eight" unicode="8" horiz-adv-x="571" 
d="M411.35 357.39c64.5 -29 105.77 -93.041 105.77 -168.931c0 -117.18 -95.1602 -199.88 -232.11 -199.88c-138.35 0 -231.409 80.5996 -231.409 199.88c0 74.5898 41.3301 138.29 106.6 168.9c-49.4199 28.46 -80.9795 83.8301 -80.9795 145.87
c0 102.29 83.5498 173.05 205.78 173.05s205.08 -70.0596 205.08 -173.06c0 -63.0303 -31.2402 -119.03 -78.7305 -145.83zM285.02 619.488c-84.0498 0 -140.58 -47.6602 -140.58 -116.25c0 -71.9102 58.2402 -119.01 140.58 -119.01
c81.6201 0 139.88 47.0898 139.88 119.01c0 68.5898 -56.5303 116.25 -139.88 116.25zM285.02 47.4883c98.7998 0 165.5 56.8301 165.5 138.88c0 85.7002 -68.3896 141.04 -165.5 141.04c-96.4102 0 -164.8 -55.3398 -164.8 -141.04
c0 -82.0498 66.7002 -138.88 164.8 -138.88z" />
    <glyph glyph-name="nine" unicode="9" horiz-adv-x="547" 
d="M264.4 676.4c135.8 0 233.301 -93.2012 233.301 -222.301c0 -62.7998 -24.5 -141.6 -71.9004 -224.199l-133.6 -232.9h-72.5c101.16 178.43 130.05 229.01 151.399 272.77c-33.6104 -20.1699 -73.3408 -31.3701 -115.101 -31.3701c-126.7 0 -224.2 93.9004 -224.2 215.7
c0 129.4 97.9004 222.301 232.601 222.301zM265.102 295.899c95.9004 0 166 66.9004 166 158.2s-70.0996 159.2 -166 159.2s-166.7 -67.2002 -166.7 -159.2s70.7998 -158.2 166.7 -158.2z" />
    <glyph glyph-name="zero.sinf" horiz-adv-x="370" 
d="M184.8 -81.4004c-91.0996 0 -146.699 76.0996 -146.699 195.3c0 120.5 55.5996 194.6 146.699 194.6s146.699 -74.0996 146.699 -194.6c0 -119.2 -55.5996 -195.3 -146.699 -195.3zM184.8 -26.7002c56.5 0 91.2988 52.2998 91.2988 140.6
c0 88.5996 -34.5 139.899 -91.2998 139.899s-90.5996 -51.2998 -90.5996 -139.899c0 -87.5996 33.4004 -140.6 90.6006 -140.6z" />
    <glyph glyph-name="one.sinf" horiz-adv-x="202" 
d="M23.0996 301.2h121.199v-374.6h-55.0996v325.8h-66.0996v48.7998z" />
    <glyph glyph-name="two.sinf" horiz-adv-x="317" 
d="M134.1 -20.0996l149.2 -0.000976562v-52.5996h-252.9v14.2998c166 180.2 186.4 211.4 186.4 256.601c0 36.7002 -24.7998 61.2002 -61.2998 61.2002c-37.9004 0 -64 -25.5 -64 -61.9004v-8.90039h-54v8.90039c0 67.2002 47.5 111.7 117.3 111.7
c69.0996 0 117.399 -45.5996 117.399 -111c0 -51.5498 -24.1396 -92.4795 -138.1 -218.3z" />
    <glyph glyph-name="three.sinf" horiz-adv-x="321" 
d="M179.65 160.98c63.3398 -8.08984 106.649 -56.0596 106.649 -118.979c0 -72.2002 -54.7998 -123.4 -127.6 -123.4c-70.2998 0 -121.899 48.9004 -125.1 118h53.2998c3.2002 -39.2998 31.9004 -66.7998 71.8008 -66.7998c42.9004 0 73.6006 30.7002 73.6006 74.2998
c0 42.5996 -33.2998 72.8994 -79.2002 72.8994h-48.2002v11.2002l87.04 123.2h-147.24v49.0996h227.6v-12.2998z" />
    <glyph glyph-name="four.sinf" horiz-adv-x="329" 
d="M301.3 52.0996v-48.4004h-38.2998v-77.0996h-52.5996v77.0996h-188.3v12.4004l130 285.1h55l-114.78 -249.1h118.92l8.95996 109.2h42.7998v-109.2h38.2998z" />
    <glyph glyph-name="five.sinf" horiz-adv-x="314" 
d="M153.2 162.3c75.7002 0 129.59 -51.1006 129.59 -120.801c0 -70.5996 -54.5996 -122.199 -125 -122.199c-71.5 0 -124.5 48.7002 -125.7 117.101h54c2.2002 -39 30.7002 -66.5996 71.7002 -66.5996c40.9004 0 70.3008 30.0996 70.3008 71.6992
c0 42.2998 -31.7002 73.0996 -75.6006 73.0996h-100.3l-6.40039 8.5l20.0996 178.1h191.8v-49.0996h-147l-10.3496 -89.7998h52.8604z" />
    <glyph glyph-name="six.sinf" horiz-adv-x="330" 
d="M179.9 166.4c69.7002 0 123.899 -49.4004 123.899 -119c0 -74.7998 -56.2998 -128.1 -134.399 -128.1c-78.9004 0 -135.5 52.9004 -135.5 128.101c0 33.4004 12.5 74 40 122.5l76.2998 134h60.9004l-71.5996 -126c-4.75 -8.74023 -9.19043 -17.3701 -13.46 -26.0205
c15.5098 9.08984 34.5596 14.5195 53.8594 14.5195zM168.699 -29.5c47.4004 0 81.1006 31.2002 81.1006 76.9004c0 45 -33.7002 76.9004 -81.1006 76.9004c-46.7002 0 -80.7998 -31.9004 -80.7998 -76.9004c0 -45.7002 34.0996 -76.9004 80.7998 -76.9004z" />
    <glyph glyph-name="seven.sinf" horiz-adv-x="301" 
d="M23.7002 301.2l257.101 0.000976562v-8.2002l-147 -366.4h-56.4004l131.89 325.5h-185.59v49.0996z" />
    <glyph glyph-name="eight.sinf" horiz-adv-x="343" 
d="M248.24 127.03c36.25 -18.8701 57.1631 -51.29 57.1631 -93.2305c0 -67.5996 -54.9004 -115.199 -134.301 -115.199s-133.601 47.5996 -133.601 115.199c0 42.1699 20.3496 74.7197 57.2793 93.3301c-27.9004 17.8799 -44.1807 45.5303 -44.1807 79.7705
c0 59.2998 49 101.6 121.2 101.6c71.5 0 120.5 -42.2998 120.5 -101.6c0 -34.0195 -16.5801 -62.5498 -44.0605 -79.8701zM171.803 262.9c-40.2998 0 -67.9014 -24 -67.9014 -56.7002c0 -34 27.9004 -57.2998 67.9004 -57.2998c39.2998 0 67.2002 23.2998 67.2002 57.2998
c0 32.7002 -27.5996 56.7002 -67.1992 56.7002zM171.801 -33c47.7998 0 79.5996 27.5 79.5996 66.7998c0 40.9004 -31.7998 68.8008 -79.5996 68.8008s-80.2998 -27.9004 -80.2998 -68.8008c0 -39.2998 32.5 -66.7998 80.2998 -66.7998z" />
    <glyph glyph-name="nine.sinf" horiz-adv-x="330" 
d="M160.9 309.2c78.9004 0 135.501 -52.8984 135.501 -128.099c0 -33.4004 -12.2002 -74 -40 -122.5l-76.2998 -134h-60.9004l71.5996 126c4.59961 8.46973 8.91992 16.8398 13.0703 25.2295c-15.4404 -8.74023 -34.3301 -13.7305 -53.4697 -13.7305
c-69.7002 0 -123.9 49.4004 -123.9 119c0 74.7998 56.2998 128.1 134.399 128.1zM161.602 104.202c46.7002 0 80.7998 31.2002 80.7998 76.9004s-34.0996 76.9004 -80.7998 76.9004c-47.4004 0 -81.1006 -31.2002 -81.1006 -76.9004s33.7002 -76.9004 81.1006 -76.9004z" />
    <glyph glyph-name="zero.tf" horiz-adv-x="565" 
d="M282.6 -11.4004c-156 0 -254.2 133 -254.2 345c0 213 97.5 345 254.2 345c156 0 253.5 -132 253.5 -345c0 -212 -98.2002 -345 -253.5 -345zM282.6 52.3994c115.4 0 186.9 105.3 186.9 281.2s-71.5 281.2 -186.9 281.2c-116.1 0 -187.6 -105.3 -187.6 -281.2
s70.7998 -281.2 187.6 -281.2z" />
    <glyph glyph-name="one.tf" horiz-adv-x="565" 
d="M330 61h159.499v-61h-394.1v61h168v543h-141.3v61h207.9v-604z" />
    <glyph glyph-name="two.tf" horiz-adv-x="565" 
d="M185.46 63.0996l320.44 -0.000976562v-63.0996h-449.3v23.7998c309 316.4 352.1 380.301 352.1 470.001c0 74.2998 -52.7998 123.3 -132.5 123.3c-82.0996 0 -137.5 -50.5996 -137.5 -124v-17.5h-65.9004v17.5c0 112.6 83.0996 187.8 203.399 187.8
c118.2 0 199.101 -76.7002 199.101 -187.101c0 -97.4199 -43.0898 -171.68 -289.84 -430.699z" />
    <glyph glyph-name="three.tf" horiz-adv-x="565" 
d="M299.68 413.09c117.91 -8.5 200.219 -97.1016 200.219 -209.191c0 -125.5 -97.4004 -215.3 -223 -215.3c-122.9 0 -212.601 83.9004 -219.501 202.301h65.2002c6.2002 -82.2998 67.9004 -138.5 154.301 -138.5c90.4004 0 156.4 65.4004 156.4 153.601
c0 88 -70.5996 153 -166.699 153h-68.2998v15.5996l168.46 229.4h-285.56v61h392.6v-17z" />
    <glyph glyph-name="four.tf" horiz-adv-x="565" 
d="M521.9 202.7v-58.8994h-75.7002v-143.8h-63.0996v143.8h-346.4v17.5996l237.7 503.6h67.5996l-219.09 -462.3h260.84l10.5498 218.6h51.9004v-218.6h75.7002z" />
    <glyph glyph-name="five.tf" horiz-adv-x="565" 
d="M273.4 417.2c133.1 0 229.099 -93.999 229.099 -213.899c0 -124.5 -96.7002 -214.7 -220.9 -214.7c-124.3 0 -215.399 85.2998 -220.899 202.3h65.9004c5.5 -81.5996 68.5996 -138.5 155 -138.5c88.2998 0 154.3 64.4004 154.3 150.9
c0 87.5996 -70.5996 154.3 -164.6 154.3h-166.3l-11.9004 11.5996l32.5 295.8h331.8v-60.2998h-276.85l-20.5596 -187.5h113.41z" />
    <glyph glyph-name="six.tf" horiz-adv-x="565" 
d="M300 426.9c126.7 0 224.901 -91.7988 224.901 -215.699c0 -129.4 -97.9004 -222.301 -233.301 -222.301c-136.5 0 -234.7 93.2002 -234.7 222.3c0 62.7998 26.2002 141.6 73.2998 224.199l133.6 236.5h72.5c-102.79 -183.7 -131.25 -234.05 -152.01 -277.109
c34.1797 20.6299 74.3799 32.1104 115.71 32.1104zM290.901 52.7012c96.5996 0 167.399 67.2002 167.399 158.5s-70.7998 157.5 -167.399 157.5s-167.399 -66.9004 -167.399 -157.5s70.7998 -158.5 167.399 -158.5z" />
    <glyph glyph-name="seven.tf" horiz-adv-x="565" 
d="M60.9004 665h444.901v-13.2002l-266.4 -651.8h-68.9004l249.34 604h-358.94v61z" />
    <glyph glyph-name="eight.tf" horiz-adv-x="565" 
d="M404.82 359.6c66.8203 -28.3701 109.68 -92.4512 109.68 -169.701c0 -118 -95.2998 -201.3 -232.6 -201.3c-138.7 0 -231.9 81.2002 -231.9 201.3c0 76.1104 43.0996 139.9 110.88 169.66c-51.96 27.6396 -85.1797 83.0195 -85.1797 146.64
c0 103.4 83.4004 174.7 206.2 174.7s205.5 -70.5996 205.5 -174.699c0 -64.4199 -32.71 -120.34 -82.5801 -146.6zM281.899 624.099c-84.2998 0 -141 -48.0996 -141 -117.899c0 -71 57 -119.4 141 -119.4s141 48.4004 141 119.4c0 69.7998 -56.7002 117.899 -141 117.899z
M281.899 47.499c99.0996 0 166 57.2998 166 140.3c0 84.5 -66.9004 141.5 -166 141.5s-166 -57 -166 -141.5c0 -83 66.9004 -140.3 166 -140.3z" />
    <glyph glyph-name="nine.tf" horiz-adv-x="565" 
d="M273.6 680c136.5 0 234.7 -93.2021 234.7 -222.302c0 -62.7998 -25.9004 -140.899 -73.3008 -224.199l-133.6 -236.5h-72.5c102.07 182.41 130.851 233.73 151.57 276.5c-34.3496 -20.6504 -74.3994 -31.5 -115.27 -31.5c-119.7 0 -225.601 86.9004 -225.601 215.7
c0 129.4 98.5996 222.301 234 222.301zM274.3 300.198c96.5996 0 168.1 66.9004 168.1 157.5s-71.5 158.5 -168.1 158.5s-168.1 -67.2002 -168.1 -158.5s71.5 -157.5 168.1 -157.5z" />
    <glyph glyph-name="zero.dnom" horiz-adv-x="370" 
d="M184.8 -8c-91.0996 0 -146.699 76.0996 -146.699 195.3c0 120.5 55.5996 194.6 146.699 194.6s146.699 -74.0996 146.699 -194.6c0 -119.2 -55.5996 -195.3 -146.699 -195.3zM184.8 46.7002c56.5 0 91.2988 52.2998 91.2988 140.6
c0 88.5996 -34.5 139.899 -91.2998 139.899s-90.5996 -51.2998 -90.5996 -139.899c0 -87.5996 33.4004 -140.6 90.6006 -140.6z" />
    <glyph glyph-name="one.dnom" horiz-adv-x="202" 
d="M23.0996 374.6h121.199v-374.6h-55.0996v325.8h-66.0996v48.7998z" />
    <glyph glyph-name="two.dnom" horiz-adv-x="317" 
d="M134.1 52.5996l149.2 -0.000976562v-52.5996h-252.9v14.2998c166 180.2 186.4 211.4 186.4 256.601c0 36.7002 -24.7998 61.2002 -61.2998 61.2002c-37.9004 0 -64 -25.5 -64 -61.9004v-8.90039h-54v8.90039c0 67.2002 47.5 111.7 117.3 111.7
c69.0996 0 117.399 -45.5996 117.399 -111c0 -51.5498 -24.1396 -92.4795 -138.1 -218.3z" />
    <glyph glyph-name="three.dnom" horiz-adv-x="321" 
d="M179.65 235.08c63.3398 -8.08984 106.649 -56.0596 106.649 -118.979c0 -72.2002 -54.7998 -123.4 -127.6 -123.4c-70.2998 0 -121.899 48.9004 -125.1 118h53.2998c3.2002 -39.2998 31.9004 -66.7998 71.8008 -66.7998c42.9004 0 73.6006 30.7002 73.6006 74.2998
c0 42.5996 -33.2998 72.8994 -79.2002 72.8994h-48.2002v11.2002l87.04 123.2h-147.24v49.0996h227.6v-12.2998z" />
    <glyph glyph-name="four.dnom" horiz-adv-x="329" 
d="M302 125.5v-48.4004h-38.2998v-77.0996h-52.5996v77.0996h-188.3v12.4004l130 285.1h55l-114.78 -249.1h118.92l8.95996 109.2h42.7998v-109.2h38.2998z" />
    <glyph glyph-name="five.dnom" horiz-adv-x="314" 
d="M153.2 235.7c75.7002 0 129.59 -51.1006 129.59 -120.801c0 -70.5996 -54.5996 -122.199 -125 -122.199c-71.5 0 -124.5 48.7002 -125.7 117.101h54c2.2002 -39 30.7002 -66.5996 71.7002 -66.5996c40.9004 0 70.3008 30.0996 70.3008 71.6992
c0 42.2998 -31.7002 73.0996 -75.6006 73.0996h-100.3l-6.40039 8.5l20.0996 178.1h191.8v-49.0996h-147l-10.3496 -89.7998h52.8604z" />
    <glyph glyph-name="six.dnom" horiz-adv-x="330" 
d="M179.9 239.8c69.7002 0 123.899 -49.4004 123.899 -119c0 -74.7998 -56.2998 -128.1 -134.399 -128.1c-78.9004 0 -135.5 52.9004 -135.5 128.101c0 33.4004 12.5 74 40 122.5l76.2998 134h60.9004l-71.5996 -126c-4.75 -8.74023 -9.19043 -17.3701 -13.46 -26.0205
c15.5098 9.08984 34.5596 14.5195 53.8594 14.5195zM168.699 43.8994c47.4004 0 81.1006 31.2002 81.1006 76.9004c0 45 -33.7002 76.9004 -81.1006 76.9004c-46.7002 0 -80.7998 -31.9004 -80.7998 -76.9004c0 -45.7002 34.0996 -76.9004 80.7998 -76.9004z" />
    <glyph glyph-name="seven.dnom" horiz-adv-x="301" 
d="M24 374.6l257.101 0.000976562v-8.2002l-147 -366.4h-56.4004l131.89 325.5h-185.59v49.0996z" />
    <glyph glyph-name="eight.dnom" horiz-adv-x="343" 
d="M248.24 201.13c36.25 -18.8701 57.1631 -51.29 57.1631 -93.2305c0 -67.5996 -54.9004 -115.199 -134.301 -115.199s-133.601 47.5996 -133.601 115.199c0 42.1699 20.3496 74.7197 57.2793 93.3301c-27.9004 17.8799 -44.1807 45.5303 -44.1807 79.7705
c0 59.2998 49 101.6 121.2 101.6c71.5 0 120.5 -42.2998 120.5 -101.6c0 -34.0195 -16.5801 -62.5498 -44.0605 -79.8701zM171.803 337c-40.2998 0 -67.9014 -24 -67.9014 -56.7002c0 -34 27.9004 -57.2998 67.9004 -57.2998c39.2998 0 67.2002 23.2998 67.2002 57.2998
c0 32.7002 -27.5996 56.7002 -67.1992 56.7002zM171.801 41.0996c47.7998 0 79.5996 27.5 79.5996 66.7998c0 40.9004 -31.7998 68.8008 -79.5996 68.8008s-80.2998 -27.9004 -80.2998 -68.8008c0 -39.2998 32.5 -66.7998 80.2998 -66.7998z" />
    </font>
</defs>
</svg>
